#TITLE:1-800 Clap Your Hands (The Water Is Rising);
#SUBTITLE:;
#ARTIST:Emily Osment;
#TITLETRANSLIT:;
#SUBTITLETRANSLIT:;
#ARTISTTRANSLIT:;
#GENRE:;
#CREDIT:Chewi☆;
#BANNER:1-800 Clap Your Hands (The Water Is Rising).png;
#BACKGROUND:1-800 Clap Your Hands (The Water Is Rising)-bg.png;
#LYRICSPATH:;
#CDTITLE:;
#MUSIC:1-800 Clap Your Hands (The Water Is Rising).mp3;
#OFFSET:-0.508;
#SAMPLESTART:40.520;
#SAMPLELENGTH:15.000;
#SELECTABLE:YES;
#DISPLAYBPM:60.000:120.000;
#BPMS:0.000=120.000
,144.000=60.000
;
#STOPS:
;
#BGCHANGES:;
#KEYSOUNDS:;
#ATTACKS:;

//---------------dance-single - Chewi----------------
#NOTES:
     dance-single:
     Chewi:
     Beginner:
     1:
     0.079,0.084,0.052,0.021,0.000,46.000,5.000,2.000,0.000,0.000,0.000,0.079,0.084,0.052,0.021,0.000,46.000,5.000,2.000,0.000,0.000,0.000: // measure 0
0000
0000
0000
0000
,  // measure 1
0000
0000
0000
0000
,  // measure 2
0000
0000
0000
0000
,  // measure 3
0000
0000
0000
0000
,  // measure 4
0000
1000
0000
1000
,  // measure 5
0000
0001
0000
0001
,  // measure 6
0000
1000
0000
1000
,  // measure 7
0000
0001
0000
0001
,  // measure 8
0000
0100
0000
0100
,  // measure 9
0000
0010
0000
0010
,  // measure 10
0000
0100
0000
0100
,  // measure 11
0000
0010
0000
0000
,  // measure 12
0010
0000
1000
0000
,  // measure 13
0001
0000
0000
0000
,  // measure 14
1000
0000
0100
0000
,  // measure 15
0010
0000
0000
0000
,  // measure 16
0001
0000
0010
0000
,  // measure 17
0001
0000
0000
0000
,  // measure 18
1000
0000
0100
0000
,  // measure 19
1000
0000
0000
0000
,  // measure 20
1001
0000
0000
0000
,  // measure 21
0000
0000
1000
1000
,  // measure 22
1000
0000
0000
0000
,  // measure 23
0000
0000
0000
0000
,  // measure 24
1001
0000
0000
0000
,  // measure 25
0000
0000
0001
0001
,  // measure 26
0001
0000
0000
0000
,  // measure 27
0000
0000
0000
0000
,  // measure 28
0110
0000
0000
0000
,  // measure 29
0000
0000
0100
0100
,  // measure 30
0100
0000
0000
0000
,  // measure 31
0000
0000
0000
0000
,  // measure 32
0110
0000
0000
0000
,  // measure 33
0000
0000
0010
0010
,  // measure 34
0010
0000
0000
0000
,  // measure 35
0000
0000
0000
0000
,  // measure 36
2000
0000
0000
0000
,  // measure 37
3000
0000
0000
0000
,  // measure 38
0002
0000
0000
0000
,  // measure 39
0003
0000
0000
0000
,  // measure 40
1001
0000
0000
0000
;

//---------------dance-single - Chewi----------------
#NOTES:
     dance-single:
     Chewi:
     Easy:
     4:
     0.159,0.171,0.094,0.252,0.000,73.000,9.000,24.000,0.000,0.000,0.000,0.159,0.171,0.094,0.252,0.000,73.000,9.000,24.000,0.000,0.000,0.000:
0000
0000
0000
0000
,
0000
0000
0000
0000
,
0000
0000
0000
0000
,
0000
0000
0000
0000
,
1000
0100
0100
0000
,
0001
0100
0100
0000
,
2000
3000
0200
0300
,
0020
0030
0002
0003
,
0001
0010
0010
0000
,
1000
0010
0010
0000
,
2000
3000
0020
0030
,
0200
0300
0002
0003
,
2000
0100
3001
0000
,
1000
0001
1001
0000
,
0002
0100
1003
0000
,
0001
1000
1001
0000
,
2000
0010
3001
0000
,
0010
0100
0110
0000
,
0002
0010
1003
0000
,
0100
0010
0110
0000
,
2002
0000
0000
0000
,
0000
3003
1000
0001
,
0100
0010
0100
0000
,
0000
0000
0000
0000
,
0220
0000
0000
0000
,
0000
0330
0010
1000
,
0100
0010
0001
0000
,
0000
0000
0000
0000
,
2002
0000
0000
0000
,
0000
3003
0001
0100
,
0010
1000
0001
0000
,
0000
0000
0000
0000
,
0220
0000
0000
0000
,
0000
0330
0100
1000
,
0001
0010
0100
0000
,
0000
0000
0000
0000
,
2000
0000
0000
0000
,
3001
0000
0000
0000
,
0002
0000
0000
0000
,
1003
0000
0000
0000
,
2002
0000
0000
3003
;

//---------------dance-single - Chewi----------------
#NOTES:
     dance-single:
     Chewi:
     Medium:
     7:
     0.249,0.214,0.073,0.168,0.010,143.000,7.000,16.000,0.000,0.000,0.000,0.249,0.214,0.073,0.168,0.010,143.000,7.000,16.000,0.000,0.000,0.000:
0000
0000
0000
0000
,
0000
0000
0000
0000
,
0000
0000
0000
0000
,
0000
0000
0000
0000
,
1000
0000
0100
0000
0010
0001
0010
0000
,
0001
1000
1001
0000
,
0001
0000
0100
0000
0010
1000
0010
0000
,
1000
0001
1001
0000
,
1000
0000
0100
0000
1000
0001
0100
0000
,
0001
0100
0101
0000
,
0001
0000
0100
0000
0001
1000
0100
0000
,
1000
0100
1100
0000
,
2000
3010
0002
0013
,
0100
0010
0100
0010
0000
0000
0000
0000
,
0002
0103
2000
3100
,
0010
0100
0010
0100
0000
0000
0000
0000
,
0002
1003
2000
3001
,
0001
1000
0001
1000
0000
0000
0000
0000
,
0002
1003
2000
3001
,
1000
0001
1000
0001
0000
0000
0000
0000
,
0001
0010
1000
0100
,
0001
0000
0010
0000
0100
1000
0100
0000
,
1000
0100
0001
0100
,
1000
0100
0001
0100
,
0001
0010
1000
0100
,
0001
0000
0010
0000
0100
1000
0100
0000
,
1000
0010
0001
0010
,
1000
0010
0001
0010
,
1000
0100
0001
0010
,
1000
0000
0100
0000
0010
0001
0010
0000
,
0001
0010
1000
0010
,
0001
0010
1000
0010
,
1000
0100
0001
0010
,
1000
0000
0100
0000
0010
0001
0010
0000
,
0001
0100
1000
0100
,
0001
0100
1000
0100
,
2002
0000
0000
0000
3003
0000
0001
1000
,
0001
0000
0000
0002
0000
0000
0000
0000
0000
0000
0000
0000
0003
0000
0000
0000
,
0220
0000
0000
0000
0330
0000
0010
0100
,
0010
0000
0000
0020
0000
0000
0000
0000
0000
0000
0000
0000
0030
0000
0000
0000
,
2002
0000
0000
3003
;

//---------------dance-single - Chewi----------------
#NOTES:
     dance-single:
     Chewi:
     Hard:
     9:
     0.331,0.299,0.273,0.241,0.021,172.000,26.000,23.000,0.000,0.000,0.000,0.331,0.299,0.273,0.241,0.021,172.000,26.000,23.000,0.000,0.000,0.000:
0000
0000
0000
0000
,
0000
0000
0000
0000
,
0000
0000
0000
0000
,
0000
0000
0000
0000
,
0001
0000
0101
0000
0100
0010
0100
0000
,
0001
0101
1000
1100
,
0001
0000
0011
0000
0010
0100
0010
0000
,
0001
0101
1000
1010
,
0001
0000
1000
0000
0100
1000
0010
0000
,
1000
0000
0001
0000
0010
0001
0100
0000
,
0001
0100
0010
0000
0100
0010
1000
0000
,
1000
0100
0010
0001
1000
0000
0000
1000
,
1000
1000
0000
0001
0001
0001
0000
1000
,
0100
0001
0010
1000
0000
0000
0000
0100
,
0100
0100
0000
0000
0010
0011
0000
0000
,
0001
0010
0100
1000
0000
0000
0000
0001
,
0001
0001
0000
1000
1000
1000
0000
0001
,
0010
1000
0100
0001
0000
0000
0000
0010
,
0010
0010
0000
0000
1000
1100
0000
0000
,
1000
0100
0010
0001
0000
0000
0000
0000
,
0001
0011
0002
2003
,
3001
0100
0010
1000
0001
0000
1001
0000
,
1000
1100
2000
3200
,
0310
0001
0100
0001
0010
0000
1001
0000
,
0001
0101
2000
3002
,
1003
0010
0100
0001
1000
0000
1001
0000
,
1000
1010
2000
3020
,
0130
0001
0010
0001
0100
0000
1001
0000
,
1000
1100
2000
3002
,
1003
0010
0100
0001
1000
0000
1001
0000
,
0001
0011
0002
0023
,
0130
1000
0010
1000
0100
0000
1001
0000
,
1000
1010
0002
2003
,
3001
0100
0010
1000
0001
0000
1001
0000
,
0001
0101
0002
0203
,
0310
1000
0100
1000
0010
0000
1001
0000
,
2000
0000
0000
0000
0000
0000
0000
0000
3000
0000
0000
0100
0010
0000
0001
0000
,
1000
0000
0000
2002
0000
0000
0000
0000
0000
0000
0000
0000
3003
0000
0000
0000
,
0002
0000
0000
0000
0000
0000
0000
0000
0003
0000
0000
0010
0100
0000
1000
0000
,
0001
0000
0000
2000
0000
0000
0000
0000
0000
0000
0000
0000
3000
0000
0000
0000
,
2002
0000
0000
3003
;
