#TITLE:1 more night;
#SUBTITLE:;
#ARTIST:ravex feat. MONKEY MAJIK;
#TITLETRANSLIT:;
#SUBTITLETRANSLIT:;
#ARTISTTRANSLIT:;
#GENRE:;
#CREDIT:Chewi☆;
#MENUCOLOR:#FFFF00;
#METERTYPE:DDR X;
#BANNER:1 more night.png;
#BACKGROUND:1 more night-bg.png;
#LYRICSPATH:;
#CDTITLE:./CDTITLES/DanceDanceRevolution skyMIX2 -FREEDOM-.png;
#MUSIC:1 more night.mp3;
#OFFSET:-0.036;
#SAMPLESTART:61.479;
#SAMPLELENGTH:15.000;
#SELECTABLE:YES;
#LISTSORT:;
#DISPLAYBPM:125.000;
#BPMS:0.000=125.000;
#STOPS:;
#BGCHANGES:-12.000=X2_Bonnie.avi=1.000=0=0=1,
99999=-nosongbg-=1.000=0=0=0 // don't automatically add -songbackground-
;
#ATTACKS:;

//---------------dance-single - Chewi----------------
#NOTES:
     dance-single:
     Chewi:
     Beginner:
     1:
     0.084,0.155,0.032,0.000,0.000:
0000
0000
0000
0000
,
0000
0000
0000
0000
,
0000
0000
0000
0000
,
0000
0000
0000
0000
,
1000
0000
0000
0000
,
0100
0000
0000
0000
,
0010
0000
0000
0000
,
0001
0000
0000
0000
,
0001
0000
0000
0000
,
1000
0000
0000
0000
,
0010
0000
0000
0000
,
0100
0000
0000
0000
,
0001
0000
0000
0000
,
0001
0000
0000
0000
,
0010
0000
0000
0000
,
1000
0000
0000
0000
,
1000
0000
0000
0000
,
1000
1000
0000
0000
,
0001
0000
0000
0000
,
0001
0001
0000
0000
,
0010
0000
0000
0000
,
0010
0000
0000
0000
,
0100
0000
0000
0000
,
0100
0000
0000
0000
,
1001
0000
0000
0000
,
1000
0000
0000
0000
,
0001
0000
0000
0000
,
1000
0000
0000
0000
,
0110
0000
0000
0000
,
0010
0000
0000
0000
,
0100
0000
0000
0000
,
0010
0000
0000
0000
,
1000
0000
0000
0000
,
0001
0000
0000
0000
,
0010
0000
0000
0000
,
1000
0000
0000
0000
,
1000
0000
0000
0000
,
0001
0000
0000
0000
,
0100
0000
0000
0000
,
0001
0000
0000
0000
,
1000
0000
1000
0000
,
1000
0000
0000
0000
,
0001
0000
0001
0000
,
0001
0000
0000
0000
,
0100
0000
0100
0000
,
0100
0000
0000
0000
,
0010
0000
0010
0000
,
0010
0000
0010
0000
,
1001
0000
0000
0000
;

//---------------dance-single - Chewi----------------
#NOTES:
     dance-single:
     Chewi:
     Easy:
     5:
     0.246,0.284,0.032,0.193,0.000:
0000
0000
0000
0000
,
0000
0000
0000
0000
,
0000
0000
0000
0000
,
0000
0000
0000
0000
,
2000
0000
0000
3000
,
0002
0000
0000
0003
,
2000
0000
0000
3000
,
0002
0000
0000
1003
,
1000
0100
1000
0000
,
0001
0100
0001
0000
,
1000
0100
0010
1000
,
0100
0001
0100
1000
,
0001
0100
0001
0000
,
1000
0100
1000
0000
,
0001
0100
0010
0001
,
0100
1000
0100
0001
,
2002
0000
0000
3003
,
0010
0010
0010
0010
,
0000
0000
0000
0000
,
0100
0001
0010
1000
,
0100
0000
0220
0000
,
0000
0330
0010
0010
,
0010
0010
0010
0000
,
0001
0001
1000
1000
,
2000
0100
0100
3100
,
0002
0100
0100
0103
,
2000
0010
0010
3010
,
0002
0010
0010
0013
,
1000
0100
0010
0001
,
1000
0100
0010
0001
,
1000
0010
0100
0001
,
1000
0010
0100
0001
,
0100
0100
0200
0300
,
0010
1000
0010
0000
,
1000
0100
0010
1000
,
0100
0001
0100
1000
,
0010
0010
0020
0030
,
0001
0010
0001
0000
,
0010
0001
0100
0010
,
0001
0100
1000
0100
,
0200
0010
0010
0310
,
0001
0000
0001
0000
,
0200
0010
0010
0310
,
1000
0000
1000
0000
,
2000
0001
0001
3001
,
0000
0001
0000
0001
,
0002
1000
1000
1003
,
0010
0000
0100
0010
,
0110
0000
0000
0000
;

//---------------dance-single - Chewi----------------
#NOTES:
     dance-single:
     Chewi:
     Medium:
     6:
     0.287,0.361,0.183,0.086,0.000:
0000
0000
0000
0000
,
0000
0000
0000
0000
,
0000
0000
0000
0000
,
0000
0000
0000
0000
,
2000
0000
0000
0000
,
3200
0000
0000
0000
,
0320
0000
0000
0000
,
0032
0000
0000
1003
,
0001
0100
0010
1000
,
1000
0100
0010
0010
,
0000
0010
0001
0100
,
1000
0010
0001
0100
,
1000
0000
1100
0000
1000
0100
1000
0000
,
0001
0000
0101
0000
0001
0100
0001
0000
,
1000
0100
0001
0010
,
1000
0010
0001
0100
,
1000
0000
0000
0000
0000
0000
0000
0110
,
0000
0100
0000
0101
0000
2002
0000
0000
,
0000
0000
3003
0000
,
0001
0010
1000
0100
,
0001
0000
0000
2002
0000
0000
0000
0000
,
0000
3003
0000
0101
0000
0100
0000
1010
,
0000
0010
0000
1001
0000
0000
0000
0000
,
1000
0100
0001
0010
,
1010
0000
0100
0000
0001
0100
0001
0000
,
0010
0000
0001
0000
0010
0001
0010
0000
,
0011
0000
0100
0000
1000
0100
1000
0000
,
1000
0000
0010
0000
1000
0010
1000
0000
,
1001
0100
0010
0110
,
0100
0010
1000
0100
,
0110
0010
0001
1001
,
1000
0010
0100
0001
0010
0000
0100
0000
,
0110
0000
0001
0000
1000
0000
0000
0010
,
0000
0010
0000
0010
0000
0000
0000
0000
,
0010
0001
0100
1000
,
0010
0001
0100
1000
,
0110
0000
1000
0000
0001
0000
0000
0100
,
0000
0100
0000
0100
0000
0000
0000
0000
,
0001
0010
1000
0100
,
0001
0010
1000
0100
,
0001
1000
0001
0000
1000
0000
0100
0000
,
0001
0010
1000
0100
,
0010
0100
0010
0000
0100
0000
1000
0000
,
0010
0001
0100
1000
,
0010
0100
0010
0000
0100
0000
0001
0000
,
0010
1000
0100
0001
,
0010
0100
0010
0000
0001
0000
0100
0000
,
1000
0000
0010
0000
0001
0000
0100
0010
,
0100
0000
0000
0000
;

//---------------dance-single - Chewi----------------
#NOTES:
     dance-single:
     Chewi:
     Hard:
     9:
     0.414,0.464,0.408,0.097,0.000:
0000
0000
0000
0000
,
0000
0000
0000
0000
,
0000
0000
0000
0000
,
0000
0000
0000
0000
,
2000
0000
0000
0000
,
3200
0000
0000
0000
,
0320
0000
0000
0000
,
0032
0000
0000
1003
,
0000
1000
0100
1000
0100
1000
0100
0000
,
0001
0100
0001
0100
0001
0100
0001
0000
,
0000
0001
0100
1000
0010
0001
0001
0000
,
0001
0000
0011
0000
1000
0010
1000
0000
,
1100
1000
0100
0010
0001
0010
0100
0000
,
1000
0010
0100
0001
0100
0010
1000
0000
,
0000
0001
0100
0001
0010
0100
1000
0000
,
1000
1000
0001
0000
0001
0001
1000
0010
,
0200
0000
0001
0000
0010
0000
0301
0010
,
0000
0010
0000
1010
0000
2200
0000
0000
,
0000
0000
0000
3300
,
1000
0000
0100
0000
0001
0010
1000
0000
,
1010
0000
0000
0202
0000
0000
0000
0000
,
0000
0303
0000
0100
0010
1010
0000
1001
,
0000
0011
0000
0110
0000
0000
0000
0000
,
0100
1000
0010
0100
0001
0100
0010
0000
,
1001
0000
0110
0000
1000
0001
1000
0000
,
0110
0000
1001
0000
0010
0100
0010
0000
,
0010
0000
1100
0000
0100
0010
1000
0000
,
1000
0100
1000
0000
0001
0100
0001
0000
,
1001
1000
0010
0100
0001
0100
0010
0000
,
1000
0001
1000
0000
1000
0100
1100
0000
,
1100
0100
0010
0001
0010
0100
1000
0000
,
0001
0100
0010
1000
0001
0100
0010
0000
,
0110
0000
1000
0000
1100
0000
1000
0100
,
0000
1100
0000
0101
0000
0000
0000
0000
,
0100
0010
0001
0100
0010
0100
0001
0010
,
0100
1000
0100
0000
1000
1000
1000
0000
,
0101
0000
1100
0000
0110
0000
0000
0110
,
0000
0011
0000
1100
0000
0000
0000
0000
,
0101
0100
0010
1000
0001
0010
0100
1000
,
0010
0100
0001
0000
0100
0001
0010
0100
,
1100
0011
0100
0101
,
0100
0010
1000
0001
0010
0100
1000
0010
,
1100
0010
0101
0010
,
1000
0001
0010
0100
1000
0001
0100
0010
,
0101
0010
1100
0010
,
1000
0001
1000
0010
1000
0100
0010
0001
,
0011
0100
1010
0100
,
0001
0100
1000
0100
0001
0010
1000
0010
,
0001
0000
0000
0000
;
