#TITLE:0/1 ANGEL (DDR Edit);
#SUBTITLE:;
#ARTIST:V.C.O. feat. ALT;
#TITLETRANSLIT:;
#SUBTITLETRANSLIT:;
#ARTISTTRANSLIT:;
#CREDIT:Chewi☆;
#BANNER:01 ANGEL (DDR Edit).png;
#BACKGROUND:01 ANGEL (DDR Edit)-bg.png;
#LYRICSPATH:;
#CDTITLE:;
#MUSIC:01 ANGEL (DDR Edit).mp3;
#OFFSET:-0.149;
#SAMPLESTART:44.715;
#SAMPLELENGTH:15.000;
#SELECTABLE:YES;
#DISPLAYBPM:140.000;
#BPMS:0.000=140.000;
#STOPS:;
#BGCHANGES:;

//---------------dance-single - Chewi----------------
#NOTES:
     dance-single:
     Chewi:
     Hard:
     9:
     0.409,0.432,0.277,0.023,0.000: // measure 1
0000
0000
0000
0000
,  // measure 2
0000
0000
0000
0000
,  // measure 3
0000
0000
0000
0000
,  // measure 4
0000
0000
0000
0000
,  // measure 5
0001
0000
0001
0000
0001
0100
1000
0000
,  // measure 6
1000
0000
1000
0000
1000
0010
0001
0000
,  // measure 7
0001
0000
0001
0000
0001
1000
0001
0000
,  // measure 8
1000
1100
0110
0011
,  // measure 9
0001
0000
0001
0000
0001
1000
0010
0000
,  // measure 10
0100
0000
0100
0000
0100
0010
1000
0000
,  // measure 11
0100
0000
0100
0000
0100
1000
0010
0000
,  // measure 12
1000
1010
0110
0101
,  // measure 13
0001
0000
1000
0000
0001
1000
0001
0000
,  // measure 14
1000
0000
0001
0000
1000
0001
1000
0000
,  // measure 15
0001
0010
1000
0100
,  // measure 16
0100
1000
0010
0001
,  // measure 17
0100
0001
0100
0000
0100
0000
0100
0000
,  // measure 18
0100
0010
0100
0000
0001
1000
0001
0000
,  // measure 19
1000
0100
1000
0000
0100
0000
0100
0000
,  // measure 20
0010
0100
0010
0000
0010
0001
0010
0000
,  // measure 21
0001
1000
0010
0000
0100
0000
0100
0000
,  // measure 22
0100
0010
0100
0000
0010
0000
0010
0000
,  // measure 23
1000
0010
0100
0000
0001
0100
0010
0000
,  // measure 24
1000
1100
0101
1100
,  // measure 25
0001
0101
1100
0101
,  // measure 26
0100
0010
0100
0220
0000
0000
0330
0000
,  // measure 27
0100
0000
0100
0000
0001
1000
0100
0000
,  // measure 28
0010
0010
0100
0100
,  // measure 29
0010
0010
0011
0000
,  // measure 30
0100
0100
1100
0000
,  // measure 31
0100
0000
0100
0000
0100
1000
0001
0000
,  // measure 32
0010
0000
0010
0000
0010
0001
1000
0000
,  // measure 33
0001
0000
0100
0000
0001
1000
0100
0000
,  // measure 34
1000
0000
0001
0000
1000
0001
0100
0000
,  // measure 35
0010
0100
0001
0101
,  // measure 36
0001
0100
0010
1010
,  // measure 37
1000
0100
0010
0000
0001
0010
0100
0000
,  // measure 38
1000
1100
0011
0101
,  // measure 39
0001
0100
0001
0000
0100
0000
1000
0000
,  // measure 40
1000
0100
1000
0000
1000
0000
0010
0000
,  // measure 41
1000
0010
0001
0000
0001
0010
1000
0000
,  // measure 42
0010
0010
0100
0000
0100
0100
0010
0000
,  // measure 43
0001
0100
1000
0010
,  // measure 44
0100
0010
0100
0010
0100
0000
0101
0000
,  // measure 45
0001
0100
1000
0010
,  // measure 46
1000
0010
1000
0010
1000
0000
1001
0000
,  // measure 47
1000
0100
0010
1000
,  // measure 48
1000
0100
1000
0100
1000
0000
1100
0000
,  // measure 49
0100
0001
0010
0001
,  // measure 50
0001
0010
0100
1000
0001
0000
1000
0000
,  // measure 51
0110
0000
0000
0000
;

//---------------dance-single - Chewi----------------
#NOTES:
     dance-single:
     Chewi:
     Medium:
     6:
     0.295,0.317,0.138,0.115,0.000:
0000
0000
0000
0000
,
0000
0000
0000
0000
,
0000
0000
0000
0000
,
0000
0000
0000
0000
,
1000
0000
0000
0001
0000
0000
0000
0000
,
0001
0000
0000
1000
0000
0000
0000
0000
,
0010
0000
0000
0100
0000
0000
0000
0000
,
0100
0000
0000
0010
0000
0000
0000
0000
,
2000
0000
3100
0010
,
0002
0000
0103
0010
,
0200
0000
0310
0010
,
0100
0110
1001
0000
,
2000
0000
3100
0010
,
0002
0000
0103
0010
,
2000
0000
3001
1000
,
0010
0110
1001
0000
,
0100
0100
0100
0100
,
0001
1000
0100
0010
,
0010
0010
0010
0010
,
0100
0010
0001
1000
,
0010
0010
0010
0010
,
0100
1000
0010
0001
,
0001
0001
0001
0001
,
1000
1000
1000
1000
,
0001
1000
0010
0100
,
0001
2002
0000
3003
,
0100
0000
0100
0000
0100
0010
0100
0000
,
0010
1000
0010
0000
,
1000
1000
0001
0001
,
1000
1100
0001
0101
,
0010
0000
0010
0000
0010
0100
0010
0000
,
0100
0010
1000
0000
,
0001
0011
1000
1010
,
0001
1000
0100
0010
,
0002
0000
1000
0000
,
0103
0010
0110
0000
,
2000
0000
0100
0000
,
3010
0100
0110
0000
,
0010
0001
0100
0000
,
0100
1000
0010
0000
,
0010
1000
0100
0000
,
0100
0001
0010
0000
,
0010
0010
0010
0000
,
0010
0100
0010
0100
0010
0000
0000
0000
,
0100
0100
0100
0000
,
0100
0010
0100
0010
0100
0000
0000
0000
,
1000
1000
1000
0000
,
0001
1000
0001
1000
0001
0000
0000
0000
,
0001
0001
0001
0000
,
0001
1000
0001
1000
0001
0000
0000
0000
,
1001
0000
0000
0000
;

//---------------dance-single - Chewi----------------
#NOTES:
     dance-single:
     Chewi:
     Easy:
     3:
     0.211,0.259,0.035,0.092,0.000:
0000
0000
0000
0000
,
0000
0000
0000
0000
,
0000
0000
0000
0000
,
0000
0000
0000
0000
,
1000
0000
0000
0000
,
0100
0000
0000
0000
,
0001
0000
0000
0000
,
0010
0000
0000
0000
,
0001
1000
0001
0000
,
1000
0001
1000
0000
,
0001
1000
0001
0000
,
1000
0001
1000
0000
,
0010
0100
0010
0000
,
0100
0010
0100
0000
,
0010
0100
0010
0000
,
0100
0010
0100
0000
,
2000
0000
0000
0000
,
3001
0000
0001
0000
,
0002
0000
0000
0000
,
1003
0000
1000
0000
,
2000
0000
0000
0000
,
3100
0000
0100
0000
,
0200
0000
0000
0000
,
0310
0000
0010
0000
,
0010
0100
0010
0000
,
0001
1000
0001
0000
,
1001
0000
1000
0000
,
0001
1000
0001
0000
,
1001
0000
0001
0000
,
0001
1000
0001
0000
,
1000
0100
0010
0000
,
0010
0010
0010
0000
,
0001
0100
0010
0000
,
0010
0010
0010
0000
,
0100
0010
0100
0000
,
0001
0001
0010
0000
,
0010
0100
0010
0000
,
1000
1000
0100
0000
,
1000
1000
0100
0100
,
1000
1000
0100
0100
,
0001
0001
0100
0100
,
0001
0001
0100
0100
,
0020
0000
0000
0030
,
1000
0001
1000
0001
,
0200
0000
0000
0300
,
0001
1000
0001
1000
,
0002
0000
0000
0003
,
1000
0001
1000
0001
,
2000
0000
0000
3000
,
0001
1000
0001
1000
,
1001
0000
0000
0000
;

//---------------dance-single - Chewi----------------
#NOTES:
     dance-single:
     Chewi:
     Beginner:
     1:
     0.127,0.144,0.012,0.069,0.000:
0000
0000
0000
0000
,
0000
0000
0000
0000
,
0000
0000
0000
0000
,
0000
0000
0000
0000
,
2000
0000
0000
3000
,
1000
0000
0000
0000
,
0002
0000
0000
0003
,
0001
0000
0000
0000
,
0001
0000
0000
0000
,
0100
0000
0000
0000
,
1000
0000
0000
0000
,
0010
0000
0010
0000
,
0010
0000
0000
0000
,
1000
0000
0000
0000
,
0100
0000
0000
0000
,
0001
0000
0001
0000
,
0002
0000
0000
0000
,
0000
0000
0000
0003
,
0001
0000
1000
0000
,
0001
0000
1000
0000
,
2000
0000
0000
0000
,
0000
0000
0000
3000
,
1000
0000
0001
0000
,
1000
0000
0001
0000
,
0010
0000
0100
0000
,
0110
0000
0000
0000
,
0010
0000
0010
0000
,
0010
0000
0010
0000
,
1000
0000
1000
0000
,
0001
0000
0001
0000
,
1000
0000
1000
0000
,
1000
0000
1000
0000
,
0100
0000
0100
0000
,
0010
0000
0010
0000
,
0100
0000
0100
0000
,
0100
0000
0100
0000
,
0001
0000
0001
0000
,
0010
0000
0010
0000
,
0001
0000
0001
0000
,
0001
0000
0001
0000
,
1000
0000
1000
0000
,
1000
0000
1000
0000
,
0020
0000
0000
0000
,
0000
0000
0000
0030
,
0200
0000
0000
0000
,
0000
0000
0000
0300
,
0100
0000
0000
0000
,
0010
0010
0010
0000
,
1000
0000
0000
0000
,
1000
1000
1000
0000
,
0001
0000
0000
0000
;
