#VERSION:0.83;
#TITLE:$$$EX;
#SUBTITLE:;
#ARTIST:Y.LA vs. Vanessa Hudgens;
#TITLETRANSLIT:Sex;
#SUBTITLETRANSLIT:;
#ARTISTTRANSLIT:;
#GENRE:Sexy Electro Pop;
#ORIGIN:;
#CREDIT:steps by chewi;
#BANNER:$$$EX.png;
#BACKGROUND:$$$EX-bg.png;
#PREVIEWVID:;
#JACKET:$$$EX-jacket.png;
#CDIMAGE:;
#DISCIMAGE:;
#LYRICSPATH:;
#CDTITLE:cdtitle.png;
#MUSIC:$$$EX.ogg;
#OFFSET:-0.373000;
#SAMPLESTART:103.335709;
#SAMPLELENGTH:13.518982;
#SELECTABLE:YES;
#BPMS:0.000=148.000,
224.000=158.000,
260.000=160.000,
324.000=148.000;
#STOPS:;
#DELAYS:;
#WARPS:;
#TIMESIGNATURES:0.000=4=4;
#TICKCOUNTS:0.000=4;
#COMBOS:0.000=1;
#SPEEDS:0.000=1.000=0.000=0;
#SCROLLS:0.000=1.000;
#FAKES:;
#LABELS:0.000=Song Start;
#BGCHANGES:-0.200=$$$EX.avi=1.000=1=0=0=StretchNoLoop==CrossFade==,
99999=-nosongbg-=1.000=0=0=0 // don't automatically add -songbackground-
;
#KEYSOUNDS:;
#ATTACKS:
;

//---------------dance-single - ----------------
#NOTEDATA:;
#CHARTNAME:;
#STEPSTYPE:dance-single;
#DESCRIPTION:;
#CHARTSTYLE:;
#DIFFICULTY:Beginner;
#METER:2;
#RADARVALUES:0.159769,0.217123,0.020970,0.069899,0.000000,160.000000,157.000000,3.000000,10.000000,0.000000,0.000000,0.000000,0.000000,0.000000,0.159769,0.217123,0.020970,0.069899,0.000000,160.000000,157.000000,3.000000,10.000000,0.000000,0.000000,0.000000,0.000000,0.000000;
#CREDIT:;
#NOTES:
0000
0000
0000
0000
,
0000
0000
0000
0000
,
0000
0000
0000
0000
,
0000
0000
0000
0000
,
1000
0000
0000
0000
,
0001
0000
0000
0000
,
1000
0000
0000
0000
,
0001
0001
0001
0000
,
1000
0000
0000
0000
,
0001
0000
0000
0000
,
1000
0000
1000
0000
,
2000
0000
0000
3000
,
1000
0000
0001
0000
,
0002
0000
0000
0003
,
0001
0000
0001
0000
,
0001
0000
0001
0000
,
0010
0000
0010
0000
,
0010
0000
0010
0000
,
1000
0000
1000
0000
,
1000
0000
1000
0000
,
0100
0000
0100
0000
,
0100
0000
0100
0000
,
0001
0000
0001
0000
,
1000
0000
1000
0000
,
0001
0000
0001
0000
,
0100
0000
0100
0000
,
0010
0000
0010
0000
,
0100
0000
0100
0000
,
0010
0000
0010
0000
,
1000
0000
1000
0000
,
1000
0000
0001
0000
,
1000
0000
1000
0000
,
0001
0000
1000
0000
,
0001
0000
0001
0000
,
1001
0000
1000
0000
,
1000
1000
1000
0000
,
0001
0000
0001
0000
,
0001
0001
0001
0000
,
0010
0000
0010
0000
,
0010
0010
0010
0000
,
0100
0000
0100
0000
,
0100
0100
0100
0000
,
0100
0000
0100
0000
,
0010
0000
0010
0000
,
0001
0000
0001
0000
,
1000
0000
1000
0000
,
0010
0000
0010
0000
,
0100
0000
0100
0000
,
0010
0000
0010
0000
,
1000
0000
1000
0000
,
0001
0000
0001
0000
,
0002
0000
0000
0003
,
1000
0000
1000
0000
,
2000
0000
0000
3000
,
0010
0000
0000
0000
,
0100
0000
0000
0000
,
0110
0000
0000
0000
,
0100
0000
0000
0000
,
0100
0000
0000
0000
,
0100
0100
0100
0100
,
0110
0000
0000
0000
,
0010
0000
0000
0000
,
0010
0010
0010
0010
,
0010
0000
0000
0000
,
1000
0000
0000
0000
,
1000
0000
1000
0000
,
0001
0000
0001
0000
,
0010
0000
0010
0000
,
0100
0000
0100
0000
,
0010
0000
0010
0000
,
0001
0000
0001
0000
,
1000
0000
1000
0000
,
0010
0000
0010
0000
,
0100
0000
0100
0000
,
0010
0000
0010
0000
,
1000
0000
1000
0000
,
0001
0000
0001
0000
,
1000
0000
1000
0000
,
0001
0000
0001
0000
,
0010
0000
0010
0000
,
0100
0000
0100
0000
,
0200
0000
0000
0300
,
0100
0100
0100
0000
,
0020
0000
0000
0030
,
0010
0010
0010
0000
,
0002
0000
0000
0003
,
2000
0000
0000
3000
,
0002
0000
0000
0003
,
2000
0000
0000
3000
;

//---------------dance-single - ----------------
#NOTEDATA:;
#CHARTNAME:;
#STEPSTYPE:dance-single;
#DESCRIPTION:;
#CHARTSTYLE:;
#DIFFICULTY:Easy;
#METER:6;
#RADARVALUES:0.248640,0.309302,0.097858,0.188727,0.000000,249.000000,235.000000,14.000000,27.000000,0.000000,0.000000,0.000000,0.000000,0.000000,0.248640,0.309302,0.097858,0.188727,0.000000,249.000000,235.000000,14.000000,27.000000,0.000000,0.000000,0.000000,0.000000,0.000000;
#CREDIT:;
#NOTES:
0000
0000
0000
0000
,
0000
0000
0000
0000
,
0000
0000
0000
0000
,
0000
0000
0000
0000
,
2000
0000
0000
3000
,
1000
0100
1000
0000
,
0002
0000
0000
0003
,
0001
0100
0001
0000
,
0200
0000
0000
0300
,
0100
0010
0100
0000
,
0020
0000
0000
0030
,
0010
0010
1000
1000
,
0020
0000
0000
0030
,
1000
1000
0001
0001
,
0200
0000
0320
0000
,
0130
0010
0100
0000
,
0020
0000
2030
0000
,
3010
1000
0010
0000
,
2000
0000
3002
0000
,
1003
0001
1000
0000
,
0002
0000
2003
0000
,
3001
1000
0001
0000
,
0010
0010
0010
0010
,
0100
0100
0100
0100
,
1000
1000
1000
1000
,
0001
0001
0001
0001
,
0100
0100
0100
0100
,
0010
0010
0010
0010
,
1000
0010
0001
0010
,
1000
0100
0001
0100
,
0200
0000
0000
0300
,
0100
0100
0100
0000
,
0020
0000
0000
0030
,
0010
0010
0010
0000
,
0110
0010
0100
0010
,
0100
1000
0001
0000
,
1001
1000
0001
1000
,
0001
0100
0010
0000
,
0110
0100
0010
1000
,
0001
1000
0100
0000
,
0110
0010
0100
0000
,
0100
0010
0110
0000
,
0010
0010
0010
0010
,
0001
0010
0100
1000
,
0001
0001
0001
0001
,
1000
0001
0100
0010
,
0100
0100
0100
0100
,
0010
0100
0001
1000
,
0001
0001
0001
0001
,
1000
0100
0010
0001
,
1001
0000
1000
0000
,
1000
0000
1000
0000
,
0001
0000
0001
0000
,
0001
0000
0001
0000
,
0100
0100
0100
0100
,
0010
0010
0010
0010
,
0020
0000
0000
0030
,
0010
0010
0010
0000
,
0200
0000
0000
0300
,
0100
0100
0100
0000
,
2000
0000
0000
3000
,
1000
1000
1000
0000
,
0002
0000
0000
0003
,
0001
0001
0001
0000
,
1000
0000
0001
0000
,
1001
0000
1000
0000
,
0001
0010
0100
1000
,
1001
0000
1000
0000
,
1000
0010
0100
0001
,
0110
0000
0100
0000
,
0010
0100
0001
1000
,
1001
0000
1000
0000
,
0001
0010
0100
1000
,
0110
0000
0010
0000
,
0100
0010
0001
0010
,
0110
0000
0010
0000
,
0100
1000
0010
0100
,
0110
0000
0100
0000
,
0010
0100
0001
1000
,
1001
0000
0001
0000
,
1000
0001
1000
0001
,
2000
0000
0000
3000
,
0020
0000
0000
0030
,
0200
0000
0000
0300
,
0002
0000
0000
0003
,
2000
0000
3001
0000
,
0002
0000
1003
0000
,
0020
0000
0130
0000
,
0200
0000
0310
0000
;

//---------------dance-single - ----------------
#NOTEDATA:;
#CHARTNAME:;
#STEPSTYPE:dance-single;
#DESCRIPTION:;
#CHARTSTYLE:;
#DIFFICULTY:Medium;
#METER:9;
#RADARVALUES:0.365471,0.434246,0.258626,0.188727,0.000000,366.000000,329.000000,37.000000,27.000000,0.000000,0.000000,0.000000,0.000000,0.000000,0.365471,0.434246,0.258626,0.188727,0.000000,366.000000,329.000000,37.000000,27.000000,0.000000,0.000000,0.000000,0.000000,0.000000;
#CREDIT:;
#NOTES:
// measure 0
0000
0000
0000
0000
,  // measure 1
0000
0000
0000
0000
,  // measure 2
0000
0000
0000
0000
,  // measure 3
0000
0000
0000
0000
,  // measure 4
1000
0010
1000
1000
,  // measure 5
0010
1000
0010
0010
,  // measure 6
0100
0001
0100
0100
,  // measure 7
0001
0100
0001
0001
,  // measure 8
1000
0001
1000
0100
,  // measure 9
1000
0000
0001
0000
1000
0100
0010
0000
,  // measure 10
0001
0010
0100
0010
,  // measure 11
0001
0010
0100
1000
,  // measure 12
1000
0010
0100
0010
,  // measure 13
1000
0010
0100
0001
,  // measure 14
1000
0100
0001
0100
,  // measure 15
1000
0100
0001
0000
0001
0100
1000
0000
,  // measure 16
0001
0100
1000
0100
,  // measure 17
0001
0100
1000
0000
1000
0100
0001
0000
,  // measure 18
0010
0000
0100
0000
1000
0001
0010
0000
,  // measure 19
0100
0000
1000
0000
0001
0100
0010
0000
,  // measure 20
1000
0000
0001
0000
1000
0001
0100
0000
,  // measure 21
0001
0000
1000
0000
0001
1000
0100
0000
,  // measure 22
0010
0010
0010
0010
,  // measure 23
0010
0100
1000
0000
0100
1000
1100
0000
,  // measure 24
1000
1000
1000
1000
,  // measure 25
1000
0001
0010
0000
0001
0010
0011
0000
,  // measure 26
0010
0010
0010
0010
,  // measure 27
0001
0010
0100
0000
0010
0100
0110
0000
,  // measure 28
0100
0010
0100
0010
,  // measure 29
0001
1000
0001
1000
,  // measure 30
0101
0100
0010
0010
,  // measure 31
1000
0000
1000
0000
0010
0100
0010
0100
,  // measure 32
0010
0010
1000
1000
,  // measure 33
0001
0001
0001
1001
,  // measure 34
2000
0010
0001
3100
,  // measure 35
1000
0100
0010
0001
1000
0000
1001
0000
,  // measure 36
0002
0010
1000
0103
,  // measure 37
0001
0100
0010
1000
0001
0000
1001
0000
,  // measure 38
2000
0010
0100
3010
,  // measure 39
0002
0010
0100
0013
,  // measure 40
2000
3100
0002
0103
,  // measure 41
2000
3010
0002
0013
,  // measure 42
0012
0000
2003
0000
,  // measure 43
3100
0000
1000
0000
0010
0100
0001
0000
,  // measure 44
0102
0000
0203
0000
,  // measure 45
0310
0000
1000
0000
0001
1000
0100
0000
,  // measure 46
0210
0000
0320
0000
,  // measure 47
0130
0000
1000
0000
0001
0010
0100
0000
,  // measure 48
2100
0000
3020
0000
,  // measure 49
0130
0000
0001
0000
1000
0010
0100
0000
,  // measure 50
0001
1000
0001
1000
,  // measure 51
0100
0010
0100
0010
,  // measure 52
0001
0010
0001
0010
,  // measure 53
0100
1000
0100
1000
,  // measure 54
0001
0010
0100
0000
1000
0000
0000
0000
,  // measure 55
1000
0010
0100
0000
0001
0000
0000
0000
,  // measure 56
1001
0000
1001
0000
,  // measure 57
0010
0010
0100
0100
,  // measure 58
0110
0000
0110
0000
,  // measure 59
1001
0000
1001
0000
,  // measure 60
0101
0000
0101
0000
,  // measure 61
1010
0000
1010
0000
,  // measure 62
1001
0010
1001
0100
,  // measure 63
2002
0000
0000
0000
,  // measure 64
3003
0000
0000
0000
,  // measure 65
1000
0001
1000
0001
,  // measure 66
1000
0100
0010
0001
1000
0100
0010
0000
,  // measure 67
0001
0010
0100
1000
,  // measure 68
0001
0100
0010
1000
0001
0100
0010
0000
,  // measure 69
0100
0010
1000
0001
,  // measure 70
1000
0100
0010
0001
1000
0100
1000
0000
,  // measure 71
0001
1000
0010
0100
,  // measure 72
0001
1000
0100
0010
0001
0000
0010
0000
,  // measure 73
0100
1001
0100
1001
,  // measure 74
0010
1001
0010
1001
,  // measure 75
1000
1100
0001
0101
,  // measure 76
1000
1010
0001
0011
,  // measure 77
0010
0000
0100
0000
1000
0001
0010
0000
,  // measure 78
0100
0000
1000
0000
0001
0100
0010
0000
,  // measure 79
1000
1001
0001
0101
,  // measure 80
0100
0110
0010
1010
,  // measure 81
2002
0000
0000
0003
,  // measure 82
0200
0000
0000
3000
,  // measure 83
0020
0000
0000
0300
,  // measure 84
0002
0000
0000
0030
,  // measure 85
2000
0000
0000
0003
,  // measure 86
0020
0000
0000
3000
,  // measure 87
0200
0000
0000
0030
,  // measure 88
0002
0000
0000
0303
;

//---------------dance-single - ----------------
#NOTEDATA:;
#CHARTNAME:;
#STEPSTYPE:dance-single;
#DESCRIPTION:;
#CHARTSTYLE:;
#DIFFICULTY:Hard;
#METER:14;
#RADARVALUES:0.691998,0.899510,0.643069,0.216686,0.391433,693.000000,601.000000,92.000000,31.000000,0.000000,0.000000,0.000000,0.000000,0.000000,0.691998,0.899510,0.643069,0.216686,0.391433,693.000000,601.000000,92.000000,31.000000,0.000000,0.000000,0.000000,0.000000,0.000000;
#CREDIT:;
#NOTES:
0000
0000
0000
0000
,
0000
0000
0000
0000
,
0000
0000
0000
0000
,
0000
0000
0000
0000
0000
0000
0000
1000
,
0000
0001
0010
0100
1000
0000
1100
0000
,
0001
0000
0101
0000
0000
0000
0000
0100
,
0000
0010
1000
0100
0010
0000
0011
0000
,
1000
0000
1100
0000
0001
0001
0000
1000
,
0000
0001
0010
0100
1000
0000
1010
0000
,
0001
0000
0011
0000
0010
0010
0000
0000
,
0001
0010
0001
0010
0001
0000
1000
0100
1000
0100
1000
0000
0001
0000
0001
0000
,
0100
0001
0100
0001
0100
0000
0010
1000
0010
1000
0010
0000
1000
0000
1000
0000
,
0010
0100
0010
0100
0010
0000
0100
0010
0100
0010
0100
0000
0001
0000
0001
0000
,
1000
0100
0010
0100
1000
0000
0001
0100
0010
0100
0001
0000
1000
0000
1000
0000
,
1000
0100
0010
0001
0011
0000
1100
0100
,
1000
0001
0100
0010
0110
0000
1001
0000
,
1000
0100
0010
0100
0010
0001
0010
2002
,
0000
0000
0000
3003
,
1000
0010
0100
0001
0011
0000
0101
0000
,
0010
0100
1000
0100
1100
0000
0101
0000
,
0100
0010
1000
0100
0010
0000
0001
2002
,
0000
0000
0000
3003
,
0011
0010
0011
0000
1100
0100
1100
0000
,
1000
0000
0001
0000
0100
0010
0100
0000
0110
0000
0000
0000
0100
0000
0000
0000
,
1010
1000
1010
0000
0101
0001
0101
0000
,
1000
0000
0100
0000
0010
0001
1000
0000
1001
0000
0000
0000
1000
0000
0000
0000
,
0001
0000
0010
0000
0001
1000
0001
0000
2000
0000
0000
0000
3200
0000
0000
0000
,
1300
0000
0010
0000
0100
0001
0010
0000
0011
0000
0000
0000
0100
0000
1000
0000
,
0010
0100
0101
0000
1000
0100
1100
0000
,
1000
0100
0010
0000
0001
0010
0100
0000
1001
0000
0000
0000
0001
0000
0000
0000
,
0001
0010
0001
0000
1000
0100
1000
0000
0001
0000
0000
0000
0101
0000
0000
0000
,
0100
0010
0100
0000
0010
1000
0010
0000
1000
0000
0000
0000
1001
0000
0000
0000
,
1000
1000
0001
0001
0010
0010
0100
0100
,
1000
0001
1000
0001
1000
0010
1000
0010
0100
0010
0100
0010
0100
0001
0100
0001
,
1000
0100
0001
0100
1100
0000
0011
0000
,
1100
0000
0000
0000
0101
0000
0000
0000
0100
0010
0100
0000
0000
0000
1010
0000
,
0100
0001
0100
1000
1100
0000
0101
0000
,
1100
0000
0000
0000
0110
0000
0000
0000
0010
0100
0010
0000
0000
0000
0100
0000
,
0001
0010
1000
0010
0011
0000
1100
0000
,
0011
0000
0000
0000
1010
0000
0000
0000
0010
0100
0010
0000
0100
0010
0100
0000
,
0100
0100
0101
0101
0001
0001
1001
1001
,
1000
1000
1100
1100
0100
0100
0110
0110
,
0020
0000
0032
0000
0103
0010
1000
0001
,
1000
0100
0100
0100
0010
0001
0010
0100
,
1000
0001
0001
0001
0100
0010
1000
0001
,
1000
0000
0000
0000
,
0000
0000
1000
0001
0010
0000
1010
0000
,
0011
0010
0100
1000
1100
0001
0100
0010
,
0100
0010
1000
0100
0010
0001
0000
1000
,
0100
0010
0001
1001
0000
1100
0000
0000
,
2002
0000
0000
3003
,
0202
0000
0000
0303
,
2010
0020
0000
0000
0000
0000
3030
0000
,
0120
0200
0000
0000
0000
0000
0330
0000
,
2002
0000
0000
0000
,
0000
0000
0000
3003
,
1000
0100
0010
0100
1100
0000
1010
0000
,
1000
0010
0001
0010
0110
0000
0101
0000
,
0001
0010
0100
1100
0001
0010
0100
1100
,
1000
0000
0100
0000
0010
0000
0011
0000
1001
0000
0000
0000
0001
0100
0001
0100
,
0001
0001
0100
0100
0010
0010
1000
1000
,
1100
0100
0110
0010
0011
0001
1001
0001
,
0101
0100
0110
0010
1010
1000
1001
0001
,
0010
0001
0010
0001
0010
0100
0010
0100
1000
0100
1000
0100
1000
0001
1000
0001
,
0200
0000
0000
0300
,
0010
1000
0010
1000
0010
0000
0100
0001
0100
0001
0100
0000
0010
0000
0010
0000
,
0001
0010
0001
0010
0001
0000
1000
0100
1000
0100
1000
0000
0100
0000
0100
0000
,
1000
0001
1000
0001
1000
0000
0001
1000
0001
1000
0001
0000
0010
0000
0010
0000
,
0100
1000
0001
0010
0100
0000
0010
0001
1000
0001
0010
0000
1100
0000
0101
0000
,
0100
0001
0100
0001
0100
0000
0010
1000
0010
1000
0010
0000
0100
0000
0100
0000
,
1000
0100
1000
0100
1000
0000
0001
0010
0001
0010
0001
0000
0010
0000
0010
0000
,
0001
1000
0001
1000
0001
0000
1000
0001
1000
0001
1000
0000
0100
0000
0100
0000
,
0010
0001
1000
0100
0010
0000
0100
1000
0001
1000
0100
0000
0011
0000
1010
0000
,
1000
0100
1000
0100
1000
0000
0001
0010
0001
0010
0001
0000
1000
0000
1000
0000
,
0010
1000
0010
1000
0010
0000
0100
0001
0100
0001
0100
0000
0001
0000
0001
0000
,
0100
0010
0100
0010
0100
0000
0010
0100
0010
0100
0010
0000
1000
0000
1000
0000
,
0001
0100
0010
1000
0001
0000
1000
0010
0100
0010
1000
0000
0101
0000
0011
0000
,
0001
0010
0001
0010
0001
0000
1000
0100
1000
0100
1000
0000
0001
0000
0001
0000
,
0100
0001
0100
0001
0100
0000
0010
1000
0010
1000
0010
0000
1000
0000
1000
0000
,
0010
0100
0010
0100
0010
0000
0100
0010
0100
0010
0100
0000
0001
0000
0001
0000
,
1000
0010
0100
0001
1000
0000
0001
0100
0010
0100
0001
0000
1010
0000
1100
0000
,
2001
0001
0001
0001
,
3200
0010
0010
0010
,
0320
0001
0001
0001
,
0032
1000
1000
1003
,
2002
0000
0000
3003
,
0220
0000
0000
0330
,
2020
0000
0000
3030
,
0202
0000
0000
0303
;
