#TITLE:SWEET LAB;
#SUBTITLE:;
#ARTIST:DJ SIMON;
#TITLETRANSLIT:;
#SUBTITLETRANSLIT:;
#ARTISTTRANSLIT:;
#CREDIT:;
#BANNER:sweetLab.png;
#BACKGROUND:sweetLab-bg.png;
#LYRICSPATH:;
#CDTITLE:!udderTitle.png;
#MUSIC:sweetLab.mp3;
#OFFSET:-2.230;
#SAMPLESTART:19.100;
#SAMPLELENGTH:15.500;
#SELECTABLE:YES;
#BPMS:0.000=120.000;
#STOPS:;
#BGCHANGES:;

//---------------dance-single - steps by neo_meo----------------
#NOTES:
     dance-single:
     steps by neo_meo:
     Hard:
     6:
     0.425,0.408,0.231,0.165,0.077: // measure 1
0000
0000
0000
0000
,  // measure 2
0000
0000
0000
0000
,  // measure 3
0000
0000
0000
0000
,  // measure 4
0000
0000
0000
0020
,  // measure 5
0130
0000
0000
0001
0100
0000
0000
1000
,  // measure 6
0100
0000
0000
0001
1000
0100
0010
0100
,  // measure 7
0000
0000
0000
0000
0000
0000
1000
0000
0001
0000
0000
0000
0000
0000
0100
0010
,  // measure 8
0100
0001
0001
1000
1000
0100
0010
0000
,  // measure 9
0010
0100
1000
0100
0010
0100
1000
0010
,  // measure 10
0100
0001
0100
0010
0100
0001
0010
0100
,  // measure 11
2000
3100
0002
0103
,  // measure 12
0010
1000
0100
0010
0001
0000
0100
0000
,  // measure 13
0011
0000
1100
0000
0010
0001
0100
0000
,  // measure 14
0010
1000
0100
0010
0200
0000
1300
0000
,  // measure 15
1010
0000
0101
0000
0010
1000
0100
0000
,  // measure 16
0010
0001
1000
0001
0100
0020
0100
0030
,  // measure 17
1001
0000
1000
0100
0001
0000
1000
0100
,  // measure 18
0001
0000
1000
0010
0100
0001
0010
0100
,  // measure 19
1000
0000
1000
0010
0001
0000
1000
0010
,  // measure 20
0001
0000
1000
0100
0010
0001
0100
0010
,  // measure 21
1000
0000
0001
0100
0010
0100
0001
0000
,  // measure 22
0110
0000
1000
0100
0010
0100
1000
0000
,  // measure 23
0110
0000
1000
0001
0100
0010
0100
0000
,  // measure 24
1001
0110
1001
0110
,  // measure 25
1000
0100
2000
0000
0001
0000
3100
0000
,  // measure 26
0010
0100
0010
0001
0100
0010
1000
0000
,  // measure 27
0001
0100
0002
0000
0010
0000
1003
0000
,  // measure 28
0010
0100
0010
0001
0100
0010
1000
0000
,  // measure 29
0100
0100
0020
0000
0031
0000
1100
0000
,  // measure 30
0001
0001
0200
0000
0310
0000
1100
0000
,  // measure 31
0010
0001
0200
0000
0310
0000
1100
0000
,  // measure 32
0010
0100
0002
0000
0013
0000
1100
0000
,  // measure 33
2000
0000
0010
0000
0100
0001
0010
0000
,  // measure 34
3100
0110
1001
0002
,  // measure 35
0100
0000
0010
1000
0100
0000
0013
0000
,  // measure 36
0110
0000
0000
0000
0000
0000
1001
0000
0000
0000
0010
0000
0100
0000
0001
1000
,  // measure 37
0001
0000
0000
0100
0000
0000
0001
0000
0000
0010
0000
0000
0100
0000
1000
0000
,  // measure 38
0010
0000
0000
0100
0000
0000
0010
0000
0000
0100
0000
0000
0001
0000
0010
0000
,  // measure 39
0100
0000
0000
1000
0000
0000
0100
0000
0000
1000
0000
0000
0010
0000
0100
0000
,  // measure 40
0001
0000
0000
1000
0000
0000
0001
0000
0000
0100
0000
0000
1001
0000
0000
0000
,  // measure 41
0010
1000
0100
1000
0010
1000
0100
0010
,  // measure 42
0100
1000
0010
0100
0001
0010
0001
0100
,  // measure 43
0002
0103
2000
3100
,  // measure 44
0010
0000
0001
0100
0000
0010
0000
0100
0001
1000
0100
0000
1001
0000
0000
0000
;
