#TITLE:not eternity;
#SUBTITLE:;
#ARTIST:猫叉Master;
#TITLETRANSLIT:;
#SUBTITLETRANSLIT:;
#ARTISTTRANSLIT:Nekomata Master;
#GENRE:;
#CREDIT:;
#BANNER:not eternity.png;
#BACKGROUND:not eternity-bg.png;
#LYRICSPATH:;
#CDTITLE:;
#MUSIC:not eternity.ogg;
#OFFSET:2.236000;
#SAMPLESTART:59.042500;
#SAMPLELENGTH:15.000000;
#LASTBEATHINT:1.895200;
#SELECTABLE:YES;
#BPMS:0.000000=92.000000
;
#STOPS:
;
#BGCHANGES:;
#KEYSOUNDS:;
#ATTACKS:;

//---------------dance-single - ----------------
#NOTES:
     dance-single:
     :
     Beginner:
     1:
     0.075528,0.094090,0.008961,0.044805,0.000000,59.000000,58.000000,1.000000,5.000000,0.000000,0.000000,0.075528,0.094090,0.008961,0.044805,0.000000,59.000000,58.000000,1.000000,5.000000,0.000000,0.000000:
0000
0000
0000
0000
,
0000
0000
0000
0000
,
0000
0000
0000
0000
,
0100
0000
0000
0000
,
0010
0000
0000
0000
,
1000
0000
0000
0000
,
0001
0000
0010
0000
,
0100
0000
0000
0000
,
0010
0000
0000
0000
,
0001
0000
0000
0000
,
1000
0000
0010
0000
,
0200
0000
0000
0300
,
0000
0001
0000
0001
,
0000
1000
0000
1000
,
0000
0010
0000
0100
,
0000
0010
0000
0100
,
0100
0000
0010
0000
,
1000
0000
0000
0000
,
0010
0000
0100
0000
,
0001
0000
0000
0000
,
0001
0000
0100
0000
,
1000
0000
0000
0000
,
1000
0000
0010
0000
,
0001
0000
0010
0000
,
0100
0000
1000
0000
,
0100
0000
0000
0000
,
0010
0000
0001
0000
,
0010
0000
0000
0000
,
0001
0000
0010
0000
,
1000
0000
0000
0000
,
1000
0000
0100
0000
,
0001
0000
1000
0000
,
0100
0000
0000
0000
,
1000
0000
0001
0000
,
0100
0000
0000
0000
,
0010
0000
1000
0000
,
0100
0000
0000
0000
,
0010
0000
0001
0000
,
0100
0000
0000
0000
,
0020
0000
0030
0000
,
0200
0000
0300
0000
,
2002
0000
0000
0000
,
3003
0000
0000
0000
;

//---------------dance-single - ----------------
#NOTES:
     dance-single:
     :
     Easy:
     3:
     0.149776,0.188180,0.035844,0.089610,0.000000,117.000000,113.000000,4.000000,10.000000,0.000000,0.000000,0.149776,0.188180,0.035844,0.089610,0.000000,117.000000,113.000000,4.000000,10.000000,0.000000,0.000000:
0000
0000
0000
0000
,
0000
0000
0000
0000
,
0000
0000
0000
0000
,
0100
0010
1000
0001
,
0010
0000
0010
0000
,
0001
0010
0100
0000
,
1000
0100
1000
0000
,
0001
1000
0010
0100
,
0001
0000
0001
0000
,
0100
0001
0010
0100
,
1000
0000
1000
0000
,
1002
0000
0200
0303
,
1001
1000
0000
1000
,
0100
0001
0000
0001
,
0010
0000
0100
0000
,
0010
0001
0010
0100
,
1000
1000
1000
0010
,
0020
0000
0030
0100
,
0001
0001
0001
0100
,
0200
0000
0300
0010
,
1000
0100
0001
0100
,
2000
0000
3000
1000
,
0001
0010
1000
0010
,
0002
0003
0110
0110
,
0010
1000
0100
1000
,
0010
0020
0000
0030
,
0100
0001
0010
0001
,
0100
0100
0010
0000
,
1000
0010
0100
0001
,
0100
0010
1000
0000
,
0001
0000
1000
0000
,
0001
0010
0100
0010
,
0001
0000
0001
0000
,
1000
0010
0100
0010
,
1000
0000
0001
0000
,
1000
0010
1000
0001
,
0010
0000
0010
0000
,
0001
0010
0001
1000
,
0100
0000
0100
0000
,
0010
0020
0000
0000
,
0032
0000
0000
0000
,
2003
0000
0000
0000
,
3000
0000
0000
0000
;

//---------------dance-single - ----------------
#NOTES:
     dance-single:
     :
     Medium:
     7:
     0.258588,0.282271,0.161298,0.367400,0.000000,202.000000,184.000000,18.000000,41.000000,0.000000,0.000000,0.258588,0.282271,0.161298,0.367400,0.000000,202.000000,184.000000,18.000000,41.000000,0.000000,0.000000:
0000
0000
0000
0000
,
0000
0000
0000
0000
,
0000
0000
0000
0000
0000
0000
0000
0100
,
1000
0000
0100
0000
1000
0000
0010
1000
,
0010
0000
0100
0001
0100
0000
0001
0000
,
0010
0100
0010
0001
,
1000
0001
0010
0100
1000
0000
0000
1000
,
0010
0000
0100
0000
0001
0000
0010
0001
,
0010
0000
0100
1000
0100
0000
0010
0000
,
0001
1000
0010
0100
,
0001
1000
0010
0100
0001
0000
0000
0000
,
1002
0000
0020
0000
,
0033
1000
1000
0100
0000
1000
0000
0100
,
0000
0001
0001
0010
0000
0001
0000
0010
,
0100
0000
0000
0100
1000
0000
0000
1000
,
0010
0100
0001
0010
0100
0000
0010
0000
,
0012
0000
0203
0000
0320
0000
1000
1000
,
2000
0000
0000
0000
3030
0000
1000
1000
,
2100
3020
0230
0302
,
0013
0100
0010
0000
0001
0000
1000
0000
,
0202
0303
2200
3300
2020
3030
0022
0033
,
0220
0000
0000
0000
0330
0000
0100
1000
,
0022
0033
2020
3030
0202
0303
2200
3300
,
2002
0003
0010
3010
,
1000
0010
0100
0001
0100
0010
1000
0001
,
0010
0100
2000
0000
0000
0000
0001
3001
,
0001
1000
0100
0010
0100
1000
0010
0100
,
0001
1000
0002
0000
0010
0000
0010
0000
,
0013
0100
1000
0100
0010
0001
0100
0010
,
1000
0001
0200
0000
0000
0000
0310
0000
,
1000
0001
0010
0001
1000
0000
0010
0000
,
2100
0000
0001
0000
0010
0000
3100
1000
,
1000
0000
0010
0001
0001
0000
1000
0000
,
0012
0010
0100
1003
,
1000
0010
0100
0001
0010
0000
0000
1000
,
0201
0000
1000
0000
0301
0000
1000
0100
,
1000
0000
0001
0010
0001
0000
0100
0000
,
0021
0000
1000
0000
0031
0000
0100
0010
,
1000
0001
0010
0100
0010
0000
0000
0001
,
0010
0100
2000
0000
0000
0000
0001
0000
,
0002
0000
0000
3003
,
0220
0000
0000
0000
,
0330
0000
0000
0000
;

//---------------dance-single - ----------------
#NOTES:
     dance-single:
     :
     Hard:
     9:
     0.312354,0.338725,0.161298,0.188180,0.049285,244.000000,226.000000,18.000000,21.000000,0.000000,0.000000,0.312354,0.338725,0.161298,0.188180,0.049285,244.000000,226.000000,18.000000,21.000000,0.000000,0.000000:
// measure 0
0000
0000
0000
0000
,  // measure 1
0000
0000
0000
0000
,  // measure 2
0000
0000
0000
0000
0000
0000
0000
0001
,  // measure 3
1000
0000
0100
0000
1000
0000
0010
0100
,  // measure 4
0001
0000
0100
0010
1000
0000
0001
0000
,  // measure 5
0010
0000
0100
0000
1000
0000
0001
0010
,  // measure 6
1000
0010
0001
0100
1000
0000
0000
0100
,  // measure 7
1001
0000
0010
0000
0001
0000
0100
0010
,  // measure 8
1000
0000
0010
0100
0001
0000
1000
0000
,  // measure 9
0100
0000
0010
0000
0001
0000
1000
0010
,  // measure 10
0001
0000
0000
0010
0000
0000
1000
0000
0000
0100
0000
0100
0001
0000
0000
0000
0000
0000
0100
0000
0000
0000
0000
0000
,  // measure 11
2001
0000
0020
3030
,  // measure 12
0000
0000
0000
1000
0000
0000
0100
0000
0000
1000
0000
1000
0000
0000
0000
0001
0000
0000
0010
0000
0000
0001
0000
0001
,  // measure 13
0000
0000
0000
0100
0000
0000
0010
0000
0000
1000
0000
1000
0000
0000
0000
0010
0000
0000
0100
0000
0000
0001
0000
0001
,  // measure 14
0010
0000
0100
1000
0100
0000
0010
0001
,  // measure 15
1000
0010
1000
0001
0010
0000
0100
0000
,  // measure 16
2000
0001
3002
0010
0023
0100
0230
2300
,  // measure 17
0002
0000
0000
0000
0000
0000
0000
0000
0000
0000
0000
0000
0000
0000
0000
0000
0000
0000
0000
0000
0000
0000
0000
0000
0000
0000
0000
0000
0000
0000
0000
0000
0000
0000
0000
0000
0000
0000
0000
0000
0000
0000
0000
0000
0000
0000
0000
0000
0000
0000
0000
0000
0000
0000
0000
0000
0000
0000
0000
0000
0000
0000
0000
0000
0000
0000
0000
0000
0000
0000
0000
0000
0000
0000
3003
0000
0000
0000
0000
0000
0000
0000
0000
0000
0000
0000
0000
0000
0000
0000
0000
0000
0000
0000
0000
0000
0000
0000
0000
0000
0000
0000
0000
0000
0000
0000
0000
0000
0000
0000
0000
0000
0000
0000
0000
0000
0000
0000
0000
0000
0000
0000
0000
0000
0000
0000
0000
0000
0000
0000
0000
0000
0000
0000
0000
0000
0000
0000
0000
0000
0000
0000
0000
0000
0001
0000
0000
0000
0000
0000
0000
0000
0000
0000
0000
0000
0000
0000
0000
0000
0000
0000
0000
0000
0000
0000
0000
0000
1000
0000
0000
0000
0000
0000
0000
0000
0000
0000
0000
0000
0000
0000
0000
0000
0000
0000
0000
0000
0000
0000
0000
0000
,  // measure 18
0002
1000
2003
0100
3200
0010
0320
0001
,  // measure 19
0031
1000
0001
0000
0000
0000
0100
0000
,  // measure 20
1100
1000
0011
0001
1010
1000
0000
0001
,  // measure 21
0022
0000
0000
0000
0033
0000
0100
0010
,  // measure 22
0001
0100
0010
0010
1000
0001
0100
0100
,  // measure 23
0010
0000
1100
0101
,  // measure 24
1000
0010
0100
0001
0100
0010
1000
0001
,  // measure 25
0010
0000
0000
0100
0000
0100
0020
0000
0000
0000
0000
0000
0000
0000
0000
0000
0000
0000
0031
0000
0000
0001
0000
0000
,  // measure 26
0010
0100
1000
0010
0100
0001
0100
0010
,  // measure 27
1000
0000
0000
0001
0000
0001
1000
0000
0000
0000
0000
0000
0011
0000
0000
0000
0000
0000
1010
0000
0000
0000
0000
0000
,  // measure 28
0001
0100
0010
1000
0100
0010
0001
0100
,  // measure 29
0010
0000
0000
1000
0000
1000
0020
0000
0000
0000
0000
0000
0000
0000
0000
0000
0000
0000
0130
0000
0000
0100
0000
0000
,  // measure 30
0001
0100
1000
0100
0001
0000
0010
0000
,  // measure 31
1100
1000
0100
0010
0001
0000
1000
0010
,  // measure 32
1000
0000
0001
0010
0001
0100
0100
0000
,  // measure 33
0101
0001
0010
0100
1000
0000
0001
0010
,  // measure 34
1000
0000
0000
0010
0000
0000
0001
0000
0000
0100
0000
0100
0020
0000
0000
0000
0000
0000
0030
0000
0000
0100
0000
0000
,  // measure 35
1001
0100
0110
0010
0011
0000
0001
0010
,  // measure 36
0100
0000
1000
0100
0010
0000
0001
0000
,  // measure 37
1001
0010
0110
0100
1100
0000
1000
0100
,  // measure 38
0001
0000
0000
0100
0000
0000
1000
0000
0000
0010
0000
0010
0200
0000
0000
0000
0000
0000
0300
0000
0000
0010
0000
0000
,  // measure 39
1000
0000
0000
0010
0000
0000
2000
0000
0000
0000
0000
0000
0000
0000
0000
3000
0000
0000
1000
0000
0000
0000
0000
1000
,  // measure 40
0002
0000
0000
0000
,  // measure 41
0023
0000
0000
0000
,  // measure 42
0030
0000
0000
0000
;
