#TITLE:elemental bender feat. Kanae Asaba;
#SUBTITLE:;
#ARTIST:MK;
#TITLETRANSLIT:;
#SUBTITLETRANSLIT:;
#ARTISTTRANSLIT:;
#GENRE:;
#CREDIT:;
#BANNER:elemental bender feat Kanae Asaba.png;
#BACKGROUND:elemental bender feat Kanae Asaba-bg.png;
#LYRICSPATH:;
#CDTITLE:;
#MUSIC:elemental bender feat Kanae Asaba.ogg;
#OFFSET:0.000000;
#SAMPLESTART:30.204000;
#SAMPLELENGTH:15.000000;
#SELECTABLE:YES;
#BPMS:0.000000=135.000000
;
#STOPS:
;
#BGCHANGES:;
#KEYSOUNDS:;
#ATTACKS:;

//---------------dance-single - ----------------
#NOTES:
     dance-single:
     :
     Beginner:
     4:
     0.152357,0.189553,0.058324,0.049992,0.000000,128.000000,121.000000,7.000000,6.000000,0.000000,0.000000,0.152357,0.189553,0.058324,0.049992,0.000000,128.000000,121.000000,7.000000,6.000000,0.000000,0.000000:
0000
0000
0000
0000
,
0000
0000
0000
0000
,
0000
0000
0000
0000
,
0000
0000
0000
0000
,
0000
0000
0000
0000
,
1000
0000
1000
0000
,
1000
0000
1000
0000
,
0001
0000
0001
0000
,
0001
0000
0001
0000
,
0010
0010
0000
0000
,
0100
0100
0000
0000
,
0010
0000
0100
0000
,
0010
0000
0100
0000
,
0001
0001
0000
0000
,
1000
1000
0000
0000
,
0001
0000
1000
0000
,
0001
0000
1000
0000
,
0001
0000
0001
0000
,
0001
0001
0001
0000
,
1000
0000
1000
0000
,
1000
1000
1000
0000
,
0010
0000
0010
0000
,
0010
0010
0010
0000
,
0100
0000
0100
0000
,
0100
0100
0100
0000
,
0010
0010
0010
0000
,
0010
0000
0010
0000
,
0100
0100
0100
0000
,
0100
0000
0100
0000
,
1000
1000
1000
0000
,
1000
0000
1000
0000
,
0001
0001
0001
0000
,
0001
0000
0001
0000
,
1000
0000
1000
0000
,
1001
0000
0000
0000
,
0001
0000
0001
0000
,
1001
0000
0000
0000
,
0010
0000
0010
0000
,
0110
0000
0000
0000
,
0100
0000
0100
0000
,
0220
0000
0330
0000
,
0010
0010
0010
0000
,
2000
0000
3000
0000
,
1000
1000
1000
0000
,
0002
0000
0003
0000
,
0010
0000
0100
0000
,
0100
0000
0010
0000
,
1000
0000
0001
0000
,
2002
0000
3003
0000
,
0110
0000
0000
0000
,
0100
0000
0001
0000
,
1000
0000
0000
0000
,
0010
0000
1000
0000
,
0001
0000
0000
0000
,
0010
0000
0100
0000
,
1000
0000
0000
0000
,
0100
0000
0010
0010
,
0000
0001
0001
0000
,
0010
0000
0001
0000
,
0000
1000
1000
0000
,
0010
0000
0100
0000
,
0000
0100
0100
0000
,
0010
0000
1000
0000
,
0000
0001
0001
0000
,
1000
0000
0100
0000
,
1001
0000
0000
0000
;

//---------------dance-single - ----------------
#NOTES:
     dance-single:
     :
     Easy:
     7:
     0.260673,0.324949,0.166640,0.108316,0.000000,219.000000,199.000000,20.000000,13.000000,0.000000,0.000000,0.260673,0.324949,0.166640,0.108316,0.000000,219.000000,199.000000,20.000000,13.000000,0.000000,0.000000:
0000
0000
0000
0000
,
0000
0000
0000
0000
,
0000
0000
0000
0000
,
0000
0000
0000
0000
,
0000
0000
0000
0000
,
0001
0001
0001
0000
,
0100
0100
0100
0000
,
0010
0010
0010
0000
,
1000
1000
1000
0000
,
1010
1000
0100
0000
,
0011
0001
0100
0000
,
1001
1000
0100
0100
,
1001
0001
0100
0100
,
0110
0100
0010
0010
,
0110
0010
0100
0100
,
0010
0010
1000
1000
,
0001
0010
0100
0000
,
0010
0001
0100
0001
,
0010
0001
0010
0000
,
0100
1000
0010
1000
,
0100
1000
0100
0000
,
1010
0100
0001
0100
,
0010
0100
0010
0000
,
0101
0100
0010
1000
,
0010
0100
0010
0000
,
1000
0010
1000
0100
,
0100
0010
0001
0001
,
0101
0001
0010
0100
,
0010
0001
1000
1000
,
0110
0100
1000
0001
,
0100
0010
1000
1000
,
0101
0100
0010
1000
,
0001
0001
1000
0000
,
0010
1000
0010
1000
,
0200
0000
0000
0000
,
0310
0001
0010
0001
,
0200
0000
0000
0000
,
0310
1000
0001
0000
,
0100
0001
1000
0000
,
0002
0000
0023
0000
,
0230
0000
2300
0000
,
3010
1000
1001
0110
,
2002
3000
1000
1003
,
0100
0001
1000
0010
,
2002
0003
0010
3010
,
0100
0100
0100
0100
,
0010
0010
0010
0010
,
1000
1000
0001
0001
,
0020
0000
0000
0000
,
0130
0000
0110
0000
,
0001
0001
0001
0000
,
0001
0000
0110
0000
,
1000
1000
1000
0000
,
1000
0000
0110
0000
,
0001
0001
0001
0000
,
1000
1000
1000
0000
,
2002
0000
3003
0000
,
0100
0100
0100
0100
,
0010
0001
0010
0001
,
1000
1000
1000
1000
,
0100
1000
0100
1000
,
0010
0010
0010
0010
,
0100
0010
0100
1000
,
0001
0001
0001
0001
,
1000
1000
0001
0010
,
0110
0000
0000
0000
;

//---------------dance-single - ----------------
#NOTES:
     dance-single:
     :
     Medium:
     11:
     0.479686,0.460344,0.358277,0.108316,0.029162,403.000000,360.000000,43.000000,13.000000,0.000000,0.000000,0.479686,0.460344,0.358277,0.108316,0.029162,403.000000,360.000000,43.000000,13.000000,0.000000,0.000000:
0000
0000
0000
0000
,
0000
0000
0000
0000
,
0000
0000
0000
0000
,
0000
0000
0000
0000
,
0000
0000
0000
0000
,
1000
0000
1000
0000
0100
0000
0010
0100
,
1000
0100
0010
0000
0001
1000
0001
0000
,
0100
0000
0100
0000
0010
0000
0100
0001
,
0010
0001
0100
0000
0001
0010
0001
0000
,
1001
0000
0001
0000
0010
0001
0100
0010
,
1000
0000
0001
0000
1000
0010
0100
0001
,
0010
0000
0100
0010
0001
0000
0010
0100
,
1000
0001
1010
0101
,
1001
0000
0100
1000
0010
0100
0001
1000
,
0100
0000
0010
0001
0100
0010
1000
0100
,
0010
0001
0010
0001
1010
0000
1010
0000
,
0100
0100
0010
0010
1000
0010
0100
0001
,
0020
0030
0110
0000
0011
0000
0100
0010
,
0001
0100
0010
0001
0010
0100
0001
1000
,
0200
0300
1010
0000
0101
0000
0100
0010
,
1000
0100
0010
1000
0010
0001
1000
0010
,
0200
0300
1100
0000
0101
0000
0100
1000
,
0001
0100
1000
0100
0001
0010
0100
1000
,
0002
0003
1010
0000
0011
0000
0010
1000
,
0010
0001
1000
0010
1000
0001
0100
0010
,
0200
0300
0110
0000
1001
0000
0100
0001
,
0010
1000
0010
0001
0100
0010
1000
0100
,
0020
0030
1100
0000
0101
0000
1000
0100
,
0001
0100
1000
0010
0100
0010
0001
0010
,
0200
0300
0011
0000
1010
0000
0001
0010
,
1000
0010
0001
0100
1000
0100
0001
0010
,
0200
0300
1010
0000
0011
0000
0100
0001
,
0010
1000
0010
0001
0100
0010
0001
0010
,
0100
0010
0100
0001
0000
0100
0010
1000
,
0000
0000
0001
0000
1000
0000
0100
0000
0010
0000
0000
0010
0000
0000
0010
0000
,
0001
0010
0001
0100
0000
0010
1000
0100
,
0000
0000
1000
0000
0010
0000
0100
0000
0001
0000
0000
0001
0000
0000
0001
0000
,
1000
0010
0100
0001
0100
0010
1000
0100
,
0010
0000
0000
0000
0100
0000
0000
0000
1000
0000
0000
1000
0000
0000
1000
0000
,
0010
0000
0000
0010
0000
0000
0010
0000
0100
0000
0000
0100
0000
0000
0100
0000
,
0001
0000
0000
0001
0000
0000
0001
0000
1000
0000
0001
0000
0110
0000
0000
0000
,
0101
0000
0001
0000
1000
0000
0100
0000
0010
0000
0000
0010
0000
0000
0210
0000
,
0000
1000
0001
0301
,
0100
1000
0001
0100
0000
0010
1000
0020
,
0000
0100
1000
1030
,
0010
1000
0010
1000
0100
1000
0100
0000
,
0010
0001
0010
0001
0100
0010
0100
0000
,
0001
0100
0010
0000
1000
0100
0010
0000
,
2002
0000
0000
3003
,
0110
0000
1001
0000
0110
0000
0100
0010
,
1000
0010
1000
0000
0001
0010
0100
0000
,
0010
0000
0011
0000
1010
0000
0001
0100
,
0010
0100
0010
0000
1000
0010
0100
0000
,
0001
0000
1100
0000
0101
0000
0100
0001
,
1000
0100
0001
0000
0001
0100
1000
0000
,
0001
0000
1010
0000
0101
0000
0100
0010
,
1000
0001
0010
0100
0010
0010
0020
0000
,
0030
0000
0110
0000
1001
0000
0100
1000
,
0100
0001
0100
1000
0100
0000
0100
0000
,
1000
0000
0011
0000
1100
0000
0010
0001
,
0010
1000
0010
1000
0010
0001
0010
0000
,
0100
0000
0011
0000
0110
0000
0100
0010
,
0001
0010
0100
0010
0001
0100
0010
0000
,
1000
0000
0101
0000
1010
0000
0010
1000
,
0010
0100
0010
1000
0100
0010
0100
0000
,
1000
0000
0000
0000
;

//---------------dance-single - ----------------
#NOTES:
     dance-single:
     :
     Hard:
     14:
     0.641565,0.676976,0.283288,0.166640,0.487423,539.000000,505.000000,34.000000,20.000000,0.000000,0.000000,0.641565,0.676976,0.283288,0.166640,0.487423,539.000000,505.000000,34.000000,20.000000,0.000000,0.000000:
// measure 0
0000
0000
0000
0000
,  // measure 1
0000
0000
0000
0000
,  // measure 2
0000
0000
0000
0000
,  // measure 3
0000
0000
0000
0000
,  // measure 4
0000
0000
0000
0000
,  // measure 5
0100
0000
0000
0000
0100
0000
0000
0000
0001
0000
0010
0000
0100
1000
0000
0010
,  // measure 6
0000
0010
0100
0000
0001
0000
1000
0000
0010
0000
0100
0001
0000
0001
0000
0000
,  // measure 7
1000
0000
0000
0000
0100
0000
0000
0000
0010
0000
0100
0000
0010
0001
0000
0100
,  // measure 8
0000
0100
0010
0000
1000
0000
0010
0000
0100
0000
0001
1000
0001
0100
0010
0000
,  // measure 9
1010
0000
0101
0001
0010
0100
0010
0001
,  // measure 10
1100
0000
0101
0100
1000
0100
0001
0010
,  // measure 11
0100
0000
1010
0010
0100
0010
1000
0000
,  // measure 12
0001
0100
0010
0010
1000
0100
0010
0010
,  // measure 13
0011
0000
1100
0001
0010
0010
0100
1000
,  // measure 14
0101
0000
1100
1000
0010
0010
0100
0001
,  // measure 15
0010
0000
0110
1000
0001
0000
0100
0000
,  // measure 16
0001
0000
0001
0000
1000
0000
1000
0000
0100
0000
0010
0001
1000
0010
0100
0001
,  // measure 17
0010
0000
0000
0000
1100
0000
1000
0000
0010
0000
0100
0001
0000
0001
0000
0010
,  // measure 18
0000
0100
1000
0100
1000
0000
0001
0000
0110
0000
1000
0000
0100
0000
0010
0000
,  // measure 19
0001
0000
0000
0000
0101
0000
0001
0000
1000
0000
0100
0010
0000
0010
0000
0100
,  // measure 20
0000
1000
0010
1000
0010
0000
0100
0000
0001
0000
0001
0000
1000
0000
0010
0000
,  // measure 21
0100
0000
0000
0000
1001
0000
0100
0000
0010
0000
0001
0010
0000
0010
0000
0100
,  // measure 22
0000
1000
0010
0100
0001
0000
0100
0000
1010
0000
1000
0000
0001
0000
0010
0000
,  // measure 23
0100
0000
0000
0000
1001
0000
0001
0000
0100
0000
0010
1000
0000
1000
0000
0001
,  // measure 24
0000
0010
0100
1000
0001
0000
0100
0000
0010
0000
0010
0000
1000
0000
0100
0000
,  // measure 25
0020
0000
0000
0000
0031
0000
0010
0000
0100
0000
0010
0000
0001
0100
0000
0010
,  // measure 26
0000
0010
0100
0000
0001
0000
0010
0000
0100
0000
0010
0000
0001
0100
0010
1000
,  // measure 27
0020
0000
0000
0000
1030
0000
0010
0000
0100
0000
0010
0000
1000
0100
0000
0010
,  // measure 28
0000
0010
0100
0000
1000
0000
0010
0000
0100
0000
0010
0000
1000
0010
1000
0010
,  // measure 29
0200
0000
0000
0000
0301
0000
0010
0000
1000
0000
0010
0001
0000
1000
0000
0010
,  // measure 30
0000
1000
0001
0000
0010
0000
1000
0000
0010
0000
0001
0000
1000
0010
1000
0010
,  // measure 31
0200
0000
0000
0000
0301
0000
0100
0000
1000
0000
0100
0001
0000
1000
0000
0100
,  // measure 32
0000
0001
0100
0000
1000
0000
0001
0000
0100
0000
0010
1000
0010
1000
0002
0000
,  // measure 33
0013
0100
0010
0001
0000
0010
0100
1000
,  // measure 34
0000
0001
0100
0010
1000
0001
1000
0001
,  // measure 35
0010
0100
1000
0001
0000
1000
0010
0100
,  // measure 36
0000
0001
0100
0010
1000
0001
1000
0100
,  // measure 37
0010
0001
0010
0100
0010
0001
1000
0010
,  // measure 38
0100
0001
0100
0010
1000
0100
0010
0002
,  // measure 39
0000
1003
0001
0200
0000
0310
1000
0200
,  // measure 40
0000
0310
0001
0100
0010
1000
0001
0001
,  // measure 41
1000
0000
1000
0000
0100
0000
0100
0000
0011
0000
0000
1010
0000
0000
0210
0000
,  // measure 42
0001
0000
0000
0000
0001
0000
0000
0000
0010
0000
0000
0010
0000
0000
0310
0000
,  // measure 43
0100
0000
0100
0000
0001
0000
0001
0000
0011
0000
0000
1010
0000
0000
2100
0000
,  // measure 44
0001
0000
0000
0000
0001
0000
0000
0000
0100
0000
0000
0100
0000
0000
3100
0000
,  // measure 45
0010
0001
0010
0001
0100
0010
1000
0100
,  // measure 46
1000
0100
1000
0010
0100
0001
0100
0010
,  // measure 47
1000
1000
1000
0001
0010
0010
0010
0100
,  // measure 48
1000
1000
0001
0001
0100
0010
1000
0001
,  // measure 49
1001
0000
0000
0000
1010
0000
0000
0010
0000
0100
0010
0100
0010
0000
0001
0000
,  // measure 50
0010
1000
0010
1000
0001
0000
0010
0000
0100
1000
0100
1000
0001
0000
1000
0000
,  // measure 51
0100
0000
0000
0000
0011
0000
0000
1010
0000
0001
0100
0001
0100
0000
1000
0000
,  // measure 52
0100
0000
0000
0001
0000
0000
0100
0000
0000
0001
0000
0000
1000
0000
0000
0000
0100
0000
0000
0000
0010
0000
0000
0000
0001
0000
0000
0000
0000
0000
1000
0000
0000
0000
0000
0000
0010
0000
0000
0000
0000
0000
0100
0000
0000
0000
0000
0000
,  // measure 53
0001
0000
0000
0000
1100
0000
0000
0101
0000
0010
1000
0010
1000
0000
0100
0000
,  // measure 54
0010
0001
0010
0001
0100
0000
0010
0000
1000
0001
1000
0001
1000
0000
0100
0000
,  // measure 55
0010
0000
0010
0000
0001
0000
0001
0100
0000
0100
0010
1000
0010
0000
1000
0000
,  // measure 56
0001
1000
0001
0000
0100
0010
1000
0010
1000
0000
0001
0000
0020
0000
0230
0000
,  // measure 57
0301
0000
0000
0000
0110
0000
0001
0100
0000
0010
1000
0010
1000
0000
0001
1000
,  // measure 58
0010
0000
0100
0001
1000
0000
0100
0010
0000
0001
1000
0000
0020
0000
2030
0000
,  // measure 59
3002
0000
0003
0000
0110
0000
0100
0001
0000
1000
0010
1000
0100
0000
0010
0100
,  // measure 60
0000
0000
0000
1000
0000
0000
0001
0000
0000
0100
0000
0000
0010
0000
0000
0000
0100
0000
0000
0000
0001
0000
0000
0000
0100
0000
0000
0000
0000
0000
0010
0000
0000
0000
0000
0000
2000
0000
0000
0000
0000
0000
3002
0000
0000
0000
0000
0000
,  // measure 61
0203
0000
0300
0000
0110
0000
0100
0010
0000
1000
0100
0010
0100
0000
0010
0001
,  // measure 62
0000
1000
0001
1000
0100
0000
0010
0001
1000
0010
1000
0010
0200
0000
0302
0000
,  // measure 63
1003
0000
0000
0000
1001
0000
0001
0100
0000
0010
0100
0010
1000
0000
0010
0100
,  // measure 64
0001
0000
0000
0000
0000
0000
1000
0000
0000
0001
0000
0000
0100
0000
0000
0000
0010
0000
0000
0000
1000
0000
0000
0000
0100
0000
0000
0000
0000
0000
0010
0000
0000
0000
0000
0000
0101
0000
0000
0000
0000
0000
0000
0000
0000
0000
0000
0000
,  // measure 65
1001
0000
0000
0000
;
