#TITLE:do the thing feat. Kanae Asaba;
#SUBTITLE:;
#ARTIST:MK;
#TITLETRANSLIT:;
#SUBTITLETRANSLIT:;
#ARTISTTRANSLIT:;
#GENRE:;
#CREDIT:;
#BANNER:do the thing feat Kanae Asaba.png;
#BACKGROUND:do the thing feat Kanae Asaba-bg.png;
#LYRICSPATH:;
#CDTITLE:;
#MUSIC:do the thing feat Kanae Asaba.ogg;
#OFFSET:0.862000;
#SAMPLESTART:86.224998;
#SAMPLELENGTH:15.000000;
#SELECTABLE:YES;
#BPMS:0.000000=135.000000
;
#STOPS:
;
#BGCHANGES:;
#KEYSOUNDS:;
#ATTACKS:;

//---------------dance-single - ----------------
#NOTES:
     dance-single:
     :
     Beginner:
     3:
     0.119052,0.135421,0.000000,0.033334,0.000000,100.000000,100.000000,0.000000,4.000000,0.000000,0.000000,0.119052,0.135421,0.000000,0.033334,0.000000,100.000000,100.000000,0.000000,4.000000,0.000000,0.000000:
0000
0000
0000
0000
,
0000
0000
0000
0000
,
0000
0000
0000
0000
,
0000
0000
0000
0000
,
0000
0000
0000
0000
,
0001
0000
0000
0000
,
1000
0000
0000
0000
,
0100
0000
0000
0000
,
0010
0000
0000
0000
,
0001
0000
0100
0000
,
0001
0000
0100
0000
,
0010
0000
1000
0000
,
0010
0000
1000
0000
,
1000
0000
0100
0000
,
0010
0000
0001
0000
,
0001
0000
0010
0000
,
0100
0000
1000
0000
,
0010
0010
0000
0000
,
0001
0001
0000
0000
,
0100
0100
0000
0000
,
1000
1000
0000
0000
,
0010
0010
0000
0000
,
1000
1000
0000
0000
,
0100
0100
0000
0000
,
0001
0001
0000
0000
,
0010
0000
0010
0000
,
0001
0000
0001
0000
,
0010
0000
0010
0000
,
1000
0000
1000
0000
,
0100
0000
0100
0000
,
0001
0000
0001
0000
,
0100
0000
0100
0000
,
1000
0000
1000
0000
,
0100
0000
1000
0000
,
0010
0000
0000
0000
,
0100
0000
0001
0000
,
0010
0000
0000
0000
,
0010
0000
0001
0000
,
1000
0000
0000
0000
,
0100
0000
1000
0000
,
0001
0000
0000
0000
,
2000
0000
3000
0000
,
0100
0000
0000
0000
,
0020
0000
0030
0000
,
0001
0000
0000
0000
,
0002
0000
0003
0000
,
0100
0000
0000
0000
,
0020
0000
0030
0000
,
1000
0000
0000
0000
,
1000
1000
0000
0000
,
0001
0000
0000
0000
,
0100
0000
0010
0000
,
0100
0000
0000
0000
,
0001
0001
0000
0000
,
1000
0000
0000
0000
,
0010
0000
0100
0000
,
0010
0000
0000
0000
,
0100
0100
0000
0000
,
0001
0000
0000
0000
,
0010
0010
0000
0000
,
1000
0000
0001
0000
,
1000
1000
0000
0000
,
0100
0000
0001
0000
,
0010
0010
0000
0000
,
0001
0000
1000
0000
,
0001
0000
0000
0000
;

//---------------dance-single - ----------------
#NOTES:
     dance-single:
     :
     Easy:
     5:
     0.236913,0.270842,0.133338,0.141671,0.000000,199.000000,183.000000,16.000000,17.000000,0.000000,0.000000,0.236913,0.270842,0.133338,0.141671,0.000000,199.000000,183.000000,16.000000,17.000000,0.000000,0.000000:
0000
0000
0000
0000
,
0000
0000
0000
0000
,
0000
0000
0000
0000
,
0000
0000
0000
0000
,
0000
0000
0000
0000
,
0001
0000
1000
0000
,
1000
0000
0001
0000
,
0001
0100
0010
0000
,
0010
1000
0100
0000
,
1000
1000
0100
0000
,
0010
0010
0001
0000
,
0010
0001
0100
0010
,
1000
0000
0001
0000
,
1000
1000
1000
0000
,
0100
0100
0100
0000
,
0010
0010
0010
0000
,
0001
0001
0001
0000
,
1000
0001
0100
0000
,
0001
1000
0100
0000
,
1000
0010
0100
0000
,
0001
0010
0100
0000
,
0010
0010
0001
0000
,
0001
0001
1000
0000
,
1000
1000
0100
0000
,
0100
0100
0010
0000
,
0012
1000
1003
0000
,
2100
0010
3010
0000
,
1002
0100
0103
0000
,
2001
0010
3010
0000
,
1020
0100
1030
0000
,
0201
0010
0301
0000
,
0021
0001
0130
0000
,
1200
1000
0310
0000
,
0010
0001
0100
0010
,
1000
0000
0001
0000
,
1000
0001
0010
0100
,
1000
0000
0001
0000
,
0100
0001
0010
0001
,
0100
0000
0010
0000
,
0010
1000
0100
0010
,
0001
0000
1000
0000
,
1002
0000
0013
0000
,
2001
0000
3100
0000
,
1020
0000
0130
0000
,
0201
0000
0310
0000
,
0010
1000
0010
1000
,
0001
0100
0001
0100
,
0001
0010
0100
1000
,
0002
0000
0003
1001
,
0100
1000
0010
0000
,
0010
1000
0100
0010
,
0001
0010
1000
0000
,
1000
0100
0001
0001
,
1000
0100
1000
0000
,
0001
0010
0001
0100
,
1000
0100
0010
0000
,
0001
0010
0100
0010
,
0012
0000
0103
0000
,
0010
0010
0100
0001
,
1000
0010
0100
0000
,
0001
0010
0100
1000
,
1002
1000
0103
0000
,
2001
0001
3010
0000
,
0010
1000
0001
0100
,
0010
1000
0002
0000
,
1003
0000
0000
0000
;

//---------------dance-single - ----------------
#NOTES:
     dance-single:
     :
     Medium:
     9:
     0.325011,0.379179,0.191673,0.408347,0.000000,273.000000,250.000000,23.000000,49.000000,0.000000,0.000000,0.325011,0.379179,0.191673,0.408347,0.000000,273.000000,250.000000,23.000000,49.000000,0.000000,0.000000:
// measure 0
0000
0000
0000
0000
,  // measure 1
0000
0000
0000
0000
,  // measure 2
0000
0000
0000
0000
,  // measure 3
0000
0000
0000
0000
,  // measure 4
0000
0000
0000
0000
,  // measure 5
2000
0000
0000
3100
0000
0000
0000
0000
,  // measure 6
0002
0000
0000
0013
0000
0000
0000
0000
,  // measure 7
2000
0000
0000
3010
0000
0000
0000
0000
,  // measure 8
0002
0000
0000
0100
0000
0000
0103
0000
,  // measure 9
0010
0000
0010
0000
1000
0100
1000
0000
,  // measure 10
0001
0100
0010
0000
,  // measure 11
1000
0000
1000
0000
0010
0100
0010
0000
,  // measure 12
0100
0001
0010
0000
,  // measure 13
0010
0001
0010
0000
0001
0000
0000
0000
,  // measure 14
1000
0100
1000
0000
0100
0000
0000
0000
,  // measure 15
1000
0001
0100
0000
0010
1000
0100
0000
,  // measure 16
0010
0001
1000
0002
0000
0000
0000
0000
,  // measure 17
0013
0000
0010
0000
0100
1000
0100
0000
,  // measure 18
1000
0000
1000
0001
0100
0000
0000
0000
,  // measure 19
0001
0000
0001
0000
1000
0001
1000
0000
,  // measure 20
0001
0000
0010
0001
0010
0000
0000
0000
,  // measure 21
0001
0000
0001
0000
0010
0001
0010
0000
,  // measure 22
0001
0000
1000
0010
1000
0000
0000
0000
,  // measure 23
0100
0000
0100
0000
0010
0001
0010
0000
,  // measure 24
0100
0000
1000
0001
0100
0000
0001
0000
,  // measure 25
2002
0000
3003
0202
0000
0000
0303
0000
,  // measure 26
2002
0000
3003
2200
0000
3300
1000
0000
,  // measure 27
2020
0000
3030
0220
0000
0000
0330
0000
,  // measure 28
0202
0000
0303
0022
0000
0033
0001
0000
,  // measure 29
2200
0000
3300
0022
0000
0000
0033
0000
,  // measure 30
0202
0000
0303
2020
0000
3030
0001
0000
,  // measure 31
0022
0000
0033
2002
0000
0000
3003
0000
,  // measure 32
2020
0000
3030
0220
0000
0330
0001
0000
,  // measure 33
1000
0000
1000
0000
1000
0010
1000
0000
,  // measure 34
0100
0000
0100
0000
1000
0100
1000
0000
,  // measure 35
0010
0000
0010
0000
0010
0100
0010
0000
,  // measure 36
0100
0001
1000
0001
1000
0000
0000
0000
,  // measure 37
0001
0000
0001
0000
0001
0010
0001
0000
,  // measure 38
0010
0000
0010
0000
0010
0100
0010
0000
,  // measure 39
0100
0000
1000
0100
1000
0000
0100
0000
,  // measure 40
1000
0010
1000
0000
0001
0000
0100
0000
,  // measure 41
2010
0000
0000
0001
0000
0000
3000
0000
,  // measure 42
0012
0000
0000
1000
0000
0000
0103
0000
,  // measure 43
2001
0000
0000
0010
0000
0000
3000
0000
,  // measure 44
1020
0000
0000
1000
0000
0000
0130
0000
,  // measure 45
0010
1000
0010
0000
0100
0000
0100
0000
,  // measure 46
0001
0010
0001
0000
0100
0000
0000
0000
,  // measure 47
0001
0010
0001
0000
1000
0100
2000
0002
,  // measure 48
0000
0000
0000
3003
,  // measure 49
1001
0000
0100
0010
0000
0010
0000
0010
,  // measure 50
1000
0000
1000
0100
0000
0100
0000
0100
,  // measure 51
1000
0000
0001
0100
0010
1000
0000
1000
,  // measure 52
0010
0100
0001
0010
0000
0010
0100
0000
,  // measure 53
1001
0000
0100
0001
0000
0001
0000
0001
,  // measure 54
0010
0000
0010
0100
0000
0100
0000
1000
,  // measure 55
0001
0000
1000
0010
0100
0001
0000
0100
,  // measure 56
0001
0100
0010
1000
0000
1000
0001
0000
,  // measure 57
0010
0000
0010
0001
0000
0001
0000
0001
,  // measure 58
1000
0000
1000
0100
0000
0100
0000
0100
,  // measure 59
1000
0000
0010
1000
0001
0100
0000
0100
,  // measure 60
0001
1000
0100
0010
0000
0010
0001
0000
,  // measure 61
1002
0000
0000
0023
0000
0000
0000
0000
,  // measure 62
0230
0000
0000
2300
0000
0000
3002
0000
,  // measure 63
0103
0000
0100
0010
0100
0010
0000
0010
,  // measure 64
1000
0001
0010
0100
0000
0100
0020
0000
,  // measure 65
0031
0000
0000
0000
;

//---------------dance-single - ----------------
#NOTES:
     dance-single:
     :
     Hard:
     11:
     0.428586,0.460432,0.250008,0.425014,0.008334,360.000000,330.000000,30.000000,51.000000,0.000000,0.000000,0.428586,0.460432,0.250008,0.425014,0.008334,360.000000,330.000000,30.000000,51.000000,0.000000,0.000000:
// measure 0
0000
0000
0000
0000
,  // measure 1
0000
0000
0000
0000
,  // measure 2
0000
0000
0000
0000
,  // measure 3
0000
0000
0000
0000
,  // measure 4
0000
0000
0000
0000
,  // measure 5
0002
0000
0000
0203
0000
0000
0000
0000
,  // measure 6
0320
0000
0000
2030
0000
0000
3002
0000
,  // measure 7
0023
0000
0000
0230
0000
0000
0000
0000
,  // measure 8
2300
0000
0000
3002
0000
1003
1001
0000
,  // measure 9
0100
0001
0100
0001
0010
0000
0010
0000
,  // measure 10
0001
1000
0001
1000
0100
0000
0100
0000
,  // measure 11
1000
0010
1000
0010
0100
0000
0100
0000
,  // measure 12
0001
0010
0100
1000
0100
0010
0001
0000
,  // measure 13
0010
0001
0100
0010
1000
0000
1000
0000
,  // measure 14
0010
1000
0100
0010
0001
0000
0001
0000
,  // measure 15
1000
0001
0100
0100
0001
1000
0010
0010
,  // measure 16
0220
0000
0330
1001
,  // measure 17
0010
1000
0010
0100
0010
1000
0010
0000
,  // measure 18
0100
0001
0100
0010
0100
0001
0100
0000
,  // measure 19
0001
0010
0001
1000
0100
1000
0100
0000
,  // measure 20
1000
0001
1000
0010
0100
0001
0010
0010
,  // measure 21
0100
1000
0100
1000
0100
0001
0100
0000
,  // measure 22
0010
0001
0010
0001
0010
1000
0010
0000
,  // measure 23
0001
0010
0001
1000
0010
1000
0010
0000
,  // measure 24
1000
0001
1000
0010
0100
0001
0100
0000
,  // measure 25
0022
0033
0001
2002
0000
3003
1000
0000
,  // measure 26
2200
3300
1000
2020
3030
0010
0110
0000
,  // measure 27
2002
3003
0100
0022
0000
0033
0001
0000
,  // measure 28
2002
3003
0001
2200
3300
1000
0110
0000
,  // measure 29
2020
3030
0100
0022
0000
0033
1001
0000
,  // measure 30
0220
0330
0100
0022
0033
0001
1001
0000
,  // measure 31
0202
0303
0001
2200
3300
0000
1000
0000
,  // measure 32
2020
3030
0100
0022
0033
0001
1000
0000
,  // measure 33
0010
1000
0010
0000
0100
0001
0100
0000
,  // measure 34
0001
0010
0001
0010
0100
1000
0100
0000
,  // measure 35
1000
0001
0100
0000
0001
1000
0010
0000
,  // measure 36
1000
0100
0010
0100
0010
0001
0100
0010
,  // measure 37
1000
0000
0010
0000
0100
0010
0100
0000
,  // measure 38
0001
0000
1000
0000
0001
0010
0001
0000
,  // measure 39
0010
0001
0010
1000
0010
0000
0100
1000
,  // measure 40
0100
0001
0100
1000
0000
1000
0010
0000
,  // measure 41
0102
0000
0000
1000
0000
0000
0013
0000
,  // measure 42
2001
0000
0000
0010
0000
0100
3100
0000
,  // measure 43
1020
0000
0000
0100
0000
0000
0031
0000
,  // measure 44
0201
0000
0000
1000
0000
0010
0310
0000
,  // measure 45
0001
1000
0001
0010
,  // measure 46
0100
1000
0001
1000
,  // measure 47
0001
0010
0001
0010
0100
1000
0100
1000
,  // measure 48
0020
0000
0000
0130
,  // measure 49
0010
1000
0010
0100
0000
0100
0001
0000
,  // measure 50
0100
0001
0100
0010
0000
0010
1000
0000
,  // measure 51
1001
0000
1000
0100
0001
0100
0000
0100
,  // measure 52
1000
0010
0001
0010
0000
1000
0001
0000
,  // measure 53
1100
0000
0010
0001
0000
0001
0010
0000
,  // measure 54
0100
0000
1000
0010
0000
0010
0000
0100
,  // measure 55
0001
0000
0100
0001
0100
1000
0000
0100
,  // measure 56
0001
0100
0001
0010
0100
1000
0001
0000
,  // measure 57
0010
0100
0010
0100
1000
0000
0001
0000
0000
0000
0100
0000
0000
0000
0001
0000
,  // measure 58
0010
0000
0100
1000
0000
0001
0000
1000
,  // measure 59
0010
0000
1000
0010
0100
0001
0000
0100
,  // measure 60
0001
0010
0100
1000
0100
0010
0001
0000
,  // measure 61
1001
0000
0001
0200
0000
0010
0000
0310
,  // measure 62
1000
0000
2000
0001
0000
0001
0000
3001
,  // measure 63
0010
0000
0100
1000
0100
0010
0000
0001
,  // measure 64
0010
0001
1000
0010
0100
0001
0020
0000
,  // measure 65
0130
0000
0000
0000
;
