#VERSION:0.83;
#TITLE:collaboration;
#SUBTITLE:;
#ARTIST:Newton;
#TITLETRANSLIT:;
#SUBTITLETRANSLIT:;
#ARTISTTRANSLIT:;
#GENRE:;
#ORIGIN:;
#CREDIT:;
#BANNER:collaboration.png;
#BACKGROUND:collaboration-bg.png;
#PREVIEWVID:;
#JACKET:collaboration-jacket.png;
#CDIMAGE:;
#DISCIMAGE:;
#LYRICSPATH:;
#CDTITLE:;
#MUSIC:collaboration.ogg;
#OFFSET:0.505000;
#SAMPLESTART:10.909900;
#SAMPLELENGTH:15.000000;
#SELECTABLE:YES;
#BPMS:0.000=126.012;
#STOPS:199.500=0.447;
#DELAYS:;
#WARPS:;
#TIMESIGNATURES:0.000=4=4;
#TICKCOUNTS:0.000=4;
#COMBOS:0.000=1;
#SPEEDS:0.000=1.000=0.000=0;
#SCROLLS:0.000=1.000;
#FAKES:;
#LABELS:0.000=Song Start;
#BGCHANGES:;
#KEYSOUNDS:;
#ATTACKS:
;

//---------------dance-single - ----------------
#NOTEDATA:;
#CHARTNAME:;
#STEPSTYPE:dance-single;
#DESCRIPTION:;
#CHARTSTYLE:;
#DIFFICULTY:Beginner;
#METER:2;
#RADARVALUES:0.100464,0.155091,0.025116,0.092092,0.000000,84.000000,81.000000,3.000000,11.000000,0.000000,0.000000,0.000000,0.000000,0.000000,0.100464,0.155091,0.025116,0.092092,0.000000,84.000000,81.000000,3.000000,11.000000,0.000000,0.000000,0.000000,0.000000,0.000000;
#CREDIT:;
#NOTES:
0000
0000
0000
0000
,
0000
0000
0000
0000
,
0000
0000
0000
0000
,
0000
0000
0000
0000
,
0000
0000
0000
0000
,
0000
0000
0000
0000
,
1001
0000
0000
0000
,
0010
0000
1000
0000
,
0100
0000
0000
0000
,
0010
0000
0001
0000
,
0200
0000
0300
0000
,
0001
0000
1000
0000
,
0002
0000
0003
0000
,
1000
0000
0100
0000
,
2000
0000
3000
0000
,
0010
0000
0100
0000
,
0020
0000
0030
0000
,
0200
0000
0300
0000
,
0001
0000
0010
0000
,
0001
0000
0010
0000
,
0100
0000
1000
0000
,
0100
0000
1000
0000
,
0010
0000
1000
0000
,
0010
0000
1000
0000
,
0001
0000
0100
0000
,
0001
0000
0100
0000
,
0220
0000
0330
0000
,
0010
0000
1000
0000
,
0001
0000
0010
0000
,
0100
0000
1000
0000
,
0020
0000
0030
0000
,
0100
0000
0010
0000
,
0100
0000
0001
0000
,
1000
0000
0010
0000
,
1000
1000
0000
0000
,
0001
0001
0000
0000
,
0010
0000
0100
0000
,
1000
0000
0100
0000
,
0010
0000
0000
0000
,
0001
0000
0000
0000
,
1000
0000
0000
0000
,
0200
0000
0000
0000
,
0300
0000
0000
0000
,
0000
0000
0000
0000
,
0000
0000
0000
0000
,
0000
0000
0000
0000
,
0000
1000
0000
1000
,
0000
0001
0000
1000
,
0000
0001
0000
0001
,
0000
1000
0000
1000
,
1001
0000
0000
0100
,
0000
0001
0000
0010
,
0000
0000
0000
0100
,
0000
1000
0000
0010
,
0000
0000
0000
1000
,
0000
0001
0000
0100
,
0000
0000
0000
0001
,
0000
1000
0000
0020
,
0000
0000
0000
0000
,
0000
0030
0000
0200
,
0000
0000
0000
0000
,
0000
0000
0000
0300
;

//---------------dance-single - ----------------
#NOTEDATA:;
#CHARTNAME:;
#STEPSTYPE:dance-single;
#DESCRIPTION:;
#CHARTSTYLE:;
#DIFFICULTY:Easy;
#METER:4;
#RADARVALUES:0.177008,0.284334,0.066976,0.167440,0.000000,148.000000,140.000000,8.000000,20.000000,0.000000,0.000000,0.000000,0.000000,0.000000,0.177008,0.284334,0.066976,0.167440,0.000000,148.000000,140.000000,8.000000,20.000000,0.000000,0.000000,0.000000,0.000000,0.000000;
#CREDIT:;
#NOTES:
0000
0000
0000
0000
,
0000
0000
0000
0000
,
0000
0000
0000
0000
,
0000
0000
0000
0000
,
0000
0000
0000
0000
,
0000
0000
0000
0000
,
1001
0100
0010
1000
,
0000
0010
1000
0001
,
0000
0010
0001
1000
,
0000
0100
1000
0001
,
2000
0000
0010
0000
,
3002
0000
0100
0100
,
0023
0000
0001
0000
,
0230
0000
1000
1000
,
1300
0010
1000
0000
,
0001
0010
0001
0100
,
0020
0000
0000
1000
,
2030
0000
0000
0000
,
3001
0001
1000
1000
,
0010
0100
0010
0110
,
0100
0100
0001
0001
,
1000
0010
1000
0110
,
0001
0001
0010
0100
,
1000
1000
0010
1000
,
0002
0000
0000
0000
,
2003
0000
0000
3000
,
2002
0000
0000
3003
,
0100
0100
0010
0000
,
1000
0010
0001
0010
,
1000
0100
0001
0000
,
0220
0000
0000
0330
,
0010
0010
0100
0000
,
0001
0010
1000
0010
,
0001
0100
1000
0100
,
0001
0001
0010
0000
,
1000
1000
0100
0000
,
1000
0010
0100
0001
,
0100
0010
1000
0000
,
0001
0001
0001
0000
,
1000
1000
1000
0000
,
0020
0000
0000
0000
,
0230
0000
0000
0300
,
2002
0000
0000
0000
,
0000
0000
0000
0000
,
3003
0000
0000
0000
,
0000
0000
0000
0000
,
0000
0001
0000
0001
,
0000
1000
0000
1000
,
0000
0010
0000
0100
,
0000
0010
0000
0100
,
1001
0100
0010
0000
,
0001
0010
0100
0000
,
1000
0010
0100
0000
,
0001
1000
0001
0000
,
1001
0010
0100
0000
,
0001
0100
1000
0000
,
1000
0010
0001
0000
,
0001
0010
0100
2000
,
0000
0000
0000
3020
,
0000
0000
0000
0230
,
0000
0000
0000
0302
,
0000
0000
0000
0003
;

//---------------dance-single - ----------------
#NOTEDATA:;
#CHARTNAME:;
#STEPSTYPE:dance-single;
#DESCRIPTION:;
#CHARTSTYLE:;
#DIFFICULTY:Medium;
#METER:8;
#RADARVALUES:0.313351,0.413576,0.226044,0.184184,0.033488,262.000000,235.000000,27.000000,22.000000,0.000000,0.000000,0.000000,0.000000,0.000000,0.313351,0.413576,0.226044,0.184184,0.033488,262.000000,235.000000,27.000000,22.000000,0.000000,0.000000,0.000000,0.000000,0.000000;
#CREDIT:;
#NOTES:
0000
0000
0000
0000
,
0000
0000
0000
0000
,
0000
0000
0000
0000
,
0000
0000
0000
0000
,
0000
0000
0000
0000
,
0000
0000
0000
0000
,
1001
0000
0010
0000
0100
0001
1000
0010
,
0000
1000
0100
0000
0010
0001
1000
0010
,
0000
0100
0001
0000
0100
0010
1000
0001
,
0000
0010
0100
1000
0100
0010
0001
0000
,
2000
0000
0000
0000
0010
0000
3100
0010
,
0002
0000
0010
0000
1000
0000
0103
0010
,
2000
0000
0000
0000
0001
0000
3010
0100
,
0002
0000
1000
0000
0100
0000
0013
0100
,
1000
0000
0010
0000
0100
0000
0001
0010
,
0001
0000
0100
0000
0010
0000
1000
0001
,
0020
0000
0000
0000
0001
0000
0031
1000
,
0200
0000
0010
0000
0000
0010
0310
0000
,
0100
0011
0001
1010
,
1000
0000
0000
0000
0101
0000
0000
0000
0110
0000
0000
1100
0000
0000
0101
0000
,
0000
1001
0100
0011
,
0001
0000
0000
0000
1100
0000
0000
0000
1010
0000
0000
0101
0000
0000
0110
0000
,
0000
1100
1000
0011
,
0220
0000
0330
0000
0010
1000
0100
0010
,
0002
0000
0000
0000
0010
0000
1000
2003
,
0000
0000
0000
0000
0000
0100
0100
3100
,
1002
0000
0000
0000
1000
0000
0100
0100
,
0000
0010
0000
1000
0000
0010
0000
0000
,
0103
0000
0010
1000
0001
0000
0010
0100
,
1000
0000
0010
1000
0100
0001
0100
0000
,
2001
0000
0000
0000
0010
0000
0001
0001
,
0000
0000
0100
0100
0000
0001
0000
0000
,
3100
1100
0010
0011
,
0001
0100
0010
2000
0000
3010
0100
0002
,
0000
0000
0013
0000
0010
0000
0000
0110
0000
0000
1001
0000
0000
0000
0000
0000
,
0000
0000
0100
0000
0100
0000
0001
0000
1000
0000
0000
1000
0000
0000
0001
0000
,
0000
0010
0001
0020
0000
0000
0100
0000
,
1000
0000
0001
0000
0130
0010
0010
0000
,
0001
0001
0100
0000
1000
1000
0010
0000
,
1000
1000
0100
0000
0001
0001
0010
0020
,
0000
0000
0000
0000
0100
0000
0001
0032
,
0000
0000
0000
0000
,
2003
0000
0000
0000
,
0000
0000
0000
0000
,
3000
0000
0000
0000
,
0000
0000
0000
0000
,
0000
0000
1000
0000
0100
0000
0000
0100
0000
0000
0100
0000
1000
0000
0000
0000
,
0000
0000
0001
0000
0010
0000
0000
0010
0000
0000
0010
0000
0001
0000
0000
0000
,
0000
0000
1000
0000
0010
0000
0000
0010
0000
0000
0010
0000
0100
0000
0000
0100
,
0000
0001
0100
0010
1000
0000
0001
0000
,
1001
0000
1000
0010
0100
0001
0000
0100
,
0010
0000
1000
0001
0010
0100
0000
0100
,
0010
0000
0001
0010
0100
1000
0000
1000
,
0001
0010
0110
0000
1001
0000
0000
0100
,
0010
0000
1000
0010
0100
0001
0000
0001
,
1000
0000
0001
0010
0100
1000
0000
1000
,
0010
0000
0100
0001
1000
0010
0000
0010
,
1000
0100
0011
0000
1100
0000
0002
0000
,
0000
0000
0000
0203
,
0000
0000
0000
0320
,
0000
0000
0000
2030
,
0000
0000
0000
3000
;

//---------------dance-single - ----------------
#NOTEDATA:;
#CHARTNAME:;
#STEPSTYPE:dance-single;
#DESCRIPTION:;
#CHARTSTYLE:;
#DIFFICULTY:Hard;
#METER:11;
#RADARVALUES:0.389895,0.516970,0.184184,0.226044,0.050232,326.000000,304.000000,22.000000,27.000000,0.000000,0.000000,0.000000,0.000000,0.000000,0.389895,0.516970,0.184184,0.226044,0.050232,326.000000,304.000000,22.000000,27.000000,0.000000,0.000000,0.000000,0.000000,0.000000;
#CREDIT:;
#NOTES:
// measure 0
0000
0000
0000
0000
,  // measure 1
0000
0000
0000
0000
,  // measure 2
0000
0000
0000
0000
,  // measure 3
0000
0000
0000
0000
,  // measure 4
0000
0000
0000
0000
,  // measure 5
0000
0000
0000
0000
,  // measure 6
1001
1000
0100
0000
1000
0010
0100
0001
,  // measure 7
0100
0010
1000
0000
0001
0010
0100
1000
,  // measure 8
0100
0010
0001
0000
1000
0100
0001
0100
,  // measure 9
0000
0010
0001
0010
1000
0010
0001
0000
,  // measure 10
2001
0000
0010
0000
3100
0010
0001
0200
,  // measure 11
1000
0000
0001
0000
0310
1000
0100
0010
,  // measure 12
0002
0000
1000
0000
0103
0001
1000
0020
,  // measure 13
0001
0000
1000
0000
0130
0001
0010
0100
,  // measure 14
2000
0000
0010
0000
3100
1000
0001
0020
,  // measure 15
1000
0000
0100
0000
0031
0100
0010
1000
,  // measure 16
0002
0000
0010
0000
0100
0000
0013
0100
,  // measure 17
2000
0000
0010
0000
0001
0001
3001
0000
,  // measure 18
1010
1000
0100
0000
0011
0001
0100
0000
,  // measure 19
1001
0000
1000
0000
0100
0000
0000
0000
0011
0000
0000
1100
0000
0000
0101
0000
,  // measure 20
1010
0100
0001
0000
0011
0100
1000
0000
,  // measure 21
1001
0000
0100
0000
0010
0000
0000
0000
1010
0000
0000
0101
0000
0000
1100
0000
,  // measure 22
0011
0001
1000
0000
1100
1000
0010
0000
,  // measure 23
0110
0001
1000
0000
0100
1000
0010
0200
,  // measure 24
0001
0000
0001
0000
1000
0000
0301
0010
,  // measure 25
0200
0000
1000
0000
0310
0100
0010
0001
,  // measure 26
1002
0000
0010
0000
0100
0000
0103
0010
,  // measure 27
0000
1000
0001
0100
0000
0001
0010
0100
,  // measure 28
1000
0010
0100
0100
0001
1000
0010
0010
,  // measure 29
1000
0001
0010
0001
1000
0010
0100
0000
,  // measure 30
2001
0000
0010
0000
0100
0000
3100
0010
,  // measure 31
0000
0001
0010
0001
0000
1000
0010
1000
,  // measure 32
0001
1000
0100
0100
1000
0001
0100
0100
,  // measure 33
0001
0010
0100
2000
0000
3100
0010
0002
,  // measure 34
0000
0000
0013
0000
0100
1000
0000
1000
0000
0000
0001
0000
1000
0000
0010
0000
,  // measure 35
0000
0000
0010
0000
0100
0000
0001
0010
0001
0000
0000
0001
0000
0000
1000
0000
,  // measure 36
0100
0000
1000
0010
1000
0000
0001
0010
,  // measure 37
0001
0000
0100
0001
0100
0010
1000
0000
,  // measure 38
0010
1000
0010
0010
0100
0001
0100
0000
,  // measure 39
0001
0100
0001
0001
1000
0010
1000
0002
,  // measure 40
0010
0000
0100
0000
0010
0000
0103
0010
,  // measure 41
2000
0000
0100
0000
0010
0000
0001
0002
,  // measure 42
0000
0000
0000
0000
,  // measure 43
0000
0000
0000
0000
,  // measure 44
3003
0000
0000
0000
,  // measure 45
0000
0000
0000
0000
,  // measure 46
0000
0000
0200
0000
0001
0000
0000
0001
0000
0000
0302
0000
0010
0000
0000
0010
,  // measure 47
0000
0000
0023
0000
0100
0000
0000
0100
0000
0000
0230
0000
1000
0000
0000
1000
,  // measure 48
0000
0000
2300
0000
0001
0000
0000
3001
0000
0000
0002
0000
0100
0000
0000
0103
,  // measure 49
0000
0000
0100
0000
0010
0000
1000
0000
0100
0000
0010
0000
0002
0000
2000
3003
,  // measure 50
1001
0000
1000
0100
0001
0100
1000
0010
,  // measure 51
0100
0000
0001
0010
1000
0010
0001
0100
,  // measure 52
0010
0000
1000
0010
0100
0001
0000
0001
,  // measure 53
0100
0010
1000
0010
0110
0000
1001
0001
,  // measure 54
0010
0000
0100
1000
0010
0100
0001
0010
,  // measure 55
0100
0000
0010
0001
0100
0010
1000
0100
,  // measure 56
1000
0000
0001
0100
1000
0100
0001
0010
,  // measure 57
1000
0010
0001
0100
0010
0000
2000
0000
,  // measure 58
0000
0000
0000
0000
,  // measure 59
0000
0000
0000
3002
,  // measure 60
0000
0000
0000
0000
,  // measure 61
0000
0000
0000
0003
;
