#TITLE:YES;
#SUBTITLE:;
#ARTIST:Louisa ft. 2 Chainz;
#TITLETRANSLIT:;
#SUBTITLETRANSLIT:;
#ARTISTTRANSLIT:;
#GENRE:;
#CREDIT:;
#BANNER:YES.png;
#BACKGROUND:YES-bg (widescreen).png;
#LYRICSPATH:;
#CDTITLE:;
#MUSIC:YES.ogg;
#OFFSET:0.000000;
#SAMPLESTART:52.340000;
#SAMPLELENGTH:16.002001;
#SELECTABLE:YES;
#BPMS:0.000000=109.988998
;
#STOPS:
;
#BGCHANGES:0.000=YES.mp4=1.000=0=0=0=StretchNoLoop====,
99999=-nosongbg-=1.000=0=0=0 // don't automatically add -songbackground-
;
#KEYSOUNDS:;
#ATTACKS:;

//---------------dance-single - ----------------
#NOTES:
     dance-single:
     :
     Beginner:
     3:
     0.106935,0.182255,0.089500,0.008136,0.000000,92.000000,81.000000,11.000000,1.000000,0.000000,0.000000,0.106935,0.182255,0.089500,0.008136,0.000000,92.000000,81.000000,11.000000,1.000000,0.000000,0.000000:
// measure 0
0000
0000
0000
0000
,  // measure 1
0000
0000
0000
0000
,  // measure 2
0000
0000
0000
0000
,  // measure 3
0000
0000
0000
0000
,  // measure 4
0000
0000
0000
0000
,  // measure 5
0000
0000
0000
0000
,  // measure 6
0000
0000
0000
0000
,  // measure 7
0000
0000
0000
0000
,  // measure 8
0010
0000
0100
0000
,  // measure 9
0100
0000
0000
0000
,  // measure 10
0100
0000
0010
0000
,  // measure 11
0010
0000
0000
0000
,  // measure 12
1000
0000
0010
0000
,  // measure 13
0001
0000
0000
0000
,  // measure 14
0001
0000
0010
0000
,  // measure 15
1000
0000
0000
0000
,  // measure 16
1001
0000
0100
0000
,  // measure 17
0001
0000
0000
0000
,  // measure 18
0001
0000
0010
0000
,  // measure 19
1000
0000
0000
0000
,  // measure 20
0100
0000
0100
0000
,  // measure 21
0100
0000
0100
0000
,  // measure 22
0010
0000
0010
0000
,  // measure 23
0010
0000
0000
0000
,  // measure 24
0110
0000
0001
0000
,  // measure 25
1000
0000
0000
0000
,  // measure 26
0110
0000
1000
0000
,  // measure 27
0001
0000
0000
0000
,  // measure 28
1001
0000
0100
0000
,  // measure 29
0010
0000
0000
0000
,  // measure 30
1001
0000
0010
0000
,  // measure 31
0100
0000
0020
0000
,  // measure 32
0030
0010
0000
0010
,  // measure 33
0000
0010
0000
0010
,  // measure 34
0000
0100
0000
0100
,  // measure 35
0000
0100
0000
0100
,  // measure 36
0000
0001
0000
0001
,  // measure 37
0000
1000
0000
1000
,  // measure 38
0000
0001
0000
1000
,  // measure 39
0000
0001
0000
1000
,  // measure 40
1000
0000
0010
0000
,  // measure 41
0100
0000
0000
0000
,  // measure 42
0001
0000
0100
0000
,  // measure 43
0010
0000
0000
0000
,  // measure 44
1000
0000
0001
0000
,  // measure 45
0010
0000
0000
0000
,  // measure 46
0001
0000
1000
0000
,  // measure 47
0100
0000
0010
0000
,  // measure 48
1001
0000
1000
0000
,  // measure 49
1000
0000
0000
0000
,  // measure 50
1001
0000
0001
0000
,  // measure 51
0001
0000
0000
0000
,  // measure 52
0110
0000
0100
0000
,  // measure 53
0100
0000
0000
0000
,  // measure 54
0110
0000
0010
0000
,  // measure 55
0110
0000
0010
0000
,  // measure 56
0110
0000
0000
0000
;

//---------------dance-single - ----------------
#NOTES:
     dance-single:
     :
     Easy:
     7:
     0.259201,0.410073,0.374273,0.081364,0.000000,223.000000,177.000000,46.000000,10.000000,0.000000,0.000000,0.259201,0.410073,0.374273,0.081364,0.000000,223.000000,177.000000,46.000000,10.000000,0.000000,0.000000:
0000
0000
0000
0000
,
0000
0000
0000
0000
,
0000
0000
0000
0000
,
0000
0000
0000
0000
,
0000
0000
0000
0000
,
0000
0000
0000
0000
,
0000
0000
0000
0000
,
0000
0000
0000
0000
,
1000
1000
0001
0001
,
0100
0000
0010
1000
,
0010
0010
0100
0100
,
0001
0000
1000
0100
,
2100
3010
0102
0013
,
2001
3010
1000
0100
,
1002
0103
2010
3001
,
0120
1030
0010
0100
,
0001
0001
1000
0000
,
1000
1000
0010
0100
,
0001
0001
1000
0000
,
1000
1000
0100
0010
,
1100
1000
0001
0000
,
0011
0001
0100
0100
,
0110
0010
1000
0000
,
0001
0010
0100
1000
,
1001
1000
0010
1000
,
0100
1000
0100
0000
,
1100
1000
0010
0100
,
0001
0010
0001
0000
,
0101
0001
0010
0010
,
0100
0100
1000
1000
,
1100
1100
1001
1001
,
0011
0011
1001
1001
,
0110
0100
0010
0000
,
0110
0010
1000
0000
,
1000
1000
0010
0010
,
0100
0100
0001
0001
,
0012
0100
0100
0000
,
2003
0010
0100
3010
,
1002
1000
0100
0000
,
0203
0010
0001
0301
,
1001
0000
1000
0100
,
0001
0100
1000
0010
,
0000
0001
0010
1000
,
0010
0010
0001
0100
,
0110
0100
0010
1000
,
0010
0100
0001
1000
,
0101
0101
0101
0101
,
1010
1010
1001
1001
,
0110
0010
1000
0010
,
0100
0001
0010
0000
,
0110
0100
1000
0100
,
0010
0001
1000
0000
,
1001
0001
0100
0100
,
0010
0010
1000
1000
,
1100
1100
1010
1010
,
0011
0011
0101
0110
,
1001
0000
0000
0000
;

//---------------dance-single - ----------------
#NOTES:
     dance-single:
     :
     Medium:
     10:
     0.403331,0.410073,0.374273,0.423091,0.056955,347.000000,301.000000,46.000000,52.000000,0.000000,0.000000,0.403331,0.410073,0.374273,0.423091,0.056955,347.000000,301.000000,46.000000,52.000000,0.000000,0.000000:
0000
0000
0000
0000
,
0000
0000
0000
0000
,
0000
0000
0000
0000
,
0000
0000
0000
0000
,
0000
0000
0000
0000
,
0000
0000
0000
0000
,
0000
0000
0000
0000
,
0000
0000
0000
0000
,
1000
0000
0001
0000
1000
0000
0001
0000
0100
0000
0000
0100
0000
0000
0010
0000
,
1000
0000
0000
1000
0000
0000
0001
0000
0010
0000
0000
0000
0100
0000
0010
0000
,
0001
0000
0100
0000
0001
0000
0100
0000
0010
0000
0000
0010
0000
0000
1000
0000
,
0100
0000
0000
0100
0000
0000
0010
0000
0001
0000
1000
0000
0100
0000
0000
0000
,
1020
1000
1030
0000
0201
0001
0301
0000
,
0100
0110
0000
1010
0000
0001
0010
0000
,
0021
0001
0031
0000
1200
1000
1300
0000
,
0001
1001
0000
0110
0000
0100
0010
1000
,
0010
0000
1000
0001
0100
0000
0001
0010
,
0100
1000
0100
0010
0001
0000
1000
0001
,
0100
0100
0001
1000
0010
0000
1000
0001
,
0010
0010
0001
1000
0100
0000
1000
0010
,
0110
0000
0100
0100
0100
0000
0001
1000
,
1001
0000
0010
0010
0010
0000
1000
0010
,
0110
0000
0100
0100
0100
0000
0001
1000
,
0010
0010
1000
1000
0001
0001
0010
0100
,
1001
0000
1000
0100
0001
0000
0001
0100
,
1000
0000
1000
0010
0001
0010
1000
0000
,
0110
0000
0001
0010
1000
0000
1000
0010
,
0001
0000
0001
0100
1000
0100
0001
0000
,
0110
0000
1000
0010
0100
0000
0001
0010
,
0100
0100
1000
1000
0001
0100
0010
0010
,
0220
0330
2020
3030
0022
0033
2200
3300
,
0202
0303
2020
3030
0022
0033
0220
0330
,
1001
0000
0100
1000
0010
1000
0001
0000
,
0010
0001
0010
0001
1000
0010
1000
0000
,
0001
0100
0010
1000
1000
0010
0100
0001
,
0001
0010
0100
0100
0010
0010
1001
0000
,
0010
1000
0010
1000
0000
0000
0001
0010
0001
0010
0000
0000
,
0100
0000
1000
0000
0010
0000
0100
0000
0000
0000
0000
0000
0010
0000
0100
0000
0001
0000
0010
0000
0000
0001
0000
0000
,
1000
0000
0010
0000
0100
0000
0001
0000
0000
0000
0000
0000
0100
0000
0000
0010
0000
0000
1000
0000
0000
0001
0000
0000
,
1000
0000
0001
0010
0100
1000
0010
0000
,
0110
0000
0010
1000
0010
0000
0100
0001
,
0100
0000
0001
1000
0001
0010
0100
0100
,
0000
0000
1000
0100
0010
0000
0001
0100
,
0010
0000
1000
0010
0100
0001
0100
0100
,
0110
0000
0010
1000
0100
0000
0010
0001
,
1000
1000
0010
0010
0100
0100
0001
0001
,
2200
3300
0202
0303
2020
3030
0022
0033
,
0220
0330
2002
3003
2200
3300
0022
0033
,
1001
0000
0001
0100
1000
0000
1000
0100
,
0001
0000
0001
0010
0100
1000
0010
0000
,
1001
0000
1000
0010
0001
0000
0001
0010
,
1000
0000
1000
0100
0010
0001
0100
0000
,
0110
0000
0100
0001
0010
0000
1000
0010
,
0001
0001
1000
1000
0010
0010
0100
0100
,
2002
3003
0220
0330
2020
3030
0202
0303
,
0022
0033
2200
3300
0202
0303
2020
3030
,
1001
0000
0000
0000
;

//---------------dance-single - ----------------
#NOTES:
     dance-single:
     :
     Hard:
     14:
     0.602091,0.660673,0.593955,0.276636,0.532932,518.000000,445.000000,73.000000,34.000000,0.000000,0.000000,0.602091,0.660673,0.593955,0.276636,0.532932,518.000000,445.000000,73.000000,34.000000,0.000000,0.000000:
0000
0000
0000
0000
,
0000
0000
0000
0000
,
0000
0000
0000
0000
,
0000
0000
0000
0000
,
0000
0000
0000
0000
,
0000
0000
0000
0000
,
0000
0000
0000
0000
,
0000
0000
0000
0000
,
0001
0000
1000
0000
0001
0000
1000
0000
0010
0000
0000
0100
0000
0000
0001
0000
,
0010
0100
0000
1000
0000
1000
0000
0001
0000
0000
0001
0000
0100
0000
0010
0000
,
1000
0000
1000
0000
0001
0000
0010
0000
0100
1000
0000
0010
0000
0010
0100
0000
,
0001
0100
0000
0010
0000
0010
0000
1000
0000
0000
0001
0000
1001
0000
0000
0000
,
1020
1000
0130
0000
2001
0100
3010
0000
,
0012
0000
0100
0000
1000
0000
1000
0003
2001
0000
0010
0000
3100
0000
0000
0000
,
1020
0100
0031
0000
0021
0100
1030
0000
,
0201
0000
0010
0000
1000
0000
1000
0300
2010
0000
0100
0000
0001
0000
3100
0000
,
0110
0000
0000
0000
1000
0010
0100
0001
0010
0000
0000
0000
0100
0010
0001
1000
,
0010
0000
1000
0001
0100
0010
1000
0000
0100
0000
0000
0000
0010
0001
0010
0001
,
0100
0000
0010
0000
1000
0001
0010
0000
1100
0000
0000
0000
0100
1000
0010
1000
,
0001
0000
0000
0000
0000
0000
0010
0000
0000
0000
0000
0000
1000
0000
0000
0010
0000
0000
0001
0000
0000
0000
0000
0000
0011
0000
0000
0000
0000
0000
1000
0000
0000
0000
0000
0000
0110
0000
0000
0000
1000
0000
0000
0000
0100
0000
0000
0000
,
0010
0000
0000
0001
0000
0000
1000
0000
0010
0000
0100
0000
0101
0000
0000
0000
0000
0000
0010
0000
0100
0000
0001
0000
,
1000
0000
0000
0100
0000
0000
1000
0000
0010
0000
0100
0000
0101
0000
0000
0000
0000
0000
1001
0000
1000
0000
0100
0000
,
0010
0000
0000
0001
0000
0000
0010
0000
0100
0000
1000
0000
1001
0000
0000
0000
0000
0000
0110
0000
0000
0010
0000
0000
,
1000
0000
1000
0000
0010
0000
0010
0000
0100
0000
0100
0001
0010
0100
1000
0000
,
1001
0000
0000
0000
0001
0100
1000
0100
0001
0000
0010
0000
0100
0010
0001
1000
,
0010
0000
0100
0000
0001
1000
0100
0010
0001
0000
0100
0000
1010
0000
0101
0000
,
1100
0000
0000
0000
1000
0100
0001
0100
1000
0000
0010
0000
0100
0001
0010
0100
,
1000
0000
0001
0000
1000
0010
0001
0010
1000
0000
0100
0000
0011
0000
1100
0000
,
0101
0000
0000
0000
0010
0100
0001
0010
1000
0000
0010
0000
0001
1000
0010
0100
,
0001
0000
0100
0000
0010
1000
0001
0000
0010
0100
1000
0000
1001
0000
0100
0000
,
2020
3030
0202
0303
2200
3300
0022
0033
,
1001
0100
0011
1000
0110
0001
0110
1000
,
1100
0000
1000
0000
0001
0000
0100
0010
1000
0000
0001
0000
0001
0000
0000
0000
,
0100
0001
0100
0001
0010
0001
0010
0001
1000
0010
0100
0000
0010
0000
0000
0000
,
1000
0000
0001
0100
0010
0100
0010
1000
0100
0010
0001
1000
0010
0000
1000
0010
,
0100
0001
0100
0001
0010
0100
0010
0100
1000
0001
1000
0001
0100
0000
0000
0000
,
1010
1000
0001
0100
0000
0000
0011
0100
1000
0010
1000
0010
,
0101
0001
1000
0100
0000
0000
0110
0100
0010
1000
0010
0100
,
1001
0000
0000
0000
0001
0000
0000
0000
0100
0000
0000
0000
0010
0000
0000
0000
0000
0000
0000
0000
0000
0000
0000
0000
1001
0000
0000
0000
0000
0000
0000
0000
0000
0001
0000
0000
0000
0000
0000
1000
0000
0000
0010
0000
0000
1000
0000
0000
,
0010
0000
0000
0100
0000
0001
0010
0100
1000
0000
1000
0100
0001
0000
0000
0000
,
1001
0000
0000
0000
0001
1000
0001
1000
0010
0000
0100
0000
0001
0010
0001
0010
,
1000
0000
0010
0000
0001
0100
0001
0100
1000
0000
0100
0000
1001
0000
0220
0000
,
0330
0000
0000
0000
1000
0010
0001
0010
1000
0000
0010
0000
1000
0100
0001
0100
,
1000
0000
0010
0000
0100
0001
0010
0100
1000
0000
0001
0000
0101
0000
1010
0000
,
1001
0000
0000
0000
0010
1000
0100
0010
0001
0000
1000
0000
0001
0100
0010
1000
,
0001
0000
0010
0000
0100
1000
0010
0000
0100
0001
0010
0000
1010
0000
0100
0000
,
2002
3003
0220
0330
2200
3300
0022
0033
,
1001
0100
1001
0010
1100
0010
0101
0010
,
1001
0000
0000
0000
1000
0010
0100
0001
0010
0000
0100
0000
0010
0001
1000
0010
,
0001
0000
0010
0000
0100
0001
0010
0100
1000
0000
0001
0000
1100
0000
0101
0000
,
0110
0000
0000
0000
0001
1000
0100
0010
0001
0000
0100
0000
0010
0100
1000
0100
,
0001
0000
1000
0000
0100
0010
0001
1000
0010
0000
0100
0000
0101
0000
1010
0000
,
1001
0000
0000
0000
0001
1000
0100
0001
0100
0000
1000
0000
0010
0100
0001
0100
,
0010
0000
1000
0000
0001
0010
0100
0000
1000
0100
0001
0000
1100
0000
1000
0000
,
0202
0303
0220
0330
2020
3030
0202
0303
,
1100
1000
0101
0001
1010
1000
0011
0100
,
0110
0000
0000
0000
;
