#TITLE:Word Up;
#SUBTITLE:;
#ARTIST:Little Mix;
#TITLETRANSLIT:;
#SUBTITLETRANSLIT:;
#ARTISTTRANSLIT:;
#GENRE:;
#CREDIT:;
#BANNER:Word Up.png;
#BACKGROUND:Word Up-bg.png;
#LYRICSPATH:;
#CDTITLE:;
#MUSIC:Word Up.ogg;
#OFFSET:1.716000;
#SAMPLESTART:40.444000;
#SAMPLELENGTH:15.000000;
#LASTBEATHINT:1.408133;
#SELECTABLE:YES;
#BPMS:0.000000=118.000000
;
#STOPS:
;
#BGCHANGES:;
#KEYSOUNDS:;
#ATTACKS:;

//---------------dance-single - ----------------
#NOTES:
     dance-single:
     :
     Beginner:
     2:
     0.107319,0.146015,0.031742,0.063485,0.000000,71.000000,68.000000,3.000000,6.000000,0.000000,0.000000,0.107319,0.146015,0.031742,0.063485,0.000000,71.000000,68.000000,3.000000,6.000000,0.000000,0.000000:
0000
0000
0000
0000
,
0000
0000
0000
0000
,
0000
0000
0000
0000
,
0000
0000
0000
0000
,
0000
0000
0000
0000
,
1000
0000
0000
0000
,
0001
0000
0000
0000
,
0010
0000
0100
0000
,
0010
0000
0000
0000
,
0001
0000
0000
0000
,
1000
0000
0000
0000
,
0100
0000
0010
0000
,
0100
0000
0000
0000
,
0010
0000
0010
0000
,
0001
0000
0001
0000
,
0010
0000
0010
0000
,
1000
0000
1000
0000
,
0100
0000
0100
0000
,
0100
0000
0000
0000
,
0010
0000
0010
0000
,
0010
0000
0000
0000
,
2002
0000
3003
0000
,
1000
0000
0000
0000
,
0001
0000
0010
0000
,
0001
0000
0100
0000
,
2002
0000
3003
0000
,
0001
0000
0000
0000
,
1000
0000
0010
0000
,
0100
0000
0010
0000
,
1000
1000
0000
0000
,
0001
0000
0100
0000
,
0010
0000
1000
0000
,
0001
0000
0000
0000
,
0010
0000
0100
0000
,
0010
0000
0000
0000
,
0100
0000
0010
0000
,
0100
0000
0000
0000
,
1000
1000
1000
0000
,
0100
0000
0000
0000
,
0001
0001
0001
0000
,
0010
0000
0100
0000
,
0010
0000
0010
0000
,
0010
0010
0010
0000
,
1000
0000
0100
0000
,
0001
0000
1000
0000
,
2002
0000
0000
0000
,
3003
0000
0000
0000
;

//---------------dance-single - ----------------
#NOTES:
     dance-single:
     :
     Easy:
     4:
     0.193477,0.243358,0.116389,0.084646,0.000000,128.000000,117.000000,11.000000,8.000000,0.000000,0.000000,0.193477,0.243358,0.116389,0.084646,0.000000,128.000000,117.000000,11.000000,8.000000,0.000000,0.000000:
0000
0000
0000
0000
,
0000
0000
0000
0000
,
0000
0000
0000
0000
,
0000
0000
0000
0000
,
0000
0000
0000
0000
,
0010
0010
0000
0000
,
1000
1000
0000
0000
,
0001
0000
0010
0000
,
0001
0001
1000
1000
,
0100
0100
0000
0000
,
1000
1000
0000
0000
,
0001
0000
1000
0000
,
0010
0000
1000
0000
,
0020
1000
1030
0000
,
0020
0001
0031
0000
,
1000
0100
0010
0001
,
0010
0100
1000
0000
,
0110
0000
1001
0000
,
0010
0010
0100
0100
,
0001
0000
1000
0000
,
0010
0010
0010
0010
,
2001
0000
3010
0000
,
0120
0000
1030
0000
,
0001
0001
1000
1000
,
0100
0100
0100
0100
,
0210
0000
0301
0000
,
1002
0000
0103
0000
,
0010
0010
0100
0100
,
1001
0100
1001
0000
,
1000
1000
1000
0000
,
0001
0001
0001
0000
,
1000
1000
0001
0001
,
0100
0001
1000
0010
,
0100
0000
0100
0000
,
0010
0000
0010
0000
,
1000
0010
1000
1000
,
0001
0100
0001
0000
,
0010
0010
0010
0010
,
0001
0000
0100
0000
,
0100
0100
0100
0100
,
0010
0000
1000
0000
,
1001
0000
0100
0000
,
0100
0100
1001
0000
,
0010
0010
0010
0010
,
1000
1000
0001
0100
,
2002
0000
0000
0000
,
3003
0000
0000
0000
;

//---------------dance-single - ----------------
#NOTES:
     dance-single:
     :
     Medium:
     8:
     0.324981,0.389373,0.148131,0.116389,0.000000,215.000000,201.000000,14.000000,11.000000,0.000000,0.000000,0.324981,0.389373,0.148131,0.116389,0.000000,215.000000,201.000000,14.000000,11.000000,0.000000,0.000000:
0000
0000
0000
0000
,
0000
0000
0000
0000
,
0000
0000
0000
0000
,
0000
0000
0000
0000
,
0000
0000
0000
0000
,
0100
1000
0100
0000
0010
0000
0001
0000
,
1000
0010
1000
0100
,
0010
0001
0010
0000
0100
0010
0100
0000
,
1000
0001
1001
0000
,
0001
0002
0000
0000
1003
2000
0000
0000
,
3010
0000
0010
0000
1000
0001
0100
0000
,
0001
0010
0100
1001
,
0100
0010
0100
0100
0020
0000
0030
0000
,
1000
0001
1000
0100
0010
0000
0000
0000
,
0001
1000
0001
0010
0100
0000
0000
0000
,
0010
0010
0001
1000
,
0100
0100
0100
0100
0100
0000
1000
0001
,
0100
0000
0000
0001
1000
0100
0000
0000
,
1000
0001
1000
0001
0100
0000
0100
0000
,
0010
0010
1000
0001
,
0010
0001
0100
1000
0100
0000
0001
1000
,
2001
0100
0001
3100
,
0010
1000
0100
0002
0000
0000
0103
0000
,
1000
1000
1000
0000
0001
0001
0001
0000
,
1000
0100
0010
0001
1001
0000
0010
0020
,
0100
0100
0001
0130
,
0200
1000
0001
1300
,
0010
1000
0010
0000
1000
0100
0001
0000
,
0100
1000
0010
0100
0001
0000
0010
0000
,
1001
1001
1001
0000
0100
0000
0000
0000
,
0010
0010
0010
0000
1001
0000
0000
0000
,
1000
0100
0001
0000
0010
0001
0100
0000
,
0010
0010
0010
0010
0010
0000
0110
0000
,
1000
1000
0001
0100
,
0001
0100
1000
0000
0100
0001
0010
0000
,
0100
0100
1000
1000
,
0001
1000
0001
1000
0010
0100
0100
0000
,
2001
0000
0010
0010
0010
0000
0000
0000
,
3002
0000
0100
0100
0100
0000
0003
0000
,
1000
0100
0000
0000
0001
0100
0000
0000
,
1000
0010
0100
0001
0010
0000
0100
0100
,
1001
0000
0000
0100
0100
1001
0000
0000
,
0010
1000
0100
0000
0010
0001
0100
0000
,
0010
0010
0100
0100
,
0001
1000
0001
1000
1001
0000
0100
0220
,
0000
0000
0000
0000
,
0330
0000
0000
0000
;

//---------------dance-single - ----------------
#NOTES:
     dance-single:
     :
     Hard:
     11:
     0.417185,0.462380,0.264519,0.137550,0.000000,276.000000,251.000000,25.000000,13.000000,0.000000,0.000000,0.417185,0.462380,0.264519,0.137550,0.000000,276.000000,251.000000,25.000000,13.000000,0.000000,0.000000:
// measure 0
0000
0000
0000
0000
,  // measure 1
0000
0000
0000
0000
,  // measure 2
0000
0000
0000
0000
,  // measure 3
0000
0000
0000
0000
,  // measure 4
0000
0000
0000
0000
,  // measure 5
1001
0000
0010
1000
0001
0100
0000
0001
,  // measure 6
0001
0000
1000
1000
0000
0000
0100
0010
,  // measure 7
0001
0100
1000
0100
1000
0100
0001
0010
,  // measure 8
0100
1000
0010
0001
0010
0000
1000
0100
,  // measure 9
1000
1000
0000
1000
0001
0001
0100
0010
,  // measure 10
1000
0000
0001
0010
0000
0100
1000
0001
,  // measure 11
0010
0100
0010
0100
0001
0100
1000
0100
,  // measure 12
0010
0001
0100
0010
1000
0000
0001
0100
,  // measure 13
0020
0000
1030
0100
0020
0000
0031
0000
,  // measure 14
1000
0010
0100
0001
0020
0000
0130
0000
,  // measure 15
0010
0001
0010
0001
1000
0010
0100
0001
,  // measure 16
1000
0100
0010
0001
1000
0000
1000
0100
,  // measure 17
0001
0000
0000
1000
0100
0001
0000
0000
,  // measure 18
1000
0100
0001
0100
1000
0000
0001
0000
,  // measure 19
1000
1000
0010
0010
0100
0100
0001
0001
,  // measure 20
0010
0000
0100
0011
0000
0100
1010
1000
,  // measure 21
0210
0000
0000
0020
0000
0330
0001
0100
,  // measure 22
1000
0000
0100
0002
0000
0000
1003
0000
,  // measure 23
0001
0010
0001
0010
0100
1000
0100
1000
,  // measure 24
0010
0100
0001
1000
1001
0000
1010
0001
,  // measure 25
2100
0000
0000
3020
0000
0000
0100
0100
,  // measure 26
0032
0000
0000
2000
0000
0000
3003
1000
,  // measure 27
0100
1000
0100
0010
0100
1000
0000
0010
,  // measure 28
0100
0010
0100
0001
0010
0000
0001
0010
,  // measure 29
0110
0110
1100
1000
0101
0000
0000
0001
,  // measure 30
1100
0000
1000
0011
0000
0000
1000
0001
,  // measure 31
0100
0010
0010
0010
1000
0100
0010
0001
,  // measure 32
0100
0100
0100
0100
0010
0000
1000
0010
,  // measure 33
0100
0010
1000
0001
0010
0000
0100
1000
,  // measure 34
0100
0010
1001
0101
,  // measure 35
1000
0010
0100
0010
1000
0000
0001
0100
,  // measure 36
1000
0100
0010
0100
0001
0000
1000
0100
,  // measure 37
0020
0001
0001
0001
1000
1000
0130
0000
,  // measure 38
1100
0000
0010
0101
0000
0000
0100
0010
,  // measure 39
1000
0010
1000
0001
0010
0100
0010
0001
,  // measure 40
0100
0100
0100
0100
0010
0000
1000
0100
,  // measure 41
1010
0000
0000
1000
1100
1010
0000
0000
,  // measure 42
1000
0100
1000
0010
1010
0000
0100
0000
,  // measure 43
0001
0001
0010
0010
0100
0100
1000
1000
,  // measure 44
1001
0000
0010
1100
0000
1000
0101
0010
,  // measure 45
2002
0000
0000
0000
,  // measure 46
3003
0000
0000
0000
;
