#VERSION:0.83;
#TITLE:VICTORY!!!;
#SUBTITLE:;
#ARTIST:小坂りゆ;
#TITLETRANSLIT:;
#SUBTITLETRANSLIT:;
#ARTISTTRANSLIT:Riyu Kosaka;
#GENRE:;
#ORIGIN:;
#TAGS:;
#CREDIT:;
#BANNER:VICTORY!!!.png;
#BACKGROUND:VICTORY!!!-bg.png;
#PREVIEWVID:;
#JACKET:VICTORY!!!-jacket.png;
#CDIMAGE:;
#DISCIMAGE:;
#LYRICSPATH:;
#CDTITLE:;
#MUSIC:VICTORY!!!.ogg;
#OFFSET:0.000000;
#SAMPLESTART:55.174999;
#SAMPLELENGTH:15.000000;
#SELECTABLE:YES;
#BPMS:0.000000=200.000000
;
#STOPS:;
#DELAYS:;
#WARPS:;
#TIMESIGNATURES:0.000000=4=4
;
#TICKCOUNTS:0.000000=4
;
#COMBOS:0.000000=1
;
#SPEEDS:0.000000=1.000000=0.000000=0
;
#SCROLLS:0.000000=1.000000
;
#LABELS:0.000000=Song Start
;
#BGCHANGES:;
#KEYSOUNDS:;
#ATTACKS:
;

//---------------dance-single - ----------------
#NOTEDATA:;
#CHARTNAME:;
#CHARTHASH:2147483647;
#STEPSTYPE:dance-single;
#BANNER:;
#DESCRIPTION:;
#CHARTSTYLE:;
#DIFFICULTY:Beginner;
#METER:6;
#METERF:0.000000;
#LASTSECONDHINT:113.400002;
#RADARVALUES:0.253538,0.368156,0.225093,0.000000,0.000000,205.000000,179.000000,26.000000,0.000000,0.000000,0.000000,0.000000,0.000000,0.000000,0.253538,0.368156,0.225093,0.000000,0.000000,205.000000,179.000000,26.000000,0.000000,0.000000,0.000000,0.000000,0.000000,0.000000;
#CREDIT:;
#NOTES:
0000
0000
0000
0000
,
0000
0000
0000
0000
,
0000
0000
0000
0000
,
0000
0000
0000
0000
,
0000
0000
0000
0000
,
0000
0000
0000
0000
,
0000
0000
0000
0000
,
0000
0000
0000
0000
,
0000
0000
0000
0000
,
0100
0000
0100
0000
,
0100
0000
0100
0000
,
0010
0000
0010
0000
,
0010
0000
0100
0000
,
1001
0000
0100
0000
,
0001
0001
0001
0000
,
1000
0000
0010
0000
,
0001
0000
0100
0000
,
0010
0000
0010
0000
,
0100
0000
0100
0000
,
0001
0000
0010
0000
,
0100
0000
1000
0000
,
0000
0000
0001
0000
,
0001
0000
0100
0000
,
0000
0000
1000
0000
,
1000
0000
0100
0000
,
0000
0000
0010
0000
,
0010
0000
0001
0000
,
1000
0000
0001
0000
,
1000
0000
1000
0000
,
0000
0000
0010
0000
,
0100
0100
0100
0100
,
0000
0000
0100
0000
,
0010
0010
0010
0010
,
0000
0000
1000
0000
,
0001
0001
0001
0001
,
0001
0000
0010
0000
,
1000
0000
0010
0000
,
0001
0000
0100
0000
,
0001
0000
0000
0000
,
1000
0000
0100
0000
,
1000
0000
0000
0000
,
0010
0000
1000
0000
,
0001
0000
0100
0000
,
0001
0000
0010
0000
,
0100
0000
1000
0000
,
0010
0010
0010
0000
,
0110
0000
1001
0000
,
1000
1000
1000
0000
,
0001
0001
0001
0000
,
0100
0100
0100
0000
,
0010
0000
0010
0000
,
0100
0000
0100
0000
,
0001
0000
0100
0000
,
0010
0000
1000
0000
,
0110
0000
0001
0000
,
0010
0010
0010
0000
,
0100
0100
0100
0000
,
1000
1000
1000
0000
,
0001
0000
1000
0000
,
0010
0000
0100
0000
,
0010
0000
1000
0000
,
0100
0000
0010
0000
,
0110
0000
0110
0000
,
0010
0000
0000
0000
,
0110
0000
0110
0000
,
0100
0000
0000
0000
,
1001
0000
1001
0000
,
1000
0000
0000
0000
,
1001
0000
1001
0000
,
0001
0000
0000
0000
,
1001
0000
0110
0000
,
0110
0000
1001
0000
,
0001
0000
0010
0000
,
0100
0000
1000
0000
,
0010
0000
0100
0000
,
0110
0000
0000
0000
,
1000
0000
0001
0000
,
1001
0000
0110
0000
,
1000
1000
1000
0000
,
0001
0001
0001
0000
,
0010
0010
0010
0000
,
0100
0000
0010
0000
,
0001
0000
0010
0000
,
0100
0000
1000
0000
,
0001
0000
1000
0000
,
1001
0000
0110
0000
,
1000
1000
1000
0000
,
0001
0001
0001
0000
,
0010
0010
0010
0000
,
0010
0000
0110
0000
,
0100
0000
1001
0000
,
1000
0000
0110
0000
,
0001
0000
1001
0000
,
1000
0000
0001
0000
,
1000
0000
1001
0000
;

//---------------dance-single - ----------------
#NOTEDATA:;
#CHARTNAME:;
#CHARTHASH:618233218;
#STEPSTYPE:dance-single;
#BANNER:;
#DESCRIPTION:;
#CHARTSTYLE:;
#DIFFICULTY:Easy;
#METER:9;
#METERF:0.000000;
#LASTSECONDHINT:113.400002;
#RADARVALUES:0.444001,0.654500,0.545417,0.000000,0.000000,359.000000,296.000000,63.000000,0.000000,0.000000,0.000000,0.000000,0.000000,0.000000,0.444001,0.654500,0.545417,0.000000,0.000000,359.000000,296.000000,63.000000,0.000000,0.000000,0.000000,0.000000,0.000000,0.000000;
#CREDIT:;
#NOTES:
0000
0000
0000
0000
,
0000
0000
0000
0000
,
0000
0000
0000
0000
,
0000
0000
0000
0000
,
0000
0000
0000
0000
,
0000
0000
0000
0000
,
0000
0000
0000
0000
,
0000
0000
0000
0000
,
0000
0000
0000
0000
,
0100
0100
0100
0100
,
0010
0010
0010
0010
,
1000
1000
0001
0001
,
1000
0010
0100
0001
,
1001
0000
0110
0000
,
1001
0110
1001
0000
,
0010
0010
0100
0100
,
0001
1000
0100
0010
,
0011
0000
1100
0000
,
0011
0001
1100
1000
,
0010
1000
0001
0100
,
0001
0010
0100
1000
,
0000
1000
0100
0010
,
0001
0100
0001
0100
,
0000
0001
1000
0100
,
0010
0001
0010
0001
,
0000
0010
0001
1000
,
0010
1000
0010
0100
,
0001
0001
1000
1000
,
0010
0100
0110
0110
,
0000
0100
0010
1000
,
0001
1000
0001
1000
,
0000
0010
0100
1000
,
0001
0010
0001
0010
,
0000
0001
1000
0010
,
0100
0100
0001
0001
,
1000
1000
0001
0001
,
0010
0100
0100
0010
,
0011
0000
0101
0000
,
1001
0000
0000
0100
,
1000
1000
0001
0001
,
0100
0010
1000
0001
,
1100
0000
1010
0000
,
1001
0000
0000
1000
,
0001
0001
0010
0010
,
0100
0100
1000
1000
,
0001
1000
0001
0000
,
1001
0000
0110
0000
,
1001
0110
1001
0000
,
1000
1000
0001
0001
,
1000
0010
0100
0001
,
1010
0000
0101
0000
,
1010
0010
0101
0100
,
0000
0001
0010
0001
,
1000
1000
0001
0000
,
1100
1000
1010
0000
,
0011
0001
0101
0000
,
0100
0100
0010
0010
,
1000
0010
0100
0001
,
1001
0000
0110
0010
,
1100
0010
0011
0100
,
0000
1000
0001
0001
,
1000
0010
0100
0001
,
1000
0000
0000
1000
0000
0000
1000
0000
,
0010
0010
0100
0100
,
0001
0000
0000
0001
0000
0000
0001
0000
,
0010
0010
0100
0100
,
1000
0000
0000
0001
0000
0000
1000
0000
,
0010
0100
0010
0100
,
0001
0000
0000
1000
0000
0000
0001
0000
,
0100
0010
0100
0010
,
0110
0000
0000
0110
0000
0000
0110
0000
,
0010
1000
0001
0100
,
0001
0001
1000
1000
,
0100
0010
0100
0010
,
0001
0010
0000
0000
0001
1000
0000
0000
,
1000
0001
0000
0000
1000
0010
0000
0000
,
0100
0100
0100
0100
,
0110
0000
1001
0000
,
0110
1001
0110
0000
,
0100
0010
1000
0001
,
0100
0010
1000
0001
,
1100
0000
0011
0000
,
1010
0100
0011
0100
,
0000
0010
0001
1000
,
0010
0100
0001
1000
,
0011
1100
0011
0000
,
1100
0011
1100
0000
,
1010
0101
1010
0001
,
1010
0101
1010
0001
,
1001
0000
0110
0000
,
0110
0010
1001
1000
,
0000
0001
1000
0100
,
0010
0001
0010
0100
,
1000
0001
0000
0000
0001
1000
0000
0000
,
0010
0100
0110
0000
;

//---------------dance-single - ----------------
#NOTEDATA:;
#CHARTNAME:;
#CHARTHASH:695297273;
#STEPSTYPE:dance-single;
#BANNER:;
#DESCRIPTION:;
#CHARTSTYLE:;
#DIFFICULTY:Medium;
#METER:12;
#METERF:0.000000;
#LASTSECONDHINT:113.400002;
#RADARVALUES:0.656726,0.695406,0.657963,0.000000,0.000000,531.000000,455.000000,76.000000,0.000000,0.000000,0.000000,0.000000,0.000000,0.000000,0.656726,0.695406,0.657963,0.000000,0.000000,531.000000,455.000000,76.000000,0.000000,0.000000,0.000000,0.000000,0.000000,0.000000;
#CREDIT:;
#NOTES:
0000
0000
0000
0000
,
0000
0000
0000
0000
,
0000
0000
0000
0000
,
0000
0000
0000
0000
,
0000
0000
0000
0000
,
0000
0000
0000
0000
,
0000
0000
0000
0000
,
0000
0000
0000
0000
,
0000
0000
0000
0000
,
0001
0100
0001
0000
0100
0010
0100
0000
,
0010
1000
0010
0000
1000
0100
1000
0000
,
0001
0000
1000
0100
0000
0001
0100
0000
,
1000
0000
0001
0010
0000
1000
0010
0000
,
0110
0000
1000
0000
0101
0000
0100
0010
,
0110
0000
1100
0000
0011
0000
0100
0010
,
1000
0000
0001
0000
1000
0100
0001
0100
,
1000
0000
1000
0000
0010
0000
0100
0001
,
0010
0000
0100
0001
0010
0000
0010
1000
,
0100
0000
0010
1000
0100
0000
1000
0010
,
0100
0000
0100
0000
0001
0100
0010
0000
,
1000
0010
0100
0001
0010
0100
1000
0000
,
0001
0011
1001
0110
,
0100
0010
0100
0000
0010
0001
0010
0000
,
0001
1001
1010
0110
,
0010
1000
0010
0000
1000
0100
1000
0000
,
0100
1010
1100
0101
,
0010
0100
0001
0000
0001
0100
0010
0000
,
1000
0010
1000
0000
0001
0010
0001
0000
,
0010
0100
0010
0100
0010
0000
1001
0000
,
0110
1000
0101
1100
,
0100
1000
0001
0000
0001
0100
1000
0000
,
0110
0001
1010
0011
,
0010
0001
1000
0000
0001
0010
1000
0000
,
0110
0010
1100
0011
,
0100
1000
0010
0000
0001
0010
1000
0000
,
0001
0010
0001
0000
1000
0100
1000
0000
,
0001
0100
0001
0100
0010
0100
0010
0000
,
1000
0000
0000
0100
0100
0000
0010
0000
,
0110
0000
0110
0000
1001
0000
0001
1000
,
0100
0000
0100
0000
0010
0000
0001
1000
,
0001
0100
0010
1000
0100
0010
0001
0000
,
0010
0000
0000
0100
0100
0000
1000
0000
,
0001
1001
1001
0010
,
1000
0010
1000
0000
0001
0100
0001
0000
,
0100
0010
1000
0010
0100
0001
0010
0100
,
1000
0100
0010
0001
1000
0000
0001
0000
,
1001
0000
1000
0010
1001
0000
0100
0000
,
0011
1100
0011
0100
,
0010
0001
0010
0000
0100
1000
0100
1000
,
0010
0000
1000
0001
0100
0000
0010
0000
,
1010
0000
1000
0010
0100
0000
0001
0100
,
1000
0000
1000
0100
0001
0000
0010
0000
,
0100
0000
0010
0001
0010
0001
0100
0000
,
0001
0100
1000
0100
0001
0000
0100
0000
,
1010
0101
1100
0010
,
1100
0011
1010
0100
,
0010
1000
0010
0000
0001
0010
1000
0010
,
0001
0010
0110
1001
,
0100
0000
1000
0010
0100
0000
0001
0010
,
1000
0000
1000
0010
0001
0000
0100
0010
,
1000
0000
0010
0000
1000
0001
1000
0000
,
0001
0010
0100
1000
0100
0010
0001
0000
,
0011
0000
0000
0011
0000
0000
0011
0000
,
0100
1000
0100
1000
0100
1000
0100
0000
,
1010
0000
0000
1010
0000
0000
1010
0000
,
0100
0001
0100
0001
0100
0001
0100
0000
,
1001
0000
0000
0110
0000
0000
1001
0000
,
0010
1000
0100
1000
0010
1000
0100
0000
,
0110
0000
0000
1001
0000
0000
0110
0000
,
0100
0001
0010
0001
0100
0001
0010
0000
,
0011
0000
0000
1100
0000
0000
0011
0000
,
0100
1000
0010
1000
0001
1000
0100
0000
,
1010
0000
0100
0001
0000
1000
0010
0000
,
1000
0001
0000
0010
0100
1000
0001
0000
,
1000
1000
0000
0000
0001
0001
0000
0000
,
0100
0100
0000
0000
0010
0000
0000
0000
,
0100
0010
0100
0010
0100
0010
0100
0000
,
0110
0000
0100
0000
0011
0000
0001
0010
,
1100
0101
1010
0000
,
0010
1000
0010
0000
0100
0001
0010
0001
,
1000
0000
0010
0000
1000
0010
0100
0000
,
1001
0000
0001
0010
1000
0000
1000
0010
,
0001
0000
0001
0010
1000
0000
0010
0000
,
0001
0100
0010
0010
,
1000
0010
0100
0000
0001
0100
0010
0000
,
1100
0000
0101
0000
1100
0000
0001
1000
,
1010
0011
1010
0000
,
0001
0100
0001
0000
1000
0100
0010
0001
,
1000
0000
0001
0000
0010
0100
0010
0000
,
1001
0000
1000
0100
0001
0000
0001
0100
,
1000
0000
1000
0100
0001
0000
0100
0000
,
1000
0000
0010
0000
0100
0100
0001
0000
,
1010
0101
0011
1100
,
0001
0010
0001
0000
1000
0010
1000
0000
,
0010
0100
0010
0100
0010
0000
0000
0000
;

//---------------dance-single - ----------------
#NOTEDATA:;
#CHARTNAME:;
#CHARTHASH:1067853371;
#STEPSTYPE:dance-single;
#BANNER:;
#DESCRIPTION:;
#CHARTSTYLE:;
#DIFFICULTY:Hard;
#METER:14;
#METERF:0.000000;
#LASTSECONDHINT:113.400002;
#RADARVALUES:0.753195,0.736313,0.554074,0.000000,0.000000,609.000000,545.000000,64.000000,0.000000,0.000000,0.000000,0.000000,0.000000,0.000000,0.753195,0.736313,0.554074,0.000000,0.000000,609.000000,545.000000,64.000000,0.000000,0.000000,0.000000,0.000000,0.000000,0.000000;
#CREDIT:;
#NOTES:
// measure 0
0000
0000
0000
0000
,  // measure 1
0000
0000
0000
0000
,  // measure 2
0000
0000
0000
0000
,  // measure 3
0000
0000
0000
0000
,  // measure 4
0000
0000
0000
0000
,  // measure 5
0000
0000
0000
0000
,  // measure 6
0000
0000
0000
0000
,  // measure 7
0000
0000
0000
0000
,  // measure 8
0000
0000
0000
0000
,  // measure 9
1000
0100
1000
0100
0010
0001
0010
0001
,  // measure 10
1000
0010
0100
0001
0100
0010
1000
0001
,  // measure 11
0010
0100
0010
0010
0100
0010
0010
0001
,  // measure 12
0100
0100
0010
1000
1000
0001
1000
0000
,  // measure 13
1010
0000
0100
0001
0011
0000
0100
1000
,  // measure 14
1001
0000
0110
0000
1001
0000
0010
0010
,  // measure 15
0100
0001
1000
0100
0010
0001
0010
0100
,  // measure 16
1000
0001
1000
0001
0010
0100
0010
0100
,  // measure 17
1100
0000
0100
1000
0010
0000
0100
0001
,  // measure 18
0010
0000
0001
1000
0010
0000
1000
0001
,  // measure 19
0100
0000
0100
0010
1000
0010
1000
0001
,  // measure 20
0010
0100
1000
0100
0001
0100
1000
0001
,  // measure 21
0100
0000
0100
0001
1000
0001
0100
0000
,  // measure 22
0010
1000
0100
0000
1010
0000
0101
0000
,  // measure 23
1000
0000
0100
0010
0001
0010
0100
0000
,  // measure 24
1000
0010
0001
0000
1001
0000
0110
0000
,  // measure 25
0010
0000
0100
0001
0010
0100
1000
0000
,  // measure 26
0001
0100
1000
0000
0110
0000
1001
0000
,  // measure 27
0010
1000
0010
1000
0001
0010
0100
1000
,  // measure 28
0001
0100
0001
0100
0010
1000
0001
0010
,  // measure 29
0100
0000
0010
0010
0100
1000
0010
0000
,  // measure 30
1010
1000
0100
0000
1100
1000
0001
0000
,  // measure 31
1000
0000
0001
0001
0100
0010
1000
0000
,  // measure 32
0011
0001
0100
0000
0101
1000
0010
0000
,  // measure 33
1000
0000
0100
0010
0001
0001
0010
0000
,  // measure 34
1100
1000
0010
0000
0101
0001
0010
0000
,  // measure 35
0100
1000
0010
0100
0001
1000
0010
1000
,  // measure 36
0100
1000
0100
0010
0001
0010
0001
1000
,  // measure 37
0010
0000
0000
1000
1100
0000
0100
0010
,  // measure 38
0001
0000
0001
0000
0100
0000
0001
0100
,  // measure 39
0010
0000
0010
0000
1001
0000
1000
0001
,  // measure 40
0010
0000
0010
0010
0100
0000
0010
0000
,  // measure 41
1100
0000
0000
1000
1001
0000
1000
0001
,  // measure 42
0100
0000
0100
0000
0010
0000
0010
1000
,  // measure 43
0100
0000
0100
0000
0010
0001
0100
0001
,  // measure 44
0100
0100
0010
1000
1000
0010
0100
0100
,  // measure 45
0010
1000
0001
1000
0001
0000
1000
0000
,  // measure 46
1001
0000
1000
0100
0110
0000
0010
0100
,  // measure 47
1100
0000
0101
0000
1010
0000
1000
0010
,  // measure 48
0100
0001
0100
0001
0010
0001
1000
0100
,  // measure 49
0010
0001
0010
0001
1000
0010
1000
0000
,  // measure 50
1001
0000
1000
0010
0100
0000
0001
0010
,  // measure 51
0100
0000
1000
0100
0010
0001
0100
0000
,  // measure 52
0010
0000
0010
0000
0100
0010
0100
0010
,  // measure 53
1000
0010
0100
0001
0010
0100
1000
0000
,  // measure 54
1001
0000
0001
0100
0101
0000
1000
0010
,  // measure 55
0110
0010
0001
0010
1000
0000
0100
0010
,  // measure 56
0001
0100
0010
0100
0001
0010
0100
1000
,  // measure 57
0010
1000
0010
0100
0001
0000
1000
0000
,  // measure 58
0110
0000
1000
0100
0010
0000
0001
0010
,  // measure 59
0100
1000
0010
1000
0001
0000
0100
0000
,  // measure 60
0001
0000
1000
0000
0100
1000
0010
1000
,  // measure 61
0001
0100
0001
0100
0010
1000
0100
0010
,  // measure 62
0011
0000
0100
0011
0000
0100
0011
0000
,  // measure 63
0010
0001
0010
0001
0100
0010
1000
0000
,  // measure 64
1001
0000
1000
1100
0000
0100
1100
0000
,  // measure 65
0010
1000
0010
1000
0100
1000
0100
0000
,  // measure 66
1001
0000
1000
0101
0000
0010
0101
0000
,  // measure 67
0010
0100
0010
0100
0001
1000
0010
0000
,  // measure 68
1100
0000
1000
0011
0000
0001
1010
0000
,  // measure 69
1000
0010
0100
0001
0100
0010
1000
0000
,  // measure 70
1001
0000
0001
0110
0000
1000
0110
0000
,  // measure 71
0010
0100
0010
0100
1000
0100
0001
0000
,  // measure 72
1000
1000
0010
0100
0100
0001
0010
0010
,  // measure 73
0100
0010
0010
0001
1000
0001
1000
0000
,  // measure 74
0001
0001
0000
0000
1000
1000
0000
0000
,  // measure 75
0110
0110
0000
0000
1001
0000
0000
0000
,  // measure 76
0100
0100
0100
0100
0010
0010
0010
0010
,  // measure 77
0110
0000
0010
1000
0110
0000
0100
0001
,  // measure 78
0110
0000
1001
0000
0110
0000
0010
0001
,  // measure 79
1000
0010
0100
0001
0010
0001
0010
0001
,  // measure 80
1000
0001
1000
0001
0100
0000
0010
1000
,  // measure 81
0100
0000
1000
0001
0100
0000
0001
1000
,  // measure 82
0010
0000
1000
0100
0010
0000
0110
0000
,  // measure 83
1001
0000
0010
0001
0100
0010
0100
0001
,  // measure 84
0010
0100
1000
0100
0010
0001
1000
1000
,  // measure 85
0101
0000
0010
1000
0101
0000
0100
0001
,  // measure 86
0011
0000
1100
0000
0101
0000
0010
1000
,  // measure 87
0100
1000
0010
0100
0001
0010
0001
1000
,  // measure 88
0010
1000
0001
0001
0100
0000
0010
0000
,  // measure 89
0110
0000
0100
1000
0100
0000
0100
0001
,  // measure 90
0100
1000
0100
0001
0010
0000
1000
0010
,  // measure 91
0001
0000
0001
0000
1000
0010
0100
0001
,  // measure 92
0100
0010
1000
0001
1000
0001
0010
0100
,  // measure 93
1000
1000
1000
0000
0001
0001
0001
0000
,  // measure 94
0010
0010
0100
0100
1001
0000
0000
0000
;
