#TITLE:Upside Down;
#SUBTITLE:;
#ARTIST:A-Teens;
#TITLETRANSLIT:;
#SUBTITLETRANSLIT:;
#ARTISTTRANSLIT:;
#GENRE:;
#CREDIT:;
#BANNER:Upside Down.png;
#BACKGROUND:Upside Down-bg.png;
#LYRICSPATH:;
#CDTITLE:;
#MUSIC:Upside Down.ogg;
#OFFSET:0.000000;
#SAMPLESTART:45.235001;
#SAMPLELENGTH:15.000000;
#SELECTABLE:YES;
#BPMS:0.000000=122.000000
;
#STOPS:
;
#BGCHANGES:;
#KEYSOUNDS:;
#ATTACKS:;

//---------------dance-single - ----------------
#NOTES:
     dance-single:
     :
     Beginner:
     3:
     0.161461,0.218698,0.169534,0.000000,0.000000,100.000000,85.000000,15.000000,0.000000,0.000000,0.000000,0.161461,0.218698,0.169534,0.000000,0.000000,100.000000,85.000000,15.000000,0.000000,0.000000,0.000000:
// measure 0
0000
0000
0000
0000
,  // measure 1
0000
0000
0000
0000
,  // measure 2
0000
0000
0000
0000
,  // measure 3
0000
0000
0000
0000
,  // measure 4
0000
0000
0000
0000
,  // measure 5
0000
0000
0000
0000
,  // measure 6
0000
0000
0000
0000
,  // measure 7
0001
0000
1000
0000
,  // measure 8
0100
0100
0100
0000
,  // measure 9
1000
0000
0001
0000
,  // measure 10
0010
0010
0010
0000
,  // measure 11
0100
0000
0010
0000
,  // measure 12
0001
0001
0001
0000
,  // measure 13
0010
0000
0100
0000
,  // measure 14
1000
1000
1000
0000
,  // measure 15
1001
0000
0100
0000
,  // measure 16
0010
0010
0010
0010
,  // measure 17
0010
0000
1000
0000
,  // measure 18
0100
0000
0000
0000
,  // measure 19
1001
0000
0010
0000
,  // measure 20
0100
0100
0100
0100
,  // measure 21
0100
0000
0001
0000
,  // measure 22
0010
0000
0000
0000
,  // measure 23
1001
0000
0110
0000
,  // measure 24
1000
1000
1000
0000
,  // measure 25
0110
0000
1001
0000
,  // measure 26
0001
0001
0001
0000
,  // measure 27
1001
0000
0110
0000
,  // measure 28
1001
0000
0110
0000
,  // measure 29
1000
0000
0010
0000
,  // measure 30
0100
0000
0001
0000
,  // measure 31
0110
0000
1001
0000
,  // measure 32
1000
1000
1000
0000
,  // measure 33
1001
0000
0110
0000
,  // measure 34
0001
0001
0001
0000
,  // measure 35
0010
0000
0100
0000
,  // measure 36
1000
0000
0100
0000
,  // measure 37
0010
0000
0001
0000
,  // measure 38
1000
1000
1000
0000
,  // measure 39
0100
0000
1000
0000
,  // measure 40
0001
0001
0001
0000
,  // measure 41
0100
0000
0010
0000
,  // measure 42
1000
0000
0001
0000
,  // measure 43
1001
0000
0000
0000
;

//---------------dance-single - ----------------
#NOTES:
     dance-single:
     :
     Easy:
     4:
     0.224430,0.298379,0.282556,0.101720,0.000000,139.000000,114.000000,25.000000,9.000000,0.000000,0.000000,0.224430,0.298379,0.282556,0.101720,0.000000,139.000000,114.000000,25.000000,9.000000,0.000000,0.000000:
0000
0000
0000
0000
,
0000
0000
0000
0000
,
0000
0000
0000
0000
,
0000
0000
0000
0000
,
0000
0000
0000
0000
,
0000
0000
0000
0000
,
1001
1001
0110
0000
,
0110
0000
1100
0000
,
0010
0001
0100
0000
,
0011
0000
1100
0000
,
0100
1000
0001
0000
,
2001
0010
0002
0003
,
3002
0100
2000
3003
,
0010
0010
0100
0100
,
2000
0000
0002
3003
,
0110
0000
0010
1000
,
0001
0001
0001
0001
,
0010
0001
0100
0010
,
1000
0000
1001
0000
,
0110
0000
0100
0001
,
1000
1000
1000
1000
,
0010
0100
0001
1000
,
0200
0000
0020
0330
,
0110
1001
0110
0000
,
1000
1000
1000
0000
,
1001
0110
1001
0000
,
0001
0001
0001
0000
,
0010
0001
1000
0000
,
0100
1000
0001
0000
,
1000
1000
0001
0001
,
1000
0010
0100
0001
,
0011
1100
0011
0000
,
0100
0100
1000
0000
,
1010
0101
1010
0000
,
0001
0001
0100
0000
,
0001
0010
1000
0000
,
1000
0100
0001
0000
,
1000
0000
0001
0000
,
1000
0010
0100
0001
,
1001
0000
0100
0000
,
0001
0010
0100
1000
,
0110
0000
0010
0000
,
0100
1000
0010
0100
,
0002
0000
0000
0000
,
0003
0000
0000
0000
;

//---------------dance-single - ----------------
#NOTES:
     dance-single:
     :
     Medium:
     8:
     0.322921,0.372974,0.248649,0.248649,0.000000,200.000000,178.000000,22.000000,22.000000,0.000000,0.000000,0.322921,0.372974,0.248649,0.248649,0.000000,200.000000,178.000000,22.000000,22.000000,0.000000,0.000000:
0000
0000
0000
0000
,
0000
0000
0000
0000
,
0000
0000
0000
0000
,
0000
0000
0000
0000
,
0000
0000
0000
0000
,
0000
0000
0000
0000
,
1001
0110
1001
0000
,
1001
0000
0010
0000
0100
1000
0001
0000
,
1000
1000
0001
0001
,
0100
0000
0100
0000
0001
0010
0100
0000
,
0010
0010
0100
0100
,
1000
0010
1000
0000
0010
0100
0010
0000
,
0100
0001
0100
0000
0001
0010
0001
0000
,
0020
0032
2003
3200
,
0320
0000
0032
1003
,
1001
0100
0010
1000
,
0010
0100
0010
0100
0001
0100
0010
0000
,
1000
0010
0100
0001
,
1000
0100
0010
0000
0001
0010
0100
0000
,
1001
0010
0100
0001
,
0100
0010
0100
0010
1000
0010
1000
0000
,
0002
2003
3200
0320
,
0032
0000
2000
3003
,
1001
0110
1001
0000
,
0100
1000
0010
0100
0001
0000
1000
0000
,
0011
1100
1001
0000
,
1000
0010
0100
0001
0010
0000
0100
0000
,
0012
0203
0320
2030
,
3001
0010
0001
0000
1000
0100
1000
0000
,
0010
0000
0010
0000
0100
0010
0100
0010
,
1000
0001
0010
0000
0100
0000
1000
0000
,
1001
0110
1001
0100
,
0010
1000
0100
0000
0010
0001
0100
0000
,
1010
0101
1001
0100
,
1000
0001
0010
0000
0001
1000
0100
0000
,
1020
0230
0302
0023
,
0130
1000
0100
0000
1000
0001
1000
0000
,
0001
0000
0001
0000
1000
0010
1000
0010
,
0100
0001
0010
0100
,
0110
0000
0010
0000
0001
0100
0010
0100
,
0001
1000
0001
0010
,
0110
0000
0100
0000
1000
0010
0100
0001
,
0010
0000
0100
0000
1000
0000
0002
2000
,
0000
0000
0000
0000
,
3003
0000
0000
0000
;

//---------------dance-single - ----------------
#NOTES:
     dance-single:
     :
     Hard:
     10:
     0.403652,0.447569,0.271254,0.327765,0.000000,250.000000,226.000000,24.000000,29.000000,0.000000,0.000000,0.403652,0.447569,0.271254,0.327765,0.000000,250.000000,226.000000,24.000000,29.000000,0.000000,0.000000:
0000
0000
0000
0000
,
0000
0000
0000
0000
,
0000
0000
0000
0000
,
0000
0000
0000
0000
,
0000
0000
0000
0000
,
0000
0000
0000
0000
,
1001
0110
1001
0000
,
1001
1000
0100
0000
0011
0001
0100
0000
,
0010
1000
0001
0100
0010
0010
1000
0000
,
0101
0001
0010
0000
1010
1000
0100
0000
,
1000
0001
0100
0010
1000
0001
0001
0000
,
0021
0001
0031
0000
2000
0010
3010
0000
,
0002
0100
0103
0000
2000
0100
3100
0010
,
0200
2300
3020
0032
,
0023
2030
3200
0310
,
1001
0000
0010
0000
0001
1000
0001
0000
,
1000
0010
0100
0001
0100
0010
1000
0001
,
0010
0001
0010
0000
0100
1000
0100
0000
,
2000
0010
3010
1000
0002
0100
0103
0000
,
0110
0000
0010
0000
1000
0001
1000
0000
,
0001
0010
0100
1000
0100
0010
0001
0100
,
0020
2030
3200
0302
,
0023
0000
0000
2030
0002
0000
3003
0000
,
1001
0010
0001
0100
1000
0000
0100
0000
,
1000
0010
1000
0001
0100
0001
0010
0000
,
1001
0100
1000
0010
0001
0000
0100
0000
,
0001
1000
0001
0010
0100
0010
0100
0000
,
0001
0010
1000
0100
0001
0100
1000
0000
,
1010
0000
0101
0000
0011
0100
1000
0100
,
0020
0000
0001
0030
1000
0001
1000
0001
,
0100
0100
0010
0000
1000
0001
1000
0100
,
0011
0100
1000
0010
0001
0000
1000
0000
,
0100
0010
0100
0001
1000
0001
1000
0000
,
1100
0001
0010
1000
0100
0000
1000
0000
,
0010
0100
1000
0001
0100
0010
0100
0000
,
0010
0001
0010
0000
0100
1000
0100
0000
,
2000
0010
3010
1000
0002
0100
0103
0000
,
0110
0000
0010
0000
1000
0001
1000
0001
,
0020
0130
1000
0000
0200
0310
0001
0001
,
1001
0000
0100
0000
0010
1000
0001
1000
,
0002
0103
0010
0000
2000
3100
0010
0001
,
1001
0000
0010
0000
0100
0001
0010
0001
,
1100
0000
1010
0000
0011
0001
0100
0010
,
0220
0000
0000
0000
,
0330
0000
0000
0000
;
