#TITLE:UPSIDE DOWN (Hyper Euro Mix);
#SUBTITLE:;
#ARTIST:COO COO;
#TITLETRANSLIT:;
#SUBTITLETRANSLIT:;
#ARTISTTRANSLIT:;
#GENRE:;
#CREDIT:;
#BANNER:UPSIDE DOWN (Hyper Euro Mix).png;
#BACKGROUND:UPSIDE DOWN (Hyper Euro Mix)-bg.png;
#LYRICSPATH:;
#CDTITLE:;
#MUSIC:UPSIDE DOWN (Hyper Euro Mix).ogg;
#OFFSET:0.000000;
#SAMPLESTART:52.665001;
#SAMPLELENGTH:15.000000;
#SELECTABLE:YES;
#BPMS:0.000000=149.720001
;
#STOPS:
;
#BGCHANGES:;
#KEYSOUNDS:;
#ATTACKS:;

//---------------dance-single - ----------------
#NOTES:
     dance-single:
     :
     Beginner:
     4:
     0.153747,0.242724,0.045797,0.000000,0.000000,94.000000,90.000000,4.000000,0.000000,0.000000,0.000000,0.153747,0.242724,0.045797,0.000000,0.000000,94.000000,90.000000,4.000000,0.000000,0.000000,0.000000:
0000
0000
0000
0000
,
0000
0000
0000
0000
,
0000
0000
0000
0000
,
0000
0000
0000
0000
,
0000
0000
0000
0000
,
0000
0100
0000
0100
,
0000
0010
0000
0010
,
0000
1000
0000
0001
,
0001
0000
0000
0000
,
0010
0010
0000
0000
,
0010
0010
0000
0000
,
0100
0100
0000
0000
,
0100
0000
0100
0000
,
1000
1000
0000
0000
,
0001
0001
0000
0000
,
1000
0000
0001
0000
,
1000
0000
0001
0000
,
0010
0000
0000
0000
,
0100
0000
0000
0000
,
0010
0000
0100
0000
,
0010
0000
0000
0000
,
0100
0000
0000
0000
,
0010
0000
0000
0000
,
0100
0000
0010
0000
,
0100
0000
0000
0000
,
0000
0001
0000
0010
,
0000
1000
0000
0100
,
0000
0001
0000
0100
,
0100
0000
1000
0000
,
0010
0000
0001
0000
,
1000
0000
0010
0000
,
1000
0000
0001
0000
,
1001
0000
0000
0000
,
0100
0100
0100
0000
,
0010
0010
0010
0000
,
1000
0000
0001
0000
,
1000
0000
0000
0000
,
0001
0001
0001
0000
,
1000
1000
1000
0000
,
0010
0000
1000
0000
,
0001
0000
0000
0000
,
0001
0000
1000
0000
,
0100
0000
0010
0000
,
0110
0000
1001
0000
,
0110
0000
0000
0000
,
0001
0001
0000
0000
,
0001
0001
0000
0000
,
1000
1000
0000
0000
,
1000
0000
1000
0000
,
0010
0010
0000
0000
,
0010
0010
0000
0000
,
0100
0100
0000
0000
,
0100
0000
0100
0000
,
0010
0000
0000
0000
;

//---------------dance-single - ----------------
#NOTES:
     dance-single:
     :
     Easy:
     6:
     0.307494,0.333745,0.183188,0.000000,0.000000,188.000000,172.000000,16.000000,0.000000,0.000000,0.000000,0.307494,0.333745,0.183188,0.000000,0.000000,188.000000,172.000000,16.000000,0.000000,0.000000,0.000000:
0000
0000
0000
0000
,
0000
0000
0000
0000
,
0000
0000
0000
0000
,
0000
0000
0000
0000
,
0000
0000
0000
0000
,
0100
0100
0001
0001
,
1000
1000
0100
0100
,
0010
0100
1000
0100
,
0110
0000
0000
0000
,
0010
0010
0010
0010
,
0001
0001
0001
0001
,
1000
1000
1000
1000
,
0010
0010
0110
1001
,
0100
0100
0100
0100
,
0001
0001
0001
0001
,
1000
1000
1000
1000
,
0001
0001
1001
0110
,
0010
0100
0010
0000
,
0100
0010
0100
0000
,
0001
0001
0001
0000
,
1000
1000
1000
0000
,
0100
0010
0100
0000
,
1000
0001
1000
0000
,
0001
0001
0001
0000
,
1000
1000
1000
0000
,
0010
1000
0100
1000
,
0010
1000
0100
1000
,
0001
0010
0001
0100
,
0010
0010
0100
0000
,
0010
0100
0001
0100
,
0010
1000
0010
0100
,
0001
0001
1000
1000
,
1001
0000
0110
0000
,
1000
1000
1000
1000
,
0001
0001
0001
0001
,
0010
0010
0100
0100
,
0110
0000
1001
0100
,
0010
0010
0010
0010
,
1000
1000
1000
1000
,
0001
0001
1000
1000
,
0100
0000
1000
0001
,
1000
1000
0010
0010
,
0100
0100
0001
0001
,
1001
0000
0110
0000
,
1001
0000
0000
0000
,
0001
0001
0001
0001
,
0010
0010
0010
0010
,
0100
0100
0100
0100
,
1000
1000
0110
1001
,
1000
1000
1000
1000
,
0010
0010
0010
0010
,
0100
0100
0100
0100
,
0001
0001
1001
0110
,
0010
0000
0000
0000
;

//---------------dance-single - ----------------
#NOTES:
     dance-single:
     :
     Medium:
     9:
     0.407266,0.424767,0.228985,0.000000,0.000000,249.000000,229.000000,20.000000,0.000000,0.000000,0.000000,0.407266,0.424767,0.228985,0.000000,0.000000,249.000000,229.000000,20.000000,0.000000,0.000000,0.000000:
0000
0000
0000
0000
,
0000
0000
0000
0000
,
0000
0000
0000
0000
,
0000
0000
0000
0000
,
0000
0000
0000
0000
,
0001
0001
1000
1000
,
0001
0001
1000
1000
,
0010
0100
0001
1000
,
0110
0000
0000
0000
,
1000
0000
0100
0000
1000
0100
1000
0000
,
0001
0000
0100
0000
0001
0100
0001
0000
,
1000
0000
0010
0000
1000
0010
1000
0000
,
0001
0010
0001
0000
0011
0000
0011
0000
,
0010
0000
0100
0000
0010
0100
0010
0000
,
0001
0000
1000
0000
0001
1000
0001
0000
,
0100
0000
0010
0000
1000
0010
1000
0000
,
0001
1000
0001
0000
1001
0000
0110
0000
,
1010
0000
0100
0000
0001
0000
0000
0100
,
0001
1000
0001
1000
0100
0000
0000
0000
,
0010
0100
1000
0100
0010
0000
0010
0000
,
0001
0010
0100
0010
0001
0000
0100
0000
,
1001
0000
0010
0000
0100
0000
0000
0001
,
1000
0100
1000
0100
0010
0000
0000
0000
,
0001
1000
0010
1000
0100
0000
0100
0000
,
1000
0001
0010
0001
0100
0000
0100
0000
,
0010
0000
0010
0000
1000
0100
0000
0010
,
0000
0000
0010
0000
0001
0100
0000
0000
,
0010
0100
0010
0000
0100
0010
0100
0000
,
0001
1000
0000
1001
0000
0100
0000
0010
,
0000
0000
0001
0000
0001
0100
0000
0010
,
0000
0000
0010
0000
1000
0100
0000
0000
,
1000
0100
1000
0000
0001
0100
0001
0000
,
1001
0100
0010
1000
,
0010
1000
0010
1000
0001
0100
0000
0000
,
0001
0010
0001
0010
0100
1000
0000
0000
,
0001
0100
0010
0000
0001
0010
0100
0000
,
1000
1000
0000
0001
0000
1001
0000
0000
,
1000
0001
1000
0001
0100
0001
0000
0000
,
0010
0100
0010
0100
1000
0100
0000
0000
,
1000
0100
0010
0000
1000
0010
0100
0000
,
0001
0001
0000
1000
0000
1001
0000
0000
,
0100
0100
0010
0010
,
1000
0001
1000
0001
1000
0000
0000
0000
,
1001
0000
0000
0110
0000
0000
1100
0000
,
0011
0000
0000
0000
,
0010
0000
0010
0000
0010
0001
0010
0000
,
0001
0000
0001
0000
0001
0100
0001
0000
,
0100
0000
0100
0000
0100
0010
0100
0000
,
0010
1000
0010
0000
1001
0000
1001
0000
,
1000
0000
1000
0000
1000
0100
1000
0000
,
0100
0000
0100
0000
0100
0010
0100
0000
,
0010
0000
0010
0000
0010
0001
0010
0000
,
0001
1000
0001
0000
0101
0000
1010
0000
,
1001
0000
0000
0000
;

//---------------dance-single - ----------------
#NOTES:
     dance-single:
     :
     Hard:
     11:
     0.551199,0.515788,0.343477,0.000000,0.068695,337.000000,307.000000,30.000000,0.000000,0.000000,0.000000,0.551199,0.515788,0.343477,0.000000,0.068695,337.000000,307.000000,30.000000,0.000000,0.000000,0.000000:
// measure 0
0000
0000
0000
0000
,  // measure 1
0000
0000
0000
0000
,  // measure 2
0000
0000
0000
0000
,  // measure 3
0000
0000
0000
0000
,  // measure 4
0000
0000
0000
0000
,  // measure 5
0001
0100
0001
0000
1000
0000
1000
0001
,  // measure 6
0010
0001
0010
0000
0100
0000
0100
1000
,  // measure 7
0010
0100
0001
0100
0010
1000
0001
0000
,  // measure 8
1001
0000
0000
0000
,  // measure 9
0010
0000
0100
0000
0010
0000
0100
0000
1000
0000
0000
1000
0000
0000
1000
0000
,  // measure 10
0010
0000
0100
0000
0010
0000
0100
0000
0001
0000
0000
0001
0000
0000
0001
0000
,  // measure 11
1000
0000
0010
0000
1000
0000
0010
0000
0100
0000
0000
0100
0000
0000
0100
0000
,  // measure 12
0001
0100
0010
1000
0011
0000
1100
0000
,  // measure 13
0001
0000
1000
0000
0100
0000
0010
0000
0001
0000
0000
0001
0000
0000
0001
0000
,  // measure 14
0010
0000
0001
0000
0100
0000
0010
0000
1000
0000
0000
1000
0000
0000
1000
0000
,  // measure 15
0100
0000
1000
0000
0001
0000
0100
0000
0010
0000
0000
0010
0000
0000
0010
0000
,  // measure 16
1000
0010
0100
0001
0110
0000
1001
0000
,  // measure 17
0011
0000
1100
0000
0101
0000
1000
0010
,  // measure 18
0100
0001
0100
0010
1000
1000
0001
0000
,  // measure 19
1000
1000
0001
0001
0010
0000
1100
0000
,  // measure 20
0100
0100
0010
0010
0001
0000
1100
0000
,  // measure 21
0101
0000
1010
0000
0011
0000
1000
0001
,  // measure 22
0010
1000
0010
0001
1000
0010
1000
0000
,  // measure 23
0010
0010
0100
0100
0001
0000
0101
0000
,  // measure 24
0100
0100
0010
0010
1000
0000
1010
0000
,  // measure 25
0001
1000
0100
0001
0100
1000
0000
0001
,  // measure 26
0100
1000
0100
0001
0010
0100
0010
0000
,  // measure 27
0001
0010
0001
0010
0100
1000
0100
1000
,  // measure 28
0001
0001
0000
1100
0000
0101
0000
0110
,  // measure 29
0000
0100
0001
0100
0010
1000
0000
0001
,  // measure 30
0010
0001
1000
0010
0100
0001
1000
0000
,  // measure 31
0001
0001
1000
1000
0100
0010
0000
0110
,  // measure 32
0000
0100
0000
1001
0000
0010
0000
1000
,  // measure 33
0100
0001
0100
1000
0010
0100
0000
0001
,  // measure 34
0100
1000
0100
0001
0010
0100
0010
0000
,  // measure 35
0100
1000
0100
1000
0001
0100
0001
0100
,  // measure 36
0010
1000
0000
1000
0001
0010
0000
1001
,  // measure 37
0001
0010
1000
0010
0001
0100
0000
0001
,  // measure 38
1000
0100
0001
0100
1000
0100
1000
0000
,  // measure 39
0001
1000
0001
1000
0100
0010
0100
0010
,  // measure 40
0001
0010
0100
1000
0100
0010
0000
0110
,  // measure 41
0000
0100
1000
0010
0100
0001
0100
0010
,  // measure 42
1000
0001
1000
0001
0010
0100
0010
0000
,  // measure 43
1001
0000
0000
0110
0000
0000
1100
0000
,  // measure 44
0101
0000
1000
0000
1000
0000
0001
0001
,  // measure 45
1000
0000
0010
0000
0100
0000
0001
0000
1000
0000
0000
1000
0000
0000
1000
0000
,  // measure 46
0001
0000
0100
0000
0010
0000
1000
0000
0001
0000
0000
0001
0000
0000
0001
0000
,  // measure 47
0010
0000
0100
0000
1000
0000
0001
0000
1000
0000
0000
1000
0000
0000
1000
0000
,  // measure 48
0100
1000
0001
0100
0110
0000
1001
0000
,  // measure 49
0010
0000
1000
0000
0100
0000
1000
0000
0001
0000
0000
0001
0000
0000
0001
0000
,  // measure 50
0100
0000
0001
0000
0010
0000
0001
0000
1000
0000
0000
1000
0000
0000
1000
0000
,  // measure 51
0010
0000
1000
0000
0001
0000
0100
0000
0010
0000
0000
0010
0000
0000
0010
0000
,  // measure 52
0100
0001
1000
0100
0011
0000
1100
0000
,  // measure 53
0001
0000
0000
0000
;
