#TITLE:Too Late Snow;
#SUBTITLE:;
#ARTIST:movies (moimoi×Xceon×Dai.);
#TITLETRANSLIT:;
#SUBTITLETRANSLIT:;
#ARTISTTRANSLIT:;
#GENRE:;
#CREDIT:;
#BANNER:Too Late Snow.png;
#BACKGROUND:Too Late Snow-bg.png;
#LYRICSPATH:;
#CDTITLE:;
#MUSIC:Too Late Snow.ogg;
#OFFSET:0.000000;
#SAMPLESTART:67.352501;
#SAMPLELENGTH:15.000000;
#SELECTABLE:YES;
#BPMS:0.000000=138.000000
;
#STOPS:
;
#BGCHANGES:;
#KEYSOUNDS:;
#ATTACKS:;

//---------------dance-single - ----------------
#NOTES:
     dance-single:
     :
     Beginner:
     2:
     0.117439,0.195927,0.039146,0.140927,0.000000,105.000000,100.000000,5.000000,18.000000,0.000000,0.000000,0.117439,0.195927,0.039146,0.140927,0.000000,105.000000,100.000000,5.000000,18.000000,0.000000,0.000000:
0000
0000
0000
0000
,
0000
0000
0000
0000
,
0000
0000
0000
0000
,
0000
0000
0000
0000
,
0000
0000
0000
0000
,
0200
0000
0300
0000
,
0002
0000
0003
0000
,
2000
0000
3000
0000
,
0020
0000
0030
0000
,
2002
0000
0000
0000
,
3003
0000
0000
0000
,
0000
0000
0000
0000
,
0000
0000
0000
0000
,
0100
0000
1000
0000
,
0001
0000
0000
0000
,
0010
0000
0001
0000
,
1000
1000
1000
0000
,
0010
0000
1000
0000
,
0100
0000
0000
0000
,
0010
0000
0001
0000
,
0100
0100
0100
0000
,
0020
0000
0000
0030
,
0000
0010
0000
0001
,
0000
0100
0000
1000
,
0000
0001
0000
1000
,
2000
0000
0000
3000
,
0000
0001
0000
1000
,
0000
0100
0000
0010
,
0000
0001
0000
0100
,
0200
0000
0300
0000
,
0010
0000
0010
0000
,
0010
0000
0000
0000
,
0100
0000
0100
0000
,
0100
0000
0000
0000
,
0001
0000
0001
0000
,
0001
0000
0000
0000
,
1000
0000
1000
0000
,
1000
0000
0000
0000
,
0220
0000
0330
0000
,
0010
0000
0100
0000
,
0001
0000
0000
0000
,
0010
0000
0100
0000
,
1000
1000
1000
0000
,
0001
0000
1000
0000
,
0100
0000
0000
0000
,
1000
0000
0001
0000
,
0010
0010
0010
0000
,
0220
0000
0000
0000
,
0330
0000
0000
0000
,
0000
0000
0000
0000
,
0000
0000
0000
0000
,
2000
0000
3000
0000
,
0001
0000
0100
0000
,
0010
0000
0000
0000
,
1000
0000
0100
0000
,
0010
0000
0000
0000
,
0001
0000
1000
0000
,
0100
0100
0100
0000
,
1000
0000
0001
0000
,
0010
0010
0010
0000
,
0220
0000
0000
0000
,
0330
0000
0000
0000
,
0100
0000
0001
0000
,
0000
0000
1000
0000
,
0001
0000
0100
0100
,
0100
0000
0010
0000
,
1000
0000
0100
0000
,
0000
0000
0010
0000
,
0001
0000
0100
0100
,
0100
0000
2002
0000
,
0000
0000
0000
0000
,
0000
0000
3003
0000
;

//---------------dance-single - ----------------
#NOTES:
     dance-single:
     :
     Easy:
     5:
     0.208035,0.251906,0.109610,0.195731,0.003915,186.000000,172.000000,14.000000,25.000000,0.000000,0.000000,0.208035,0.251906,0.109610,0.195731,0.003915,186.000000,172.000000,14.000000,25.000000,0.000000,0.000000:
0000
0000
0000
0000
,
0000
0000
0000
0000
,
0000
0000
0000
0000
,
0000
0000
0000
0000
,
0000
0000
0000
0000
,
1001
0100
0001
0000
,
1000
0010
0001
0000
,
0001
0100
1000
0000
,
1000
0010
0220
0330
,
2002
0000
0000
0000
,
0000
0000
0000
0000
,
3003
0000
0000
0000
,
0000
0000
0000
0000
,
1010
0000
0100
0001
,
1000
1000
0001
0000
,
0001
0100
0001
0000
,
1000
0010
1000
0000
,
1001
0000
0010
0001
,
0100
0100
0010
0000
,
0010
0100
0001
0000
,
1000
0010
0010
0000
,
0200
0000
0320
0000
,
2030
3020
0230
0302
,
0023
0000
0100
0130
,
1000
0000
1000
1000
,
0001
0000
0010
0000
,
0002
0023
0230
2300
,
3002
0000
0100
0103
,
0010
0000
1000
1000
,
0001
0010
0100
1000
,
0011
0000
0100
1000
,
0010
0000
0100
0001
,
0010
0000
0001
1000
,
0010
0000
1000
0000
,
1100
0000
1000
0001
,
0100
0000
0001
1000
,
0010
0010
0100
0100
,
0001
0010
0100
1000
,
0001
0000
1000
1000
,
0110
0000
0100
0010
,
0001
0001
1000
0000
,
1000
1000
0010
0000
,
0001
0001
0100
0010
,
1000
0000
0100
0010
,
0001
0001
0010
0000
,
1000
1000
0100
0000
,
1000
0001
0010
0010
,
0220
0000
0000
0000
,
0000
0000
0000
0330
,
2002
0000
0000
0000
,
3003
0000
0000
0000
,
0200
0000
0000
0000
,
0310
0000
1000
0010
,
0100
0001
0100
0000
,
0001
0100
1000
0000
,
1000
0010
0001
0000
,
0011
0000
0100
1000
,
0001
0001
0001
0000
,
1000
0010
0100
0000
,
0001
0010
0200
0000
,
0020
0000
0000
0000
,
0330
0000
0000
0000
0000
0000
0000
1001
0000
0000
0000
0000
0000
0000
0000
0000
,
0010
1000
0001
0100
,
0001
0000
1000
1000
,
0100
0000
0010
0010
,
0001
0000
0110
0000
,
0100
0001
0010
0010
,
0001
0000
1000
0010
,
0100
0000
0001
0010
,
0100
0000
2002
0000
,
0000
0000
0000
0000
,
0000
0000
3003
0000
;

//---------------dance-single - ----------------
#NOTES:
     dance-single:
     :
     Medium:
     9:
     0.348961,0.419844,0.321000,0.281853,0.031317,312.000000,271.000000,41.000000,36.000000,0.000000,0.000000,0.348961,0.419844,0.321000,0.281853,0.031317,312.000000,271.000000,41.000000,36.000000,0.000000,0.000000:
0000
0000
0000
0000
,
0000
0000
0000
0000
,
0000
0000
0000
0000
,
0000
0000
0000
0000
,
0000
0000
0000
0000
,
1000
0000
0000
1000
0010
0000
0100
0000
,
0001
0010
0100
1000
0010
0000
0100
0010
,
1001
0000
0000
0001
1000
0000
1000
0000
,
1010
0110
0022
0033
,
2002
0000
0000
0000
,
0000
0000
0000
0000
,
3003
0000
0000
0000
,
0000
0000
0000
0000
0000
0000
0001
1000
,
0100
0000
0000
0100
0010
0000
0010
0000
,
0001
0100
1000
0100
0001
0000
0010
0100
,
1000
0000
0000
1000
0001
0000
0110
0000
,
1001
0000
1100
0000
0101
0000
0010
1000
,
0001
0000
0000
0001
0010
0000
0010
0000
,
0100
1000
0100
0001
0100
0000
1000
0010
,
0110
0000
0000
0100
0001
0100
0001
0000
,
1001
0110
1001
0000
,
0001
0001
0100
0100
0010
0010
1000
1000
,
0000
2000
3020
0230
,
0302
0000
0000
0100
0103
0010
0100
0001
,
2000
0000
0000
0010
3010
0000
1000
0000
,
0002
0000
0000
0100
0103
0001
1000
0001
,
0000
0020
0032
2003
,
3200
0000
0000
1000
1300
0010
0100
0001
,
1000
0000
0000
0001
0100
0010
1000
0100
,
0010
0000
0000
0000
0001
1000
0010
0100
,
0220
0000
0000
0000
0330
0000
0100
0000
0001
0000
0000
0001
0000
0000
0001
0000
,
0020
0000
0000
0000
0030
0000
0100
0000
1000
0000
0000
1000
0000
0000
1000
0000
,
0020
0000
0000
0000
0030
0000
0100
0000
0001
0000
0000
0001
0000
0000
0001
0000
,
1000
1010
0100
0011
,
2002
0000
0000
0000
3003
0000
0001
0000
0010
0000
0000
0010
0000
0000
0100
0000
,
2000
0000
0000
0000
3000
0000
1000
0000
0010
0000
0000
0010
0000
0000
0100
0000
,
0001
0000
0000
0010
0000
0000
0001
0000
1000
0000
0000
0100
0000
0000
1000
0000
,
0010
0000
0010
0000
1000
0010
0100
0001
,
1002
0000
0000
0000
0203
0000
0010
0310
,
1000
0000
0000
1000
0001
0000
0001
0000
,
0010
0001
0010
0100
1000
0000
0100
1000
,
0010
0000
0000
0010
0100
0000
0001
0000
,
0110
0000
1100
0000
0101
0000
1000
0001
,
1001
0000
0000
0001
0001
0000
1000
0000
,
0010
1000
0100
0010
0001
0000
0100
0010
,
1001
0000
0000
0010
0010
0000
0100
0000
,
1100
0011
2002
3003
,
0220
0000
0000
0000
,
0000
0000
0000
0330
,
0000
0000
0000
0000
,
0000
0000
0000
0000
,
0002
0000
0000
0000
0000
0000
1000
1000
,
1003
0000
0000
1000
0010
0000
0010
0000
,
0100
0001
0100
1000
0100
0000
0010
1000
,
0010
0000
0000
1000
1000
0000
0100
0000
,
0011
0000
1100
0000
0110
0000
1000
0001
,
2000
0000
0000
0100
3100
0000
0100
0000
,
0010
0001
0010
1000
0010
0000
0001
0100
,
0010
0000
0000
1000
1000
0000
0001
0000
,
1100
0101
2020
0000
,
0000
0000
0000
0000
,
3030
0000
0000
0000
0000
0000
0000
0012
0000
0000
0000
0000
0000
0000
1000
0000
,
1003
0000
0010
0000
1000
0010
1000
0100
,
0001
0000
0100
1000
0001
0000
0000
0100
,
0100
0010
1001
0110
,
1001
0000
0010
1000
0020
0000
0000
0100
,
0130
0000
0001
0000
0100
0001
0010
1000
,
0010
0000
0001
1000
0020
0000
0000
0100
,
0130
0001
1010
0101
,
1001
0000
0220
0000
,
0000
0000
0000
0000
,
0000
0000
0330
0000
;

//---------------dance-single - ----------------
#NOTES:
     dance-single:
     :
     Hard:
     11:
     0.409358,0.475823,0.211390,0.516731,0.058719,366.000000,339.000000,27.000000,66.000000,0.000000,0.000000,0.409358,0.475823,0.211390,0.516731,0.058719,366.000000,339.000000,27.000000,66.000000,0.000000,0.000000:
// measure 0
0000
0000
0000
0000
,  // measure 1
0000
0000
0000
0000
,  // measure 2
0000
0000
0000
0000
,  // measure 3
0000
0000
0000
0000
,  // measure 4
0000
0000
0000
0000
,  // measure 5
1001
0000
1000
0100
0010
0000
0001
0000
,  // measure 6
1000
0010
0001
0010
1000
0000
0001
1000
,  // measure 7
0101
0000
0000
1000
1100
0000
1000
0000
,  // measure 8
0010
0100
0001
1000
0100
0010
0010
0000
,  // measure 9
0220
0000
0000
0000
,  // measure 10
0000
0000
0000
0000
,  // measure 11
0330
0000
0000
0000
,  // measure 12
0000
0000
0000
0000
0000
0000
0010
0100
,  // measure 13
1000
0000
0000
0000
1000
0000
0001
0000
0100
0000
0000
0100
0010
0000
0000
0000
,  // measure 14
2000
3002
0023
0230
2300
0000
0100
3100
,  // measure 15
0010
0001
0100
0000
0010
0010
1000
0001
,  // measure 16
0010
0000
1100
0000
0101
0000
0100
0010
,  // measure 17
1000
0000
0000
0000
0001
0000
0010
0000
0001
0000
0000
0001
0100
0000
0000
0000
,  // measure 18
0020
2030
3200
0320
0032
0000
0010
0013
,  // measure 19
0100
1000
0100
0000
0010
0001
0010
0001
,  // measure 20
1000
1010
0201
0000
,  // measure 21
0010
0010
0010
0000
0001
0001
0301
0000
,  // measure 22
1000
0001
2000
0000
3020
0000
0230
0000
,  // measure 23
0302
0000
0013
0100
0010
0001
0100
0010
,  // measure 24
2000
0000
0001
0001
3001
0000
1000
0000
,  // measure 25
0200
0000
0000
0000
0010
0010
0310
0001
,  // measure 26
1000
0010
0200
0000
0302
0000
2003
0000
,  // measure 27
3200
0000
0310
0010
0001
0010
0100
1000
,  // measure 28
0002
0000
0000
0000
1003
0000
0010
0000
0100
0000
0001
0000
0100
0000
0010
2000
,  // measure 29
0000
0000
0000
0000
0001
0001
3001
0100
,  // measure 30
1001
0000
0000
0000
0001
0000
1000
0000
0100
0000
0000
0100
0000
0000
0010
0000
,  // measure 31
0001
0000
0000
0000
1000
0000
0010
0000
0100
0000
0000
0100
0000
0000
0001
0000
,  // measure 32
1000
0000
0000
0000
0100
0000
0010
0000
0001
0000
0000
0001
0000
0000
1000
0000
,  // measure 33
0010
0010
0200
0000
0302
1000
1003
0000
,  // measure 34
1001
0000
0000
0000
1000
0000
0001
0000
0010
0000
0000
0010
0000
0000
0100
0000
,  // measure 35
1000
0000
0000
0000
0001
0000
0100
0000
0010
0000
0000
0010
0000
0000
1000
0000
,  // measure 36
1000
0000
0000
0100
0000
0000
1100
0000
0001
0000
0000
0100
0000
0000
0101
0000
,  // measure 37
0010
1000
0001
0010
0100
1000
0100
0010
,  // measure 38
0002
0000
0000
0000
2003
0000
3010
0010
,  // measure 39
0110
0000
0000
0000
0100
0000
0001
0000
0010
0000
0000
0010
0100
0000
0000
0000
,  // measure 40
2000
3200
0302
0203
2300
0000
0001
3001
,  // measure 41
0100
0001
0100
0000
0010
1000
0001
1000
,  // measure 42
0100
0000
0101
0000
1010
0000
1000
0010
,  // measure 43
0100
0000
0000
0000
0001
0000
0100
0000
0010
0000
0000
0010
1000
0000
0000
0000
,  // measure 44
0002
0023
2030
3020
0032
0000
0100
0103
,  // measure 45
0010
1000
0010
0000
1000
0001
0100
0010
,  // measure 46
1000
0011
1100
0000
,  // measure 47
2002
0000
0000
0000
,  // measure 48
0000
0000
0000
0000
,  // measure 49
3003
0000
0000
0000
,  // measure 50
0000
0000
0000
0000
,  // measure 51
0200
0000
0000
0000
0000
0000
0001
0001
,  // measure 52
0301
0000
0000
0001
1000
0001
1000
0000
,  // measure 53
0100
1000
0001
0100
1000
0000
1000
0100
,  // measure 54
0001
0000
1000
0010
1000
0100
0010
0001
,  // measure 55
0100
0000
0110
0000
1001
0000
1000
0001
,  // measure 56
2000
0100
3100
1000
0010
0100
0001
1000
,  // measure 57
0002
0013
0200
1300
0002
0103
0020
1030
,  // measure 58
0001
0001
0001
0000
1000
1000
0010
0010
,  // measure 59
0100
1001
0220
0300
,  // measure 60
1000
1000
0100
0100
0001
0001
0100
0200
,  // measure 61
0000
0000
0000
0000
0330
0000
0000
2200
0000
0000
0000
0000
3300
0000
1000
0000
,  // measure 62
0001
0000
0000
0001
0100
0000
0000
0000
0020
0000
0230
0000
0302
0000
0203
0000
,  // measure 63
2300
0000
0100
3100
0001
0010
0001
0000
,  // measure 64
1000
0010
0100
0001
0010
0000
0110
0000
,  // measure 65
1001
0000
0100
1000
0010
0000
0010
0100
,  // measure 66
0001
0000
0000
0001
1000
0000
0000
0000
0200
0000
0320
0000
2030
0000
3020
0000
,  // measure 67
0032
0000
1000
1003
0010
1000
0010
0000
,  // measure 68
0100
0100
0001
0001
1000
0100
0010
0000
,  // measure 69
0220
0330
2002
0000
,  // measure 70
0000
0000
0000
0000
,  // measure 71
0000
0000
3003
0000
;
