#VERSION:0.83;
#TITLE:Together Forever;
#SUBTITLE:;
#ARTIST:CYDNEY D;
#TITLETRANSLIT:;
#SUBTITLETRANSLIT:;
#ARTISTTRANSLIT:;
#GENRE:;
#ORIGIN:;
#TAGS:;
#CREDIT:;
#BANNER:Together Forever.png;
#BACKGROUND:Together Forever-bg.png;
#PREVIEWVID:;
#JACKET:Together Forever-jacket.png;
#CDIMAGE:;
#DISCIMAGE:;
#LYRICSPATH:;
#CDTITLE:;
#MUSIC:Together Forever.ogg;
#OFFSET:0.000000;
#SAMPLESTART:44.160999;
#SAMPLELENGTH:15.000000;
#SELECTABLE:YES;
#BPMS:0.000000=135.076004
;
#STOPS:;
#DELAYS:;
#WARPS:;
#TIMESIGNATURES:0.000000=4=4
;
#TICKCOUNTS:0.000000=4
;
#COMBOS:0.000000=1
;
#SPEEDS:0.000000=1.000000=0.000000=0
;
#SCROLLS:0.000000=1.000000
;
#LABELS:0.000000=Song Start
;
#BGCHANGES:;
#KEYSOUNDS:;
#ATTACKS:
;

//---------------dance-single - ----------------
#NOTEDATA:;
#CHARTNAME:;
#CHARTHASH:1704787774;
#STEPSTYPE:dance-single;
#BANNER:;
#DESCRIPTION:;
#CHARTSTYLE:;
#DIFFICULTY:Beginner;
#METER:3;
#METERF:0.000000;
#LASTSECONDHINT:87.062096;
#RADARVALUES:0.124055,0.159566,0.032564,0.000000,0.000000,80.000000,77.000000,3.000000,0.000000,0.000000,0.000000,0.000000,0.000000,0.000000,0.124055,0.159566,0.032564,0.000000,0.000000,80.000000,77.000000,3.000000,0.000000,0.000000,0.000000,0.000000,0.000000,0.000000;
#CREDIT:;
#NOTES:
0000
0000
0000
0000
,
0000
0000
0000
0000
,
0000
0000
0000
0000
,
0000
0000
0000
0000
,
0000
0000
0000
0000
,
0001
0000
1000
0000
,
0100
0000
0000
0000
,
0010
0010
0000
0000
,
0100
0100
0000
0000
,
1000
0000
1000
0000
,
0001
0000
0001
0000
,
1000
0000
0001
0000
,
1000
0000
0000
0000
,
0010
0000
0010
0000
,
0100
0000
0100
0000
,
0010
0000
0100
0000
,
0010
0000
0000
0000
,
1000
0000
0100
0000
,
0010
0000
0001
0000
,
0010
0000
0100
0000
,
1000
0000
0000
0000
,
0001
0000
0010
0000
,
0100
0000
1000
0000
,
0100
0000
0010
0000
,
0001
0001
0000
0000
,
1001
0000
0100
0000
,
0010
0000
1000
0000
,
0010
0000
0100
0000
,
0001
0000
0000
0000
,
0100
0000
0010
0000
,
0001
0000
0100
0000
,
0010
0000
1000
0000
,
0001
0000
0000
0000
,
0001
0000
0000
0000
,
1000
0000
0000
0000
,
0001
0001
0001
0000
,
1000
0000
0000
0000
,
1000
0000
0000
0000
,
0001
0000
0000
0000
,
1000
1000
1000
0000
,
0001
0000
0000
0000
,
0110
0000
0001
0000
,
1000
0000
0010
0000
,
1000
0000
0001
0000
,
0010
0000
0000
0000
,
0110
0000
1000
0000
,
0001
0000
0100
0000
,
0001
0000
1000
0000
,
0100
0000
0000
0000
,
0010
0000
0000
0000
;

//---------------dance-single - ----------------
#NOTEDATA:;
#CHARTNAME:;
#CHARTHASH:1061570328;
#STEPSTYPE:dance-single;
#BANNER:;
#DESCRIPTION:;
#CHARTSTYLE:;
#DIFFICULTY:Easy;
#METER:5;
#METERF:0.000000;
#LASTSECONDHINT:87.062096;
#RADARVALUES:0.209343,0.239349,0.086839,0.000000,0.000000,135.000000,127.000000,8.000000,0.000000,0.000000,0.000000,0.000000,0.000000,0.000000,0.209343,0.239349,0.086839,0.000000,0.000000,135.000000,127.000000,8.000000,0.000000,0.000000,0.000000,0.000000,0.000000,0.000000;
#CREDIT:;
#NOTES:
0000
0000
0000
0000
,
0000
0000
0000
0000
,
0000
0000
0000
0000
,
0000
0000
0000
0000
,
0000
0000
0000
0000
,
1000
0010
0000
1000
,
0000
0001
0010
0000
,
0100
0000
0000
0100
0000
0000
0100
0000
,
0010
0010
0000
0001
,
1000
0001
1001
0000
,
1000
1000
1000
0000
,
0010
1000
0001
0100
,
0001
0000
0100
0010
,
0000
0010
1000
0000
,
0001
0010
0001
0000
,
0010
0010
0100
0100
,
0010
0001
0000
1000
,
1001
0000
0100
0000
,
0001
0001
0001
0000
,
0010
0001
0100
0001
,
0010
0010
0000
0000
,
1001
0001
0000
0100
,
1000
1000
1000
0000
,
0010
1000
0001
0100
,
0010
0010
0000
0100
,
1100
0010
0000
0001
,
0000
1000
0000
0010
,
0100
0001
0000
1000
,
0001
1001
0000
0001
,
1000
0100
0000
0010
,
0000
0001
0000
0100
,
0010
0010
0100
0100
,
1001
0000
0000
0000
,
0010
1000
0000
0010
,
0100
0100
0000
0001
,
0010
0001
1000
0100
,
0010
0010
0000
0000
,
0100
0100
0000
1000
,
0000
0001
0000
1000
,
0010
1000
0001
0100
,
0001
1001
0000
0100
,
0010
0001
0000
0010
,
0000
0100
0000
1000
,
0001
1000
0000
0010
,
0100
0110
0000
0100
,
0001
1000
0000
0001
,
0000
1000
0000
0100
,
1000
0010
0100
0001
,
1000
0000
0000
0000
,
0001
0000
0000
0000
;

//---------------dance-single - ----------------
#NOTEDATA:;
#CHARTNAME:;
#CHARTHASH:566824893;
#STEPSTYPE:dance-single;
#BANNER:;
#DESCRIPTION:;
#CHARTSTYLE:;
#DIFFICULTY:Medium;
#METER:9;
#METERF:0.000000;
#LASTSECONDHINT:87.062096;
#RADARVALUES:0.342702,0.398915,0.086839,0.000000,0.054274,221.000000,213.000000,8.000000,0.000000,0.000000,0.000000,0.000000,0.000000,0.000000,0.342702,0.398915,0.086839,0.000000,0.054274,221.000000,213.000000,8.000000,0.000000,0.000000,0.000000,0.000000,0.000000,0.000000;
#CREDIT:;
#NOTES:
0000
0000
0000
0000
,
0000
0000
0000
0000
,
0000
0000
0000
0000
,
0000
0000
0000
0000
,
0000
0000
0000
0000
,
0010
0000
0100
0001
0000
0000
0001
1000
,
0000
1000
0100
0010
0000
0000
0000
0000
,
0001
0001
0000
1000
1000
0000
0010
0010
,
0100
0110
0001
1000
,
0000
1000
1100
0000
,
0100
0000
0000
1000
0000
0000
0001
0000
0000
0000
0000
0000
1000
0000
0000
0000
,
0001
0100
0010
1000
0010
0100
0001
0000
,
1000
0000
0000
0100
0100
0000
0010
0000
,
0000
0000
0000
0000
0100
0000
0000
1000
0000
0000
0000
0000
0001
0000
0000
0000
,
1000
0000
0000
0010
0000
0000
0100
0000
0000
0000
0001
0000
0001
0000
0000
0000
,
0010
0100
1000
0001
0100
0010
0100
0000
,
0010
0000
1000
0010
0000
0100
0001
0000
,
0001
0000
0000
0001
0000
0000
0001
0000
0100
0000
0000
0000
0001
0000
0000
0000
,
1000
0000
0000
0010
0000
0000
1000
0000
0000
0000
0100
0000
0000
0000
0010
0000
,
0100
0010
0000
0100
1000
0001
0100
0010
,
0000
0010
0000
0100
0000
0000
0010
0000
,
0100
0000
0000
0100
0000
0000
0001
0000
0000
0000
1000
0000
0000
0000
0001
0000
,
0010
0001
1000
0010
0000
1000
0000
0001
,
1000
1000
0100
0100
0010
0010
0001
0001
,
0000
1010
0000
0000
0100
0000
0001
0100
,
0001
0000
1000
0010
0000
0000
1000
0001
,
0000
0001
0010
0001
0000
0000
0010
0100
,
1000
0000
0001
0100
0000
0010
1000
0001
,
0010
0000
0110
0000
0000
0000
0010
0100
,
0010
0000
0001
0001
0000
0000
1000
1000
,
0000
0010
0010
0100
0000
0000
0001
0000
,
0100
0010
1000
0010
0100
0001
1000
0000
,
1001
0000
0000
0001
,
0010
0000
0000
0010
0000
0000
0010
0000
0001
0000
0000
0000
1000
0000
0000
0000
,
0100
0000
0000
0100
0000
0000
0100
0000
1000
0000
0000
0001
0000
0000
0000
0000
,
0001
1000
0001
1000
0000
0010
0010
0100
,
0000
0001
0000
0000
0000
0000
0100
0000
,
0010
0000
0000
0010
0000
0000
1000
0000
0000
0000
0010
0000
0000
0000
0100
0000
,
0001
0000
0001
0100
0000
0100
0000
0010
,
1000
0100
1000
0000
0001
0010
0001
1000
,
0000
1001
0000
0000
0000
0000
0010
1000
,
0001
0000
0001
0100
0000
0000
1000
0100
,
0000
0001
0100
1000
0000
0000
0100
0000
,
0001
0000
0010
1000
0000
0010
0001
0010
,
0100
0000
0110
0000
0000
0000
0010
0001
,
0100
0000
0010
1000
0000
0000
0001
0010
,
0000
1000
0010
0001
0000
1000
0010
0000
,
1000
0100
1000
0001
0000
0001
0100
0000
,
0110
0010
0000
0000
,
1000
0000
0000
0000
;

//---------------dance-single - ----------------
#NOTEDATA:;
#CHARTNAME:;
#CHARTHASH:216246116;
#STEPSTYPE:dance-single;
#BANNER:;
#DESCRIPTION:;
#CHARTSTYLE:;
#DIFFICULTY:Hard;
#METER:11;
#METERF:0.000000;
#LASTSECONDHINT:87.062096;
#RADARVALUES:0.471409,0.478697,0.217096,0.000000,0.097693,304.000000,284.000000,20.000000,0.000000,0.000000,0.000000,0.000000,0.000000,0.000000,0.471409,0.478697,0.217096,0.000000,0.097693,304.000000,284.000000,20.000000,0.000000,0.000000,0.000000,0.000000,0.000000,0.000000;
#CREDIT:;
#NOTES:
// measure 0
0000
0000
0000
0000
,  // measure 1
0000
0000
0000
0000
,  // measure 2
0000
0000
0000
0000
,  // measure 3
0000
0000
0000
0000
,  // measure 4
0000
0000
0000
0000
,  // measure 5
0001
1000
0010
0100
0000
0001
0010
0100
,  // measure 6
0000
1000
0100
0001
0000
0100
1000
0000
,  // measure 7
0001
0010
0001
0000
0000
0000
1000
0010
1000
0000
0000
0000
0010
0100
0010
0000
,  // measure 8
0110
0000
1001
0000
0100
0001
1000
0100
,  // measure 9
0010
0011
1100
0001
,  // measure 10
1000
0001
0000
0100
0000
0000
0010
0000
0000
0000
1000
0000
0000
0000
0000
0000
,  // measure 11
0010
0100
0001
0100
0010
1000
0001
0001
,  // measure 12
0010
0000
0100
1000
1000
0001
1000
0000
,  // measure 13
0001
0000
0000
0000
1000
0001
0000
0100
0000
0000
0010
0000
0000
0000
0010
0000
,  // measure 14
1000
0000
0000
0010
0000
0000
1000
0000
0000
0000
0001
0000
0001
0000
0010
0000
,  // measure 15
0100
1000
0100
0001
0100
1000
0001
0001
,  // measure 16
1000
0000
0010
0100
0000
0001
1000
0001
,  // measure 17
1000
0000
0000
1100
0000
0000
1000
0000
0001
0000
0000
0101
0000
0000
0010
0000
,  // measure 18
1000
0000
1000
0001
0000
0000
0010
0000
0000
0000
0100
0000
0100
0000
0010
0000
,  // measure 19
0001
0001
1000
0010
1000
1000
0010
0100
,  // measure 20
0000
0101
0001
0000
1000
0001
0100
0010
,  // measure 21
1000
0000
0000
0010
0000
0000
0110
0000
0000
0000
0100
0000
0001
0000
0010
0000
,  // measure 22
0001
0010
0100
1000
0000
1001
0000
0001
,  // measure 23
1000
1000
0010
0010
0100
0100
0001
0001
,  // measure 24
1000
0000
1001
0000
0100
0100
0010
0010
,  // measure 25
1000
0010
0100
0001
0000
0010
0100
1000
,  // measure 26
0000
0001
0100
1000
0000
0100
0001
1000
,  // measure 27
0001
0010
0100
1000
0000
1000
0100
0010
,  // measure 28
0001
0000
1001
0000
0010
1000
0001
0100
,  // measure 29
0001
0010
1000
0010
0000
0001
0100
1000
,  // measure 30
0000
1000
0100
0001
0000
1000
0100
1000
,  // measure 31
0001
0100
0010
1000
0010
0100
0001
0000
,  // measure 32
1001
0000
0110
0000
0010
0000
0100
0100
,  // measure 33
0001
0000
0000
0100
0000
0000
0001
0000
1000
0000
0000
0100
0000
0000
1000
0000
,  // measure 34
0010
0000
0000
0100
0000
0000
0010
0000
0110
0000
0000
1001
0000
0000
0001
0000
,  // measure 35
1000
0100
0010
0001
0000
0010
0100
1000
,  // measure 36
0000
1000
0001
0000
1000
0010
1000
0001
,  // measure 37
0100
0000
0000
0001
0000
0000
0011
0000
0001
0000
0000
0001
0000
0000
0010
0000
,  // measure 38
0100
1000
0001
1000
0000
1001
0000
0001
,  // measure 39
1000
1000
0010
0010
0100
0100
0001
0001
,  // measure 40
0010
0000
0110
0000
0010
0010
0100
0100
,  // measure 41
1000
0001
0100
0010
0000
0100
0001
1000
,  // measure 42
0000
0010
1000
0001
0000
0010
0010
0100
,  // measure 43
1000
0100
0010
0001
0000
0010
0100
1000
,  // measure 44
0001
0000
1001
0000
0100
0100
1000
0001
,  // measure 45
1000
0001
0100
1000
0000
0100
0001
0010
,  // measure 46
0000
0100
1000
0010
0000
0001
0010
1000
,  // measure 47
0001
0010
0100
1000
0100
0010
0001
0000
,  // measure 48
1000
0000
1001
0000
0001
0100
0010
1000
,  // measure 49
0001
0000
0000
0000
;
