#VERSION:0.83;
#TITLE:Together Forever (original);
#SUBTITLE:;
#ARTIST:Rick Astley;
#TITLETRANSLIT:;
#SUBTITLETRANSLIT:;
#ARTISTTRANSLIT:;
#GENRE:;
#CREDIT:;
#MUSIC:Together Forever (original).ogg;
#BANNER:Together Forever (original).png;
#BACKGROUND:Together Forever (original)-bg.png;
#CDTITLE:Dancemania.png;
#SAMPLESTART:48.275;
#SAMPLELENGTH:15.000;
#SELECTABLE:YES;
#OFFSET:2.010;
#BPMS:0.000=118.602;
#STOPS:;
#LASTBEATHINT:1.996467;
#BGCHANGES:;
#FGCHANGES:;

//--------------- dance-single - ----------------
#NOTEDATA:;
#STEPSTYPE:dance-single;
#DESCRIPTION:;
#DIFFICULTY:Beginner;
#METER:2;
#RADARVALUES:0.110671,0.123247,0,0,0,88,88,0,0,0,0,0.110671,0.123247,0,0,0,88,88,0,0,0,0;
#NOTES:
0000
0000
0000
0000
,
0000
0000
0000
0000
,
0000
0000
0000
0000
,
0000
0000
0000
0000
,
0000
0000
0000
0000
,
0100
0000
0001
0000
,
1000
0000
0010
0000
,
1000
0000
0100
0000
,
0100
0000
0000
0000
,
0000
0010
0010
0000
,
0001
0000
0000
0000
,
0100
0000
0001
0000
,
0010
0000
0000
0000
,
0000
0001
0001
0000
,
1000
0000
0000
0000
,
0010
0000
1000
0000
,
0001
0000
0000
0000
,
0100
0000
0100
0000
,
0001
0000
0010
0000
,
0001
0000
0000
1000
,
1000
0000
0000
0000
,
0100
0000
1000
0000
,
0010
0000
0100
0000
,
0001
0000
0010
0000
,
1000
0000
0000
0000
,
1000
0000
0010
0000
,
0100
0000
0001
0000
,
0100
0000
0010
0000
,
1000
0000
0000
0000
,
0001
0000
0010
0000
,
1000
0000
0010
0000
,
0001
0000
0100
0000
,
0001
0000
0000
0000
,
0010
0010
0000
0000
,
0100
0100
0000
0000
,
0001
0000
1000
0000
,
0001
0000
0000
0000
,
1000
1000
0000
0000
,
0001
0000
0000
0000
,
0100
0000
0010
0000
,
1000
0000
0010
0000
,
0100
0000
0100
0000
,
0010
0000
0010
0000
,
1000
0000
0100
0000
,
1000
0000
0000
0000
,
0001
0000
0100
0000
,
0010
0000
1000
0000
,
0001
0000
0010
0000
,
0100
0000
0000
0000
,
0010
0010
0000
0000
,
0001
0000
0100
0000
,
1000
1000
0000
0000
,
0010
0000
0000
0000
,
1000
1000
0000
0000
,
0001
0001
0000
0000
,
0010
0000
0000
0000
,
0100
0000
0000
0000
;

//--------------- dance-single - ----------------
#NOTEDATA:;
#STEPSTYPE:dance-single;
#DESCRIPTION:;
#DIFFICULTY:Easy;
#METER:4;
#RADARVALUES:0.17481,0.221845,0.035213,0,0,139,135,4,0,0,0,0.17481,0.221845,0.035213,0,0,139,135,4,0,0,0;
#NOTES:
0000
0000
0000
0000
,
0000
0000
0000
0000
,
0000
0000
0000
0000
,
0000
0000
0000
0000
,
0000
0000
0000
0000
,
0010
1000
0000
0100
,
0000
0010
0000
0001
,
1000
0001
0100
0010
,
1001
0000
0000
0000
,
0000
0010
0010
0000
,
0100
0001
0100
0000
,
1000
0100
0010
0100
,
1000
0000
0001
0001
,
0000
0010
0010
0000
,
0100
1000
0100
0000
,
1000
0001
0100
0010
,
1000
0000
0001
0000
,
0010
0010
0010
0000
,
0100
0100
0100
0000
,
0001
0010
0001
0000
,
1000
0100
1000
0000
,
0001
0100
0010
0000
,
1000
0100
0010
0000
,
0001
0010
0100
1000
,
0010
0110
0000
0000
,
0100
0010
0000
1000
,
0000
0001
0000
0010
,
0100
0000
0010
0000
,
0001
0001
0000
0000
,
0001
0100
0000
0010
,
0000
1000
0000
0001
,
1000
0100
0010
0001
,
1001
0000
0000
0000
,
0100
0100
0000
1000
,
0000
0001
0000
0100
,
0000
0010
0000
1000
,
0010
0010
0000
0000
,
0100
0001
0000
1000
,
0000
0100
0000
0010
,
0001
0010
1000
0010
,
0001
0000
0100
0000
,
0010
0000
0100
0000
,
0001
0001
0001
0000
,
0100
0000
0001
0000
,
1000
0000
0000
0000
,
1000
1000
1000
0000
,
0100
0000
1000
0000
,
0010
0100
0001
1000
,
0010
0000
0000
0100
,
0100
0100
0000
0001
,
0000
1000
0000
0100
,
1000
1000
0000
0001
,
0010
0010
0000
0000
,
0010
0001
0000
0100
,
0000
0010
0000
1000
,
0001
1000
0010
0100
,
0110
0000
0000
0000
;

//--------------- dance-single - ----------------
#NOTEDATA:;
#STEPSTYPE:dance-single;
#DESCRIPTION:;
#DIFFICULTY:Medium;
#METER:7;
#RADARVALUES:0.316921,0.345092,0.096837,0,0.030812,252,241,11,0,0,0,0.316921,0.345092,0.096837,0,0.030812,252,241,11,0,0,0;
#NOTES:
0000
0000
0000
0000
,
0000
0000
0000
0000
,
0000
0000
0000
0000
,
0000
0000
0000
0000
,
0000
0000
0000
0000
,
1000
0000
1000
0100
0000
0100
0010
0001
,
0000
0001
1000
0010
0000
0010
0100
0000
,
0001
0100
0010
1000
0010
0100
0001
0000
,
1001
0000
0000
0000
,
0000
0010
0010
0000
,
0001
1000
0000
0010
0000
0010
0100
0000
,
0001
0100
0010
0000
1000
0100
0010
0001
,
1000
0000
0000
1000
0010
0000
0010
0000
,
0000
0000
0100
0100
0010
0000
0000
0000
,
1000
0010
0100
0001
0000
0001
0010
0000
,
0100
1000
0100
0000
0010
0001
0010
0000
,
0001
0000
1000
1000
,
0010
0000
0000
0010
0000
0000
0010
0000
0100
0000
0000
0000
0001
0000
0000
0000
,
1000
0000
0000
1000
0000
0000
0001
0000
0000
0000
0001
0000
0000
0000
0010
0000
,
0010
0010
0000
0100
1000
0100
1000
0001
,
0000
1000
0000
0010
0000
0000
0100
0000
,
0001
0000
0000
0001
0000
0000
0001
0000
0000
0000
0100
0000
0000
0000
0001
0000
,
1000
0000
0000
1000
0000
0000
1000
0000
0010
0000
0000
0000
0100
0000
0000
0000
,
0001
0010
0100
0000
1000
0100
0010
0001
,
1000
0000
1001
0000
0000
0000
0000
0010
,
0010
0000
0100
0001
0000
0001
1000
0100
,
0000
1000
0001
0010
0000
0000
0000
0100
,
0100
0000
1000
0010
0000
0100
0001
0010
,
0100
0000
0110
0000
0000
0000
0010
0001
,
1000
0000
0010
0100
0000
0001
0100
0010
,
0000
1000
0100
0010
0000
0001
0010
0010
,
0100
0010
0001
0000
0010
0100
1000
0000
,
1001
0000
0000
0000
0000
0000
0000
1000
,
1000
0000
0010
0010
0000
0000
0100
0100
,
0000
0000
0001
0001
0000
0000
0000
0010
,
0010
0000
0100
0100
0000
1000
1000
0000
,
1001
0000
0110
0000
0000
0000
0000
0100
,
0010
0000
0010
1000
0000
0000
1000
0001
,
0000
0000
0010
0100
0000
0100
0010
0000
,
0001
0010
0001
0000
1000
0010
1000
0000
,
0110
0000
0000
0000
0000
0000
0000
0100
,
0010
0000
0000
0010
0000
0000
0010
0000
1000
0000
0000
0000
0001
0000
0000
0000
,
1000
0000
0000
1000
0000
0000
0100
0000
0000
0000
0100
0000
0000
0000
0010
0000
,
0010
0010
0000
0001
0010
0001
1000
0010
,
0000
0100
0000
0000
0000
0000
0000
0100
,
0001
0000
0000
0001
0000
0000
1000
0000
0000
0000
1000
0000
0000
0000
0010
0000
,
0010
0100
0110
0000
,
1000
0001
1000
0000
0010
1000
0100
0010
,
0001
0000
1001
0000
0000
0000
0000
0001
,
0100
0000
0100
0010
0000
0010
1000
0100
,
0000
0100
0010
0001
0000
0000
0000
0001
,
1000
0000
1000
0010
0000
0010
0100
0001
,
1000
0000
1001
0000
0000
0000
0000
0001
,
0001
0000
1000
0100
0000
0100
1000
0010
,
0000
0100
0001
0010
0000
0010
0100
0000
,
1000
0000
0001
0000
0100
0010
0100
0000
,
0110
0000
0000
0000
;

//--------------- dance-single - ----------------
#NOTEDATA:;
#STEPSTYPE:dance-single;
#DESCRIPTION:;
#DIFFICULTY:Hard;
#METER:10;
#RADARVALUES:0.411243,0.41904,0.10564,0,0.096837,327,315,12,0,0,0,0.411243,0.41904,0.10564,0,0.096837,327,315,12,0,0,0;
#NOTES:
0000
0000
0000
0000
,
0000
0000
0000
0000
,
0000
0000
0000
0000
,
0000
0000
0000
0000
,
0000
0000
0000
0000
,
0001
0100
0001
0010
0000
0001
1000
0100
,
0000
1000
0001
0100
0000
0010
0010
0000
,
1000
0010
0100
0001
0100
0010
1000
0000
,
1001
0000
0000
0000
,
0000
0010
0010
0000
,
0001
0010
0000
0100
0000
0100
1000
0000
0000
0000
0001
0000
0001
0000
0000
0000
,
1000
0001
0100
0010
1000
0001
0010
0100
,
0010
0000
0100
1000
0100
0010
0001
0000
,
0000
0000
0000
0000
0010
0100
0000
0100
0000
0000
0010
0000
0000
0000
0010
0000
,
0001
0100
0000
0001
0000
1000
0100
0000
0000
0000
1000
0000
1000
0000
0000
0000
,
0010
1000
0010
1000
0001
0100
0001
0000
,
0010
0000
0001
0000
0010
0000
0000
0000
0100
1000
0001
0000
0010
0001
1000
0000
,
0001
0000
0000
0100
0000
0000
0100
0000
0010
0000
0000
1000
0000
0000
1000
0000
,
0100
0000
0000
0010
0000
0000
0010
0000
0000
0000
0001
0000
1000
0000
0001
0000
,
1000
0010
0100
0000
0001
0100
0010
1000
,
0001
0000
0001
0000
0010
0100
0010
0100
,
1000
0000
0000
0100
0000
0000
1000
0000
0000
0000
1100
0000
1000
0000
0100
0000
,
0010
0000
0000
0001
0000
0000
0001
0000
1000
0000
0000
1000
0000
0000
0010
0000
,
0100
0001
0100
0010
1000
0100
0010
0001
,
1000
0000
0001
0000
0000
0101
0101
0000
,
1000
0100
0010
0001
0000
0010
0100
1000
,
0000
0001
0100
0010
0000
1000
0010
0100
,
0001
0100
1000
0100
0000
0001
0010
1000
,
0010
0000
0110
0000
0100
0100
0100
1000
,
0100
1000
0001
0100
0000
0010
1000
0001
,
0000
0010
0001
1000
0000
0100
1000
0001
,
1000
1000
0001
0010
0010
0100
0100
0000
,
0010
0000
0010
0000
0000
0001
0001
1000
,
0001
0010
0100
1000
0000
1000
0010
0100
,
0000
0001
0100
1000
0000
0000
0100
0010
,
0100
0001
0010
0100
0000
1000
0100
0010
,
0001
0000
1100
0000
0000
1000
1000
0001
,
0100
0001
0010
0001
0000
0010
0010
0100
,
1000
0001
0100
0010
0000
1000
0010
0100
,
0001
1000
0100
0010
0001
1000
0010
0000
,
0101
0000
1100
0000
0010
0010
0000
0001
,
0001
0000
0000
0100
0000
0000
0001
0000
1000
0000
0000
0010
0000
0000
1000
0000
,
0100
0000
0000
0010
0000
0000
0001
0000
0000
0000
1000
0000
0000
0000
0010
0000
,
0100
0001
0100
0010
1000
0100
0010
0001
,
1000
0000
1001
0000
0000
0001
0001
1000
,
0010
0000
0000
0010
0000
0000
1000
0000
0000
0000
0010
0000
0100
0000
0001
0000
,
1000
0000
0000
1000
0000
0000
0100
0000
0001
0000
0000
0001
0000
0000
0010
0000
,
0100
1000
0001
0100
0010
1000
0010
0100
,
0001
0000
1001
0000
0000
1000
1000
0001
,
0100
0010
1000
0100
0000
0010
0001
0100
,
0000
0010
1000
0001
0000
0010
0000
0010
,
0001
1000
0100
0010
0000
0001
0100
0010
,
1000
0000
1100
0000
0001
0000
0100
0001
,
0001
0010
0100
0010
0000
0100
1000
0010
,
0000
0100
0001
0010
0000
0100
1000
0001
,
0100
0010
1000
0010
0100
0001
1000
0000
,
1001
0000
0000
0000
;
