#TITLE:The Sky of Sadness -vastitude remix-;
#SUBTITLE:;
#ARTIST:猫叉Master (remixed by PHQUASE);
#TITLETRANSLIT:;
#SUBTITLETRANSLIT:;
#ARTISTTRANSLIT:Nekomata Master (remixed by PHQUASE);
#GENRE:;
#CREDIT:;
#BANNER:The Sky of Sadness -vastitude remix-.png;
#BACKGROUND:The Sky of Sadness -vastitude remix--bg.png;
#LYRICSPATH:;
#CDTITLE:;
#MUSIC:The Sky of Sadness -vastitude remix-.ogg;
#OFFSET:0.000000;
#SAMPLESTART:83.055000;
#SAMPLELENGTH:15.000000;
#SELECTABLE:YES;
#BPMS:0.000000=160.000000
;
#STOPS:
;
#BGCHANGES:;
#KEYSOUNDS:;
#ATTACKS:;

//---------------dance-single - ----------------
#NOTES:
     dance-single:
     :
     Beginner:
     4:
     0.139491,0.228260,0.065581,0.072868,0.000000,134.000000,125.000000,9.000000,10.000000,0.000000,0.000000,0.139491,0.228260,0.065581,0.072868,0.000000,134.000000,125.000000,9.000000,10.000000,0.000000,0.000000:
0000
0000
0000
0000
,
0000
0000
0000
0000
,
0000
0000
0000
0000
,
0000
0000
0000
0000
,
1000
0000
0001
0000
,
0100
0000
0010
0000
,
0000
0000
0000
0000
,
0200
0000
0000
0000
,
0000
0000
0000
0000
,
0000
0000
0000
0000
,
0300
0000
0000
0000
,
0000
0000
0000
0000
,
0000
0010
0010
0010
,
0010
0000
0000
0001
,
0000
0000
0100
0000
,
0000
0001
0000
0000
,
1000
0000
0000
0001
,
0000
0000
1000
0000
,
0000
0010
0000
0000
,
0100
0000
0000
0100
,
0000
0000
0100
0000
,
0100
0100
0000
0000
,
0010
0000
0000
0010
,
0000
0000
0010
0000
,
0010
0010
0000
0000
,
2002
0000
0000
0000
,
0000
0000
0000
0000
,
0000
0000
0000
0000
,
3003
0000
0000
0000
,
0000
0000
0000
0001
,
0000
0001
0001
0001
,
0000
0000
1000
0000
,
1000
1000
1000
0000
,
0000
0010
0000
0010
,
0010
0010
0000
0000
,
0100
0000
0100
0100
,
0100
0000
0000
0001
,
0000
0010
0010
0010
,
0000
0000
0100
0000
,
1000
1000
1000
0000
,
0000
0001
0000
1000
,
1000
1000
0000
0000
,
0001
0000
0100
0100
,
0100
0000
0000
0220
,
0000
0000
0000
0000
,
0000
0000
0000
0000
,
0330
0000
0000
0002
,
0000
0000
0000
0000
,
0000
0000
0000
0000
,
0003
0000
0000
1000
,
0000
0000
1000
0000
,
0000
1000
0000
0000
,
0000
0000
0000
0001
,
0000
0000
0001
0000
,
0000
0001
0000
0000
,
0001
0000
0000
0010
,
0010
0000
0001
0001
,
0000
0010
0010
0000
,
0001
0001
0000
1000
,
0000
0000
0010
0000
,
0000
1000
0000
0000
,
0001
0000
0000
0100
,
0100
0000
1000
1000
,
0000
0100
0100
0000
,
1000
1000
0000
0001
,
0000
0000
0100
0000
,
1000
1000
0000
0000
,
0010
0000
0000
2002
,
0000
0000
0000
0000
,
3003
0000
0000
0000
,
0000
0000
0000
0100
,
0000
0000
0100
0000
,
0000
0010
0000
0000
,
0010
0000
0010
0010
,
0000
0001
0001
0000
,
0100
0100
0000
0001
,
0001
0000
0000
1000
,
0000
0000
0001
0000
,
0000
0010
0010
0000
,
0100
0100
0000
0010
,
0010
0000
0110
0000
,
0000
0001
0000
0000
,
0100
0000
0000
1000
,
0000
0000
1001
0000
,
0000
0110
0000
0000
,
1001
0000
0000
0110
,
0000
0000
2002
0000
,
0000
0000
0000
0000
,
0000
0000
0000
3003
,
0000
1000
1000
0000
;

//---------------dance-single - ----------------
#NOTES:
     dance-single:
     :
     Easy:
     8:
     0.303965,0.422727,0.233178,0.225892,0.000000,292.000000,260.000000,32.000000,31.000000,0.000000,0.000000,0.303965,0.422727,0.233178,0.225892,0.000000,292.000000,260.000000,32.000000,31.000000,0.000000,0.000000:
0000
0000
0000
0000
,
0000
0000
0000
0000
,
0000
0000
0000
0000
,
0000
0000
0000
0000
,
1000
0000
0100
0000
,
0010
0000
0001
0000
,
0000
0000
0000
1000
,
2002
0000
0000
0000
,
0000
0000
0000
0000
,
0000
0000
0000
0000
,
3003
0000
0000
0000
,
0000
0000
0000
0000
,
0000
0000
0100
0000
0000
0100
0000
0000
,
1001
1000
0100
0001
,
0001
0100
1000
1000
,
0010
0001
0001
0010
,
1100
0010
0001
0101
,
0010
1000
0110
1000
,
0100
0000
0110
0000
0001
1000
0000
0000
,
1100
1000
0010
0101
,
0001
0010
0011
0001
,
0100
1010
1000
0100
,
1001
1000
0010
1001
,
0001
0100
0110
1000
,
0100
0000
0110
0000
0001
1000
0100
0000
,
2002
0000
0000
0000
,
0000
0000
0000
0000
,
0000
0000
0000
0000
,
3003
0000
0000
0000
,
0000
0200
0000
0310
,
0010
0000
0001
1000
0000
1000
0100
0000
,
0010
0010
0001
0001
,
1000
0001
0000
0001
0100
0000
0010
0000
,
0010
0000
1000
0000
1000
0000
0001
0100
,
0000
0100
0010
0000
0010
0000
1000
0000
,
0100
0000
0100
0000
0010
0100
0000
0100
,
1000
1000
0001
1001
,
1000
0000
0001
0010
0000
0100
0010
0000
,
0001
0100
0010
0010
,
1000
0100
0000
0010
0001
0000
0001
0000
,
1000
0000
1001
0000
0100
0000
0010
0100
,
0000
0001
0100
0000
0010
0000
1000
0000
,
0100
0000
0100
0000
0010
0100
0000
1000
,
0100
0010
0001
1002
,
0000
0000
0023
0000
,
0000
0230
0000
0000
,
2000
0000
3300
2000
,
0000
0000
3020
0000
,
0000
0230
0000
0000
,
0302
0000
0000
0013
,
0010
0010
0100
0100
,
0100
1000
1000
1000
,
0001
0001
0001
1000
,
0010
1000
0001
0100
,
0001
0100
0010
0100
,
2002
0000
0000
0000
3003
0000
0010
0100
,
0000
0100
0010
0000
0100
0000
0100
0000
,
0001
0000
1000
0010
0000
0010
1000
0000
,
0001
0010
0100
2020
,
0000
3030
0022
0000
,
0033
0220
0000
0330
,
1000
0000
1000
0000
0001
0000
1000
0001
,
0000
0001
0010
0000
0001
1000
0000
1000
,
0100
0000
1000
0100
0000
0100
0010
0000
,
0001
0100
0000
0100
0010
0000
2020
0000
,
0000
3030
0100
0100
,
0001
0000
0010
0000
0010
0000
0100
0010
,
0200
0000
0000
0310
,
0000
0000
0000
0000
,
0000
0000
0000
0000
,
0000
0000
0000
0200
,
0000
0000
0320
0000
,
0000
2030
0000
0000
,
3002
0023
0130
0110
,
0010
0000
0100
1000
0010
0000
0010
0000
,
0100
0001
0010
0000
0010
0000
0001
0000
,
1000
0000
1000
0000
0010
0100
0002
0000
,
0000
0000
0013
0100
1000
0000
0001
0000
,
0100
0001
0100
0100
,
0110
0000
0000
1001
0000
0000
1100
0000
,
0000
0011
0000
0000
0010
0000
0010
0000
,
0010
0001
0001
0001
,
1000
1000
1000
0010
,
0010
0000
0100
0010
1000
0000
1000
0000
,
1100
0001
0001
0101
,
0010
0010
1100
0100
,
0100
0011
2000
0000
,
0000
0000
0000
0000
,
0000
0000
0000
0000
,
0000
3010
0000
0000
;

//---------------dance-single - ----------------
#NOTES:
     dance-single:
     :
     Medium:
     11:
     0.396611,0.521008,0.080155,0.189457,0.036434,381.000000,370.000000,11.000000,26.000000,0.000000,0.000000,0.396611,0.521008,0.080155,0.189457,0.036434,381.000000,370.000000,11.000000,26.000000,0.000000,0.000000:
0000
0000
0000
0000
,
0000
0000
0000
0000
,
0000
0000
0000
0000
,
0000
0000
0000
0000
,
0001
0000
0000
1000
0000
0000
0100
0000
,
0000
0100
0010
0000
0001
0000
0000
0000
,
0000
0000
0000
0000
0000
0010
0001
1000
,
0200
0000
0000
0000
,
0000
0000
0000
0000
,
0000
0000
0000
0000
,
0300
0000
0000
0000
,
0000
0000
0000
0000
,
0000
0000
0000
0000
0000
0000
0010
0000
0000
0000
0010
0000
0000
0000
0100
0000
0000
0000
0100
0000
0000
0001
0000
0000
,
1000
0000
1000
0000
0100
0010
0001
0000
,
0001
0000
0010
0100
1000
0000
1000
0000
,
1000
0001
0100
0000
0100
0000
0100
0010
,
1001
0000
0001
0000
0001
0010
0100
0000
,
0100
0000
0100
1000
0001
0000
0001
0100
,
0010
1000
0010
0100
0001
1000
0000
0000
,
0100
1000
0000
0100
1000
0000
0001
0100
,
0000
0001
0100
0000
0010
1000
0000
0010
,
1000
0000
0001
0010
0000
0001
0010
0000
,
0011
0001
0000
0010
0001
0000
1000
0010
,
0000
1000
0010
0000
0100
0001
0000
0100
,
0001
0000
1000
0100
0000
1000
0100
0010
,
0002
0000
0000
0000
,
0000
0000
2000
0000
,
0000
0000
0000
0000
,
3003
0000
0000
0000
,
0000
0000
0020
0000
0000
0000
0130
0001
,
0100
0000
0100
0010
1000
0001
0010
0000
,
0010
0100
0010
0000
0001
0010
0001
0000
,
0001
0100
0010
1000
0001
0000
0001
0100
,
0001
0000
1000
0001
1000
0000
1000
0100
,
0010
0001
0100
0000
0100
0010
1000
0000
,
0001
0010
0001
0000
0001
0100
0010
1000
,
0100
0010
0100
0010
0001
0000
1001
0100
,
0001
0000
0100
0010
1000
0001
1000
0000
,
0010
0100
0001
0000
1000
0100
0010
0000
,
0100
0010
0001
0010
0001
0010
0100
1000
,
0001
0000
1000
0010
0100
0000
1000
0010
,
0100
0001
0010
0000
0001
1000
0010
0000
,
1000
0001
0100
0000
0100
0010
1000
0100
,
0010
0001
0010
0100
1000
0000
0012
0000
,
0000
0103
0200
0000
,
0010
0320
0000
1000
,
2000
0000
3030
2000
,
0000
0010
3020
0000
,
0100
0230
0000
0001
,
0001
0010
0310
1000
,
1000
1000
0010
0010
,
0010
0100
0100
0100
,
0001
0000
0001
0000
0001
0000
1000
0010
,
1000
0010
0100
0000
0001
0010
0001
0010
,
0100
0000
0010
0001
0010
0001
0100
0010
,
1000
0002
0000
0000
0000
0000
1003
0010
,
0001
0010
1000
0000
1000
0100
0001
0100
,
1000
0000
0001
0100
1000
0100
0001
0000
,
0001
0010
1000
0010
0001
0000
0220
0000
,
0330
1000
0100
0010
2002
0000
3003
0001
,
0100
0010
0220
0000
0330
1000
0010
0100
,
0001
0000
0000
0001
0000
0000
1000
0000
0000
1000
0000
0000
0010
0000
1000
0000
,
0100
1000
0010
0000
0100
0001
0010
0001
,
0100
0000
0010
1000
0001
1000
0100
0000
,
0010
0001
1000
0001
0100
0000
2020
0000
,
3030
0000
1000
0000
0001
0000
0010
0000
0100
0000
0000
0100
0000
0000
0010
0000
,
0000
0010
0000
0000
0001
0000
1000
0000
0010
0000
0100
0000
0010
0000
1000
0000
,
0002
0000
0000
1003
,
0000
0000
0000
0000
,
0000
0000
0000
0000
,
0000
0000
0000
2000
,
0000
0000
3002
0000
,
0000
0203
0000
0000
,
0310
1000
0001
1001
,
0100
1000
0010
0100
0001
0000
0010
0001
,
0100
0010
1000
0000
1000
0000
0001
0010
,
0100
0000
1000
0001
0100
0000
0020
0000
,
0000
0000
0000
0000
0130
0000
0100
0000
0001
0000
0000
0001
0000
0000
1000
0000
,
0000
1001
0000
0000
0010
0000
0000
0000
0100
0000
0001
0000
0100
0000
0001
0000
,
0100
0000
0000
0001
0000
0000
0001
0000
1000
0000
0000
0000
0010
0000
0000
0010
,
0000
1000
0001
0000
0010
0000
0010
0000
,
0010
0100
1000
0000
1000
0000
1000
0001
,
0100
0000
0100
0000
0100
0010
1000
0000
,
0001
1000
1001
0001
,
0001
0010
0100
0000
0100
0000
0100
1000
,
0001
0000
0001
0000
1000
0001
0010
0000
,
0100
1000
0002
0000
,
0000
0000
0000
0000
,
0000
0000
0000
0000
,
0000
0000
0103
0010
0000
0000
0000
0000
;

//---------------dance-single - ----------------
#NOTES:
     dance-single:
     :
     Hard:
     15:
     0.628749,0.782058,0.291473,0.189457,0.473644,604.000000,564.000000,40.000000,26.000000,0.000000,0.000000,0.628749,0.782058,0.291473,0.189457,0.473644,604.000000,564.000000,40.000000,26.000000,0.000000,0.000000:
// measure 0
0000
0000
0000
0000
,  // measure 1
0000
0000
0000
0000
,  // measure 2
0000
0000
0000
0000
,  // measure 3
0000
0000
0000
0000
,  // measure 4
0100
0000
0000
0010
0000
0000
1000
0000
,  // measure 5
0000
1000
0100
0000
0010
0000
0001
1000
,  // measure 6
0000
0000
0000
0000
0000
1000
0001
0100
,  // measure 7
0220
0000
0000
0000
,  // measure 8
0000
0000
0000
0000
,  // measure 9
0000
0000
0000
0000
,  // measure 10
0330
0000
0000
0000
,  // measure 11
0000
0000
0000
0000
,  // measure 12
0000
0000
0000
0000
0000
0000
1000
0000
0100
0000
0001
0000
1000
0000
0010
0000
0001
0000
1000
0000
0000
0010
0000
0000
,  // measure 13
0100
0001
0000
0010
0001
0000
0100
0000
0010
0000
1000
0000
0001
0010
0000
0100
,  // measure 14
1000
0000
0001
0000
0100
0000
1000
0000
0100
0001
0000
0100
0001
0000
0010
0000
,  // measure 15
1000
0000
0010
0000
0001
0010
0000
0001
0010
0000
0100
0000
1000
0000
0010
0000
,  // measure 16
1001
0000
0000
0001
0100
0000
0010
0000
1000
0000
0100
0000
1001
0000
0000
1000
,  // measure 17
0100
0000
0010
0000
0001
0000
0100
0000
1001
0000
0000
1000
0010
0000
0100
0000
,  // measure 18
0001
0000
0010
0000
0100
0010
0000
0001
0100
0000
0001
0000
0000
0000
0000
0000
,  // measure 19
1000
0010
0000
1000
0010
0000
1000
0000
0100
0000
0010
0000
0100
1000
0000
0100
,  // measure 20
1000
0000
0010
0000
0100
0000
0010
0000
1000
0100
0000
1000
0100
0000
0001
0000
,  // measure 21
0100
0000
1000
0000
0010
0100
0000
0010
0100
0000
0001
0000
0100
0000
0010
0000
,  // measure 22
1000
0001
0000
0001
1000
0000
0100
0000
0010
0000
0001
0000
1000
0010
0000
0010
,  // measure 23
1000
0000
0010
0000
0100
0000
0001
0000
0100
0010
0000
0010
1000
0000
0010
0100
,  // measure 24
0001
0000
0000
0000
0000
0000
0010
0000
0000
0001
0000
0000
1000
0000
0000
0000
0100
0000
0000
0000
0001
0000
0000
0000
1000
0000
0000
0000
0010
0000
0000
0000
0001
0000
0000
0000
0100
0000
0000
0000
0010
0000
0000
0000
1000
0000
0000
0000
,  // measure 25
2002
0000
0000
0000
,  // measure 26
0000
0000
0000
0000
,  // measure 27
0000
0000
0000
0000
,  // measure 28
3003
0000
0000
0000
,  // measure 29
0000
0000
0200
0000
0000
0300
0101
0001
,  // measure 30
0001
0000
1000
0000
1000
0000
1000
0000
0010
1000
0010
1000
0001
0000
0001
0000
,  // measure 31
0001
0010
0010
0010
1100
1000
1000
0001
,  // measure 32
0001
0000
0001
0000
0100
0010
1000
0010
1000
0000
0001
0000
0010
0000
1000
0000
,  // measure 33
0010
0001
0110
0010
0010
1000
1000
1000
,  // measure 34
0100
0010
0100
0010
0001
0000
1000
0000
0010
0000
1000
0000
0001
0000
0100
0000
,  // measure 35
1010
0000
1000
0000
1000
0000
0001
0000
0001
0000
0001
0000
0010
0100
1000
0100
,  // measure 36
0010
0001
0100
1010
0000
0001
1001
1000
,  // measure 37
1000
0000
0010
0000
0010
0000
0100
0000
0001
0010
0100
0010
0001
0000
0001
0000
,  // measure 38
0010
0010
0100
0100
1100
1000
1000
0001
,  // measure 39
0001
0000
0100
0000
0010
0100
0001
1000
0100
0000
0100
0000
0010
0000
0001
0000
,  // measure 40
1000
1000
0011
0001
1000
1010
1000
0001
,  // measure 41
0100
0010
0100
0010
1000
0000
0100
0000
0001
0000
0100
0000
1000
0000
0100
0000
,  // measure 42
0011
0000
0001
0000
1000
0000
1010
0000
1000
0000
0001
0000
0100
0010
0100
0010
,  // measure 43
1000
0000
0000
0000
0000
0000
0000
0000
0000
0010
0000
0000
0000
0000
0000
0000
0000
0000
0001
0000
0000
0010
0000
0000
1000
0000
0000
0000
0001
0000
0000
0000
0010
0000
0000
0000
0200
0000
0000
0000
0000
0000
0000
0000
0000
0000
0000
0000
,  // measure 44
0000
0000
1300
0100
2000
0000
0000
0000
,  // measure 45
3001
0100
0002
0000
0000
0000
0013
0001
,  // measure 46
0020
0000
0030
0200
,  // measure 47
0000
0000
1300
0001
2000
0000
0000
0000
,  // measure 48
3001
0100
0002
0000
0000
0000
0103
0010
,  // measure 49
0100
0000
0000
0100
0000
0000
0100
0000
0001
0000
1000
0000
0001
0000
0000
0000
,  // measure 50
0001
0000
0010
0100
1000
0000
1000
0000
,  // measure 51
0010
0100
0001
0000
0001
0000
0100
0010
,  // measure 52
1000
1000
0001
1000
,  // measure 53
1000
0000
0001
1000
0100
0000
0100
0000
,  // measure 54
1000
0001
0100
0010
0100
0010
1000
0010
,  // measure 55
0100
0000
0001
0000
0100
0000
0010
1000
0001
0010
0100
1000
0100
0001
0100
0000
,  // measure 56
0010
0000
0100
0000
1000
0000
0010
0000
0100
0010
0100
0000
0010
0000
0001
0000
,  // measure 57
0010
0000
1000
0000
0001
0010
0001
0000
0010
0000
0100
0000
1000
0000
0001
0000
,  // measure 58
0100
1000
0100
0000
0001
0000
1000
0001
1000
0000
0001
0000
0220
0000
0000
0000
,  // measure 59
0330
0000
0001
0000
1000
0100
1000
0000
0022
0000
0000
0000
0033
0000
0001
0000
,  // measure 60
1000
0100
1000
0000
0202
0000
0000
0000
0303
0000
0010
0000
0100
0010
0100
0010
,  // measure 61
1000
0000
0000
0101
0000
0000
0011
0000
0000
1100
0000
0000
0001
0100
0010
0000
,  // measure 62
1000
0000
0001
0000
0010
0000
0100
0000
1000
0100
0001
0000
0100
0000
1000
0000
,  // measure 63
0010
0000
0100
0000
0001
0010
1000
0000
0010
0000
0001
0000
0100
0000
0010
0000
,  // measure 64
1000
0010
1000
0000
0100
0000
0010
0001
0010
0000
0100
0000
2200
0000
0000
0000
,  // measure 65
3300
0000
0010
0000
0100
1000
0001
0100
0010
0000
0000
1010
0000
0000
0101
0000
,  // measure 66
0000
1100
0000
0000
1001
0000
0001
0000
0001
0000
1000
0000
0010
1000
0010
1000
,  // measure 67
0200
0000
0000
0310
,  // measure 68
0000
0000
0000
0000
,  // measure 69
0000
0000
0000
0000
,  // measure 70
0000
0000
0000
0002
,  // measure 71
0003
0001
1000
1000
2000
0000
3000
1000
,  // measure 72
0010
0010
0020
0000
0030
0010
0100
0100
,  // measure 73
0100
0000
0000
0101
0000
0000
1010
0000
0000
0011
0000
0000
1100
0000
1000
0000
,  // measure 74
0010
0000
0100
0000
0001
0100
0001
0100
1000
0000
0100
0000
0001
0000
0010
0000
,  // measure 75
0100
0010
0100
0010
0001
0000
0000
0001
0000
0000
1000
0000
0010
0000
0010
1000
,  // measure 76
0100
0000
0001
0000
0100
0000
1000
0000
0010
1000
0001
0100
0020
0000
0000
0000
,  // measure 77
1030
0000
0001
0000
0010
1000
0010
0001
0010
0000
0000
0011
0000
0000
1000
0000
,  // measure 78
0000
1010
0000
0000
0101
0000
0010
0100
0010
0000
0010
0000
1000
0001
1000
0001
,  // measure 79
0100
0000
0000
0101
0000
0000
0001
0000
1100
0000
1000
0100
1000
0000
0000
1001
,  // measure 80
0000
0000
0001
0000
0000
0000
0100
0010
1000
0010
0000
1000
0010
0000
0100
0000
,  // measure 81
0001
0000
0010
0000
0100
0010
0000
0100
0010
0000
0001
0000
0100
0000
0010
0000
,  // measure 82
1000
0001
0000
1000
0001
0000
0010
0000
0100
0000
1000
0000
0001
0100
0000
0001
,  // measure 83
0100
0000
0010
0000
1000
0000
0001
0000
1000
0001
0000
0001
1000
0000
0010
0000
,  // measure 84
0100
0000
0110
0000
0100
0010
0000
0010
0100
0000
0010
0000
1000
0000
1010
0000
,  // measure 85
1000
0000
0000
0001
0000
0000
0000
0000
0000
0001
0000
0000
0010
0000
0000
0000
0000
0000
0011
0000
0000
0000
0000
0000
0001
0000
0000
0000
0000
0000
1000
0000
0000
0010
0000
0000
0100
0000
0000
0000
0001
0000
0000
0000
1000
0000
0000
0000
,  // measure 86
0100
0010
0001
1000
0010
0100
0002
0000
0000
0000
0000
0000
,  // measure 87
0000
0000
0000
0000
,  // measure 88
0000
0000
0000
0000
,  // measure 89
0003
0000
0010
0100
1000
0001
0100
0010
0000
0000
0000
0000
0000
0000
0000
0000
;
