#VERSION:0.83;
#TITLE:Tala;
#SUBTITLE:;
#ARTIST:Sarah Geronimo;
#TITLETRANSLIT:;
#SUBTITLETRANSLIT:;
#ARTISTTRANSLIT:;
#GENRE:;
#ORIGIN:;
#CREDIT:;
#BANNER:Tala.png;
#BACKGROUND:Tala-bg v2.png;
#PREVIEWVID:;
#JACKET:Tala-jacket.png;
#CDIMAGE:;
#DISCIMAGE:Tala v2.png;
#LYRICSPATH:;
#CDTITLE:;
#MUSIC:Tala.ogg;
#OFFSET:-0.040000;
#SAMPLESTART:69.822998;
#SAMPLELENGTH:15.000000;
#SELECTABLE:YES;
#BPMS:0.000=98.000;
#STOPS:;
#DELAYS:;
#WARPS:;
#TIMESIGNATURES:0.000=4=4;
#TICKCOUNTS:0.000=4;
#COMBOS:0.000=1;
#SPEEDS:0.000=1.000=0.000=0;
#SCROLLS:0.000=1.000;
#FAKES:;
#LABELS:0.000=Song Start;
#BGCHANGES:0.000=Tala.avi=1.000=0=0=1=====,
99999=-nosongbg-=1.000=0=0=0 // don't automatically add -songbackground-
;
#KEYSOUNDS:;
#ATTACKS:
;

//---------------dance-single - ----------------
#NOTEDATA:;
#CHARTNAME:;
#STEPSTYPE:dance-single;
#DESCRIPTION:;
#CHARTSTYLE:;
#DIFFICULTY:Beginner;
#METER:1;
#RADARVALUES:0.062537,0.100506,0.000000,0.089338,0.000000,49.000000,49.000000,0.000000,10.000000,0.000000,0.000000,0.000000,0.000000,0.000000,0.062537,0.100506,0.000000,0.089338,0.000000,49.000000,49.000000,0.000000,10.000000,0.000000,0.000000,0.000000,0.000000,0.000000;
#CREDIT:;
#NOTES:
0000
0000
0000
0000
,
0000
0000
0000
0000
,
0000
0000
0000
0000
,
0000
0000
0000
0000
,
0000
0000
0000
0000
,
1000
0000
0000
0000
,
0100
0000
0000
0000
,
0010
0000
0000
0000
,
0001
0000
0000
0000
,
0100
0000
0000
0000
,
0010
0010
0000
0000
,
0001
0000
0000
0000
,
1000
0000
0000
0000
,
0010
0000
0000
0000
,
0100
0100
0000
0000
,
0001
0000
0000
0000
,
1000
0000
0000
0000
,
0020
0000
0000
0000
,
0030
0000
0000
0000
,
0200
0000
0000
0000
,
0300
0000
0000
0000
,
1000
0000
0000
0000
,
0100
0100
0000
0000
,
0001
0000
0000
0000
,
0010
0010
0000
0000
,
0001
0000
0000
0000
,
1000
1000
0000
0000
,
1000
0000
0000
0000
,
0010
0000
0100
0000
,
0001
0000
0001
0000
,
0001
0000
0000
0000
,
0010
0000
0010
0000
,
0010
0000
0000
0000
,
0100
0000
0100
0000
,
0100
0000
0000
0000
,
1000
0000
1000
0000
,
1000
0000
0000
0000
,
2000
0000
3000
0000
,
0200
0000
0300
0000
,
0020
0000
0030
0000
,
0002
0000
0003
0000
,
0002
0000
0003
0000
,
0200
0000
0300
0000
,
0020
0000
0030
0000
,
2000
0000
3000
0000
,
0001
0000
0000
0000
;

//---------------dance-single - ----------------
#NOTEDATA:;
#CHARTNAME:;
#STEPSTYPE:dance-single;
#DESCRIPTION:;
#CHARTSTYLE:;
#DIFFICULTY:Easy;
#METER:3;
#RADARVALUES:0.150599,0.179905,0.017868,0.017868,0.000000,118.000000,116.000000,2.000000,2.000000,0.000000,0.000000,0.000000,0.000000,0.000000,0.150599,0.179905,0.017868,0.017868,0.000000,118.000000,116.000000,2.000000,2.000000,0.000000,0.000000,0.000000,0.000000,0.000000;
#CREDIT:;
#NOTES:
0000
0000
0000
0000
,
0000
0000
0000
0000
,
0000
0000
0000
0000
,
0000
0000
0000
0000
,
0000
0000
0000
0000
,
1000
0000
1000
0000
,
0001
0000
0001
0000
,
0100
0000
0010
0000
,
1000
0010
0100
0001
,
0010
0000
0100
0000
,
0010
0010
0001
0000
,
1000
0000
0001
0000
,
1000
1000
0100
0000
,
0001
0000
0010
0000
,
0001
0100
0100
0000
,
1000
0000
0001
0000
,
1000
0010
0010
0000
,
2000
0000
0000
0000
,
3002
0000
0000
0000
,
0103
0000
0010
0000
,
1000
0010
0100
0001
,
1001
0000
0100
0000
,
0001
0010
0100
1000
,
0001
0000
1000
0000
,
1000
0010
0100
0001
,
0110
0000
0100
0000
,
0001
0100
0010
1000
,
0100
0000
0010
0000
,
0001
0010
0100
1000
,
0100
0100
1000
1000
,
0010
0010
0100
0100
,
0001
0100
0010
1000
,
0010
0100
0001
0000
,
1000
1000
0001
0001
,
0010
0010
0100
0000
,
1000
0100
0010
0001
,
0010
0100
1000
0001
,
0100
0100
0010
0000
,
0010
0010
1000
0000
,
1000
1000
0100
0000
,
0001
0001
0010
0000
,
0100
1000
0010
0000
,
0100
0001
0010
0000
,
0001
0000
1000
0000
,
0010
1000
0001
0100
;

//---------------dance-single - ----------------
#NOTEDATA:;
#CHARTNAME:;
#STEPSTYPE:dance-single;
#DESCRIPTION:;
#CHARTSTYLE:;
#DIFFICULTY:Medium;
#METER:7;
#RADARVALUES:0.259081,0.280634,0.026802,0.017868,0.022335,203.000000,200.000000,3.000000,2.000000,0.000000,0.000000,0.000000,0.000000,0.000000,0.259081,0.280634,0.026802,0.017868,0.022335,203.000000,200.000000,3.000000,2.000000,0.000000,0.000000,0.000000,0.000000,0.000000;
#CREDIT:;
#NOTES:
0000
0000
0000
0000
,
0000
0000
0000
0000
,
0000
0000
0000
0000
,
0000
0000
0000
0000
,
0000
0000
0000
0000
,
0000
0001
0001
1000
,
1000
0000
0100
0000
0100
0000
0010
0001
,
0010
0000
0000
0001
1000
0000
0000
1000
,
0100
0000
0000
0000
0100
0000
0000
0000
1000
0000
0000
0010
0000
0000
0100
0000
,
0001
0001
1000
0100
,
1000
1000
0000
1000
0001
0001
0000
0001
,
0100
0000
0000
0100
0010
0100
0010
0000
,
1000
0000
0000
0001
0010
0001
0010
0000
,
0100
0010
0001
1000
,
0010
0010
0000
1000
1000
1000
0000
0010
,
0100
0000
0100
0001
0100
0001
0010
0000
,
0100
0000
0000
0100
1000
0100
1000
0000
,
1002
0000
0010
0010
,
0100
0000
0000
0000
0100
0000
0000
0000
0010
0000
0000
0013
0000
0000
0000
0000
,
2000
0000
0000
0001
0000
0000
0100
0000
0100
0000
0000
0000
3010
0000
0000
0000
,
1000
0010
0100
0001
0100
0010
1000
0000
,
0011
0000
0100
1000
,
0001
0010
0001
0000
0100
0001
0100
0010
,
1000
0000
0000
1000
0001
0000
0001
0000
,
0010
0100
1000
0000
0010
0100
0001
0100
,
0010
0000
0000
0000
1000
1000
0000
0000
,
0100
1000
0010
0100
0001
0010
0100
0000
,
1000
0000
0000
1000
0001
0001
0100
0000
,
0001
0100
0001
1000
0010
1000
0100
0000
,
0110
0010
0001
0001
,
0100
0000
0100
0000
0010
0000
1000
0010
,
1000
0000
1000
1000
0100
0000
0100
0100
,
0010
0000
0010
0010
0001
0000
1000
0000
,
0010
0010
0100
0000
0001
0000
0001
0000
,
1000
0000
1000
0000
0100
0000
0010
0100
,
0010
0000
0001
0010
0001
0000
0100
0001
,
0100
0000
0000
0000
0010
0000
1000
0000
0010
0000
0000
0010
0000
0000
0010
0000
,
1000
0100
1000
0100
0001
0000
0000
0000
,
0001
0010
0001
0010
1000
0000
0000
0000
,
0100
0100
0010
0010
,
0001
0000
0100
0000
0010
0010
1000
0000
,
1000
0010
0100
0010
1000
0000
0000
0000
,
0001
0100
0010
0100
0001
0000
0000
0000
,
1000
1000
0001
0001
,
0010
0000
0000
0000
0010
0000
0000
0000
0100
0000
0000
0100
0000
0000
1000
0000
;

//---------------dance-single - ----------------
#NOTEDATA:;
#CHARTNAME:;
#STEPSTYPE:dance-single;
#DESCRIPTION:;
#CHARTSTYLE:;
#DIFFICULTY:Hard;
#METER:11;
#RADARVALUES:0.405851,0.420951,0.053603,0.008934,0.544964,318.000000,312.000000,6.000000,1.000000,0.000000,0.000000,0.000000,0.000000,0.000000,0.405851,0.420951,0.053603,0.008934,0.544964,318.000000,312.000000,6.000000,1.000000,0.000000,0.000000,0.000000,0.000000,0.000000;
#CREDIT:;
#NOTES:
// measure 0
0000
0000
0000
0000
,  // measure 1
0000
0000
0000
0000
,  // measure 2
0000
0000
0000
0000
,  // measure 3
0000
0000
0000
0000
,  // measure 4
0000
0000
0000
0000
,  // measure 5
0000
0001
0100
0100
,  // measure 6
0010
0000
0010
0000
1000
0000
0001
1000
,  // measure 7
0100
0000
0000
0100
0010
0000
0000
0001
1000
0000
0000
0010
0100
0000
0000
0001
,  // measure 8
0100
0000
0000
0010
1000
0000
0000
1000
0001
0000
0000
0100
0000
0000
0010
0000
,  // measure 9
0010
0000
0000
1000
0010
0000
0000
1000
0010
0000
0000
0100
0001
0000
0000
1000
,  // measure 10
0100
1000
0100
0000
0000
0000
0000
0010
0001
0010
0001
0000
0000
0000
0000
0000
,  // measure 11
1000
0000
0000
0000
0100
0000
1000
0001
0000
0001
0000
0100
0000
0000
0001
0000
,  // measure 12
0010
0000
0000
0000
0100
1000
0100
1000
0000
0010
0000
0010
0000
0000
0100
0000
,  // measure 13
0001
0000
0000
0001
0010
0000
0000
0010
0100
0000
0000
0100
1000
0000
0000
1000
,  // measure 14
0010
1000
0010
0000
0000
0000
1000
0001
0100
0001
0100
0000
0000
0000
0000
0000
,  // measure 15
0010
0000
0000
0000
0100
0010
0000
1000
0000
1000
0000
0001
0000
0001
0000
0000
,  // measure 16
0010
0000
0000
0100
1000
0100
0000
0010
0000
0010
0000
0001
0000
0001
0000
0000
,  // measure 17
1001
0000
0000
0000
0010
0100
0000
2000
0000
0000
0000
0010
0000
0010
0000
0100
,  // measure 18
0000
0100
0000
0001
0000
0100
0000
0001
0000
0000
3001
0000
0000
0000
0010
0000
,  // measure 19
0100
0000
0100
0000
1000
0000
0010
0100
0000
0001
0000
0001
0000
0000
1000
0000
,  // measure 20
0001
0010
0010
0100
0100
1000
1000
0001
,  // measure 21
1001
0000
0100
0000
0010
0010
1000
0010
,  // measure 22
0100
0000
0000
0100
0001
0000
0001
1000
0000
0000
0001
0000
0010
0000
0100
1000
,  // measure 23
0010
0000
0000
1000
0100
0000
0000
1000
0001
0000
0000
0100
0010
0000
0000
1000
,  // measure 24
0100
0000
0000
0010
0001
0000
0000
0001
0100
0000
0010
1000
0010
0000
0100
0000
,  // measure 25
1001
0000
0001
0000
0010
0010
0000
0100
,  // measure 26
0010
0000
0000
0010
0001
0000
0001
0000
1000
0000
1000
0000
0100
0000
1000
0010
,  // measure 27
0100
0000
0000
0001
0100
0000
0000
0010
1000
0000
0001
0000
0010
0100
0010
0000
,  // measure 28
0001
0001
1000
1000
0010
0100
0110
0000
,  // measure 29
1001
0000
0000
1000
0010
0000
0000
0100
0001
0000
0000
0010
0100
0000
0000
1000
,  // measure 30
0100
0000
0000
0010
0001
0000
1000
0010
0100
0000
0001
0100
0000
0000
0010
1000
,  // measure 31
0001
0000
0000
0010
0100
0000
0000
0010
1000
0000
0000
0010
0001
0000
0000
0100
,  // measure 32
1000
0000
0000
0100
0001
0000
0000
0100
0010
0000
0000
0100
0001
1000
0001
0000
,  // measure 33
1000
1000
0000
0000
0010
0000
0000
0010
0100
0000
0000
0001
0010
0000
0000
0100
,  // measure 34
1000
0000
0000
0001
0100
0000
0000
0010
1000
0000
1000
0001
0000
0000
1000
0100
,  // measure 35
0010
0000
0000
0001
0010
0000
0000
1000
0010
0000
0000
0001
0100
0000
0000
0010
,  // measure 36
1000
0000
0000
1000
0100
0000
0000
0100
0010
0000
0010
0001
0000
0000
1000
0000
,  // measure 37
0010
1000
0001
0100
0010
1000
0010
0000
,  // measure 38
1000
0000
0100
0000
0010
0000
0001
0000
1000
0000
0010
0000
0100
0000
0001
0010
,  // measure 39
0001
0000
0000
0100
0010
0000
0000
0100
0001
0000
0000
1000
0100
0000
0000
0010
,  // measure 40
0001
0000
0000
1000
0010
0000
0000
0100
0001
0000
0000
0001
0100
0010
1000
0000
,  // measure 41
0001
0001
0000
0001
0010
0000
0000
0100
1000
0000
0000
0100
0010
0000
0000
0001
,  // measure 42
1000
0001
1000
0000
0010
0000
0000
0100
0001
0100
0001
0000
1000
0000
0001
0010
,  // measure 43
0100
0000
0000
1000
0010
0000
0000
0100
0010
0000
0000
0001
0010
0000
0000
1000
,  // measure 44
0100
0000
0000
0001
0100
0000
0000
1000
0010
0000
0100
0010
0000
0000
0110
0000
;
