#VERSION:0.83;
#TITLE:TUBTHUMPING;
#SUBTITLE:(SAMBAWAMBA MIX);
#ARTIST:CHUMBAWAMBA;
#TITLETRANSLIT:;
#SUBTITLETRANSLIT:;
#ARTISTTRANSLIT:;
#GENRE:;
#ORIGIN:;
#CREDIT:;
#BANNER:TUBTHUMPING (Sambawamba Mix).png;
#BACKGROUND:TUBTHUMPING (Sambawamba Mix)-bg.png;
#PREVIEWVID:;
#JACKET:TUBTHUMPING (Sambawamba Mix)-jacket.png;
#CDIMAGE:;
#DISCIMAGE:;
#LYRICSPATH:;
#CDTITLE:Dancemania SUMMERS copy.png;
#MUSIC:TUBTHUMPING (Sambawamba Mix).ogg;
#OFFSET:1.111000;
#SAMPLESTART:15.580001;
#SAMPLELENGTH:14.998000;
#SELECTABLE:YES;
#BPMS:0.000=124.016;
#STOPS:;
#DELAYS:;
#WARPS:;
#TIMESIGNATURES:0.000=4=4;
#TICKCOUNTS:0.000=4;
#COMBOS:0.000=1;
#SPEEDS:0.000=1.000=0.000=0;
#SCROLLS:0.000=1.000;
#FAKES:;
#LABELS:0.000=Song Start;
#BGCHANGES:;
#KEYSOUNDS:;
#ATTACKS:
;

//---------------dance-single - ----------------
#NOTEDATA:;
#CHARTNAME:;
#STEPSTYPE:dance-single;
#DESCRIPTION:;
#CHARTSTYLE:;
#DIFFICULTY:Beginner;
#METER:2;
#RADARVALUES:0.132806,0.255085,0.158719,0.000000,0.000000,82.000000,68.000000,14.000000,0.000000,0.000000,0.000000,0.000000,0.000000,0.000000,0.132806,0.255085,0.158719,0.000000,0.000000,82.000000,68.000000,14.000000,0.000000,0.000000,0.000000,0.000000,0.000000,0.000000;
#CREDIT:;
#NOTES:
0000
0000
0000
0000
,
0000
0000
0000
0000
,
0000
0000
0000
0000
,
0000
0000
0000
0000
,
0000
0000
0000
0000
,
1000
1000
0000
0000
,
0001
0001
0000
0000
,
0100
0100
0000
0000
,
0000
0000
0000
0000
,
1001
0000
0000
0000
,
0100
0000
0001
0000
,
0010
0000
0000
0000
,
0100
0000
1000
0000
,
0010
0000
0000
0000
,
1000
0000
0001
0000
,
0100
0000
0000
0000
,
0010
0000
1000
0000
,
0001
0000
0010
0000
,
0100
0000
0000
0000
,
1000
0000
0100
0000
,
0010
0000
0000
0000
,
0001
0001
0000
0000
,
1000
1000
0000
0000
,
0100
0100
0000
0000
,
0010
0010
0000
0000
,
1000
0000
0010
0000
,
0100
0000
0000
0000
,
0001
0000
0100
0000
,
0010
0000
0000
0000
,
0001
0001
0000
0000
,
1000
0000
0000
0000
,
1000
1000
0000
0000
,
0100
0000
0000
0000
,
0010
0010
0000
0000
,
0001
0000
0000
0000
,
0001
0001
0000
0000
,
1000
0000
0010
0000
,
0110
0110
0000
0000
,
1001
1001
0000
0000
,
0110
0110
0000
0000
,
1000
0000
0001
0000
,
1001
1001
0000
0000
,
0110
0110
0000
0000
,
1001
1001
0000
0000
,
0010
0000
0100
0000
,
0110
0000
0000
0000
;

//---------------dance-single - ----------------
#NOTEDATA:;
#CHARTNAME:;
#STEPSTYPE:dance-single;
#DESCRIPTION:;
#CHARTSTYLE:;
#DIFFICULTY:Easy;
#METER:4;
#RADARVALUES:0.234840,0.306102,0.090697,0.000000,0.000000,145.000000,137.000000,8.000000,0.000000,0.000000,0.000000,0.000000,0.000000,0.000000,0.234840,0.306102,0.090697,0.000000,0.000000,145.000000,137.000000,8.000000,0.000000,0.000000,0.000000,0.000000,0.000000,0.000000;
#CREDIT:;
#NOTES:
0000
0000
0000
0000
,
0000
0000
0000
0000
,
0000
0000
0000
0000
,
0000
0000
0000
0000
,
0000
0000
0000
0000
,
1000
0100
1000
0000
,
0001
0100
0001
0000
,
1000
0010
1000
0001
,
1001
0000
0000
0000
,
1001
0010
0001
0001
,
1000
0010
0001
0000
,
0100
0001
1000
1000
,
0001
0100
1000
0000
,
1001
0010
0001
0001
,
1000
0001
1000
0000
,
0010
0100
0001
0001
,
0010
0001
1000
1001
,
0001
0000
0100
0000
,
1000
0000
0100
0000
,
0001
0000
0010
0000
,
1000
0010
0100
0010
,
0010
0000
0010
0000
,
0100
0000
0100
0000
,
0001
0000
1000
0001
0100
0000
0000
0000
,
0001
0000
0001
1000
0100
0000
0000
0000
,
1000
0100
0001
0000
,
0001
0100
1000
0000
,
0010
0100
0001
0000
,
0010
0000
0100
0000
1000
1000
0000
0000
,
1001
0100
0001
0001
,
0001
0100
1000
0000
,
0001
0010
1000
1000
,
1000
0010
0001
0000
,
1000
0000
0010
0000
0001
0001
0000
0000
,
0001
0000
0100
0000
1000
1000
0000
0000
,
0001
0000
1000
0000
0001
0001
0100
0000
,
1000
0000
0001
0000
1000
1000
0100
0000
,
0100
0010
0001
0000
,
0010
0100
1000
0000
,
0010
0100
0001
0000
,
0100
0010
1000
1000
,
0001
0000
0001
0000
0100
0100
0000
0000
,
0001
0000
1000
0000
0010
0010
0000
0000
,
1000
0001
0100
0000
,
1001
0000
1001
0000
0001
0100
0100
0000
,
1001
0000
0000
0000
;

//---------------dance-single - ----------------
#NOTEDATA:;
#CHARTNAME:;
#STEPSTYPE:dance-single;
#DESCRIPTION:;
#CHARTSTYLE:;
#DIFFICULTY:Medium;
#METER:8;
#RADARVALUES:0.348211,0.433644,0.170056,0.000000,0.011337,215.000000,200.000000,15.000000,0.000000,0.000000,0.000000,0.000000,0.000000,0.000000,0.348211,0.433644,0.170056,0.000000,0.011337,215.000000,200.000000,15.000000,0.000000,0.000000,0.000000,0.000000,0.000000,0.000000;
#CREDIT:;
#NOTES:
// measure 0
0000
0000
0000
0000
,  // measure 1
0000
0000
0000
0000
,  // measure 2
0000
0000
0000
0000
,  // measure 3
0000
0000
0000
0000
,  // measure 4
0000
0000
0000
0000
,  // measure 5
1000
0000
1000
0100
1000
0000
0000
0000
,  // measure 6
0001
0000
0001
0100
0001
0000
0000
0100
,  // measure 7
0010
0000
0010
1000
0010
0000
1000
0000
,  // measure 8
1001
0000
0000
0000
0000
0010
0010
0010
,  // measure 9
1001
0000
0100
0000
0001
0001
1000
0000
,  // measure 10
1000
0000
0010
0000
0001
0001
1000
0000
,  // measure 11
1001
0000
0100
0000
0001
0001
0100
0000
,  // measure 12
0001
0000
0100
0000
0001
0001
1000
1000
,  // measure 13
1001
0000
1000
0000
0001
0001
0010
0000
,  // measure 14
0001
0000
1000
0000
0001
0001
0100
0100
,  // measure 15
1001
0000
1000
0000
0001
0001
0100
0000
,  // measure 16
0010
0000
1000
0000
0100
0100
0101
0000
,  // measure 17
0001
0100
0000
0000
1000
0010
0000
0000
,  // measure 18
0001
0010
0000
0000
1000
1000
0100
0000
,  // measure 19
0001
0100
0000
0000
0001
0001
0000
0000
,  // measure 20
1000
0100
0000
0000
1000
1000
0010
0000
,  // measure 21
0010
0010
0000
0000
0100
0100
0000
0000
,  // measure 22
0001
0001
0000
0000
1000
1000
0000
0000
,  // measure 23
1000
1000
0100
0100
0001
0001
0000
0000
,  // measure 24
0001
0001
0010
0010
1000
1000
0000
0000
,  // measure 25
1000
0100
0000
0000
0001
0001
0000
0000
,  // measure 26
0001
0100
0000
0000
1000
1000
0100
0000
,  // measure 27
0010
1000
0000
0000
0100
0100
0001
0000
,  // measure 28
0010
1000
0001
0000
0000
0100
0100
0100
,  // measure 29
1001
0000
0100
0000
0001
0001
1000
0000
,  // measure 30
1000
0000
0010
0000
0001
0001
1000
1000
,  // measure 31
0100
0000
0100
0000
0001
0001
0100
0000
,  // measure 32
0001
0000
0100
0000
1000
1000
0010
0000
,  // measure 33
1001
0000
1000
0000
0010
0010
0100
0000
,  // measure 34
0010
0000
0001
0000
0100
0100
0010
0001
,  // measure 35
1001
0000
1000
0000
0010
0010
0100
0000
,  // measure 36
1001
0000
0110
0010
1001
0000
0000
0000
,  // measure 37
1001
0000
1000
0100
0010
0001
0000
0000
,  // measure 38
1000
0000
0001
0100
0010
1000
0000
0000
,  // measure 39
0010
0000
1000
0001
0010
0100
0000
0000
,  // measure 40
0010
0000
0000
0010
0000
0000
0010
0000
0001
0000
0000
0000
0000
0000
0000
0000
,  // measure 41
0110
0000
1000
0100
0010
0001
0000
0000
,  // measure 42
0100
0000
0001
0100
0010
1000
0000
0000
,  // measure 43
0001
0000
1000
0001
0010
0100
0000
0000
,  // measure 44
0010
0000
0000
0010
0000
0000
0010
0000
0000
0000
0100
0000
0100
0000
1000
0000
,  // measure 45
1001
0000
0000
0000
;

//---------------dance-single - ----------------
#NOTEDATA:;
#CHARTNAME:;
#STEPSTYPE:dance-single;
#DESCRIPTION:;
#CHARTSTYLE:;
#DIFFICULTY:Hard;
#METER:10;
#RADARVALUES:0.425951,0.408136,0.181394,0.000000,0.073691,263.000000,247.000000,16.000000,0.000000,0.000000,0.000000,0.000000,0.000000,0.000000,0.425951,0.408136,0.181394,0.000000,0.073691,263.000000,247.000000,16.000000,0.000000,0.000000,0.000000,0.000000,0.000000,0.000000;
#CREDIT:;
#NOTES:
// measure 0
0000
0000
0000
0000
,  // measure 1
0000
0000
0000
0000
,  // measure 2
0000
0000
0000
0000
,  // measure 3
0000
0000
0000
0000
,  // measure 4
0000
0000
0000
0000
,  // measure 5
0001
0000
0000
0001
0100
0000
0010
0000
1000
0000
1000
0000
0100
0000
0000
0000
,  // measure 6
1000
0010
1000
0001
0010
0000
0100
0000
,  // measure 7
1000
0000
0000
1000
0100
0000
1000
0000
0010
0000
0010
0000
0100
0000
0000
0000
,  // measure 8
0010
0100
0010
1000
0001
0001
0000
0000
,  // measure 9
1001
0001
0000
0100
0010
0100
0000
0010
,  // measure 10
1000
1000
0001
0001
0010
0100
0010
0000
,  // measure 11
1001
0100
0000
0100
1000
0001
1000
0000
,  // measure 12
0010
1000
0100
0010
0001
1000
0001
0000
,  // measure 13
1010
0100
0000
0100
0001
0010
0001
0000
,  // measure 14
1000
0001
0010
0100
1000
0100
1000
0000
,  // measure 15
0011
0100
0000
0100
0001
1000
0010
0000
,  // measure 16
0010
0000
1000
0000
0001
0000
0100
0000
0000
0001
0000
0001
1000
0000
0000
0000
,  // measure 17
0001
0001
0000
0001
0010
0010
0000
0010
,  // measure 18
0100
0100
0000
0100
1000
1000
0000
1000
,  // measure 19
0100
0100
0000
0100
0010
0010
0000
0010
,  // measure 20
0001
0001
0000
0001
1000
0001
1000
0000
,  // measure 21
1000
0100
1000
0000
0000
0000
1000
0000
0001
0100
0001
0000
0000
0000
0000
0000
,  // measure 22
0010
1000
0010
0000
0000
0000
0100
0000
0100
0001
0100
0000
0000
0000
0001
0000
,  // measure 23
0001
1000
0100
0001
0100
1000
0000
1000
,  // measure 24
1000
0001
0010
1000
0010
0001
0100
0000
,  // measure 25
0110
0000
0000
0000
0000
0000
0100
0000
0010
0000
0000
0010
0000
0000
0010
0000
,  // measure 26
1000
0000
0000
0000
0000
0000
1000
0000
0001
0000
0000
0001
0000
0000
0001
0000
,  // measure 27
0010
0000
0000
0000
0000
0000
0010
0000
0100
0000
0000
0100
0000
0000
0100
0000
,  // measure 28
1000
0000
0001
0000
0000
0100
0100
0010
,  // measure 29
0110
0010
0000
1000
0010
1000
0100
0000
,  // measure 30
1000
0100
0001
0100
0001
0100
1000
0000
,  // measure 31
1001
0100
0000
0100
0010
1000
0001
0000
,  // measure 32
0010
0001
0010
0001
0010
1000
0010
0000
,  // measure 33
0101
0100
0000
0100
0010
1000
0001
0000
,  // measure 34
0010
0001
1000
0100
1000
0001
0100
0000
,  // measure 35
0101
1000
0000
1000
0001
0100
1000
0000
,  // measure 36
0010
0010
0100
0100
0001
1000
0001
0000
,  // measure 37
1001
0000
1000
0100
0010
0001
0000
0000
,  // measure 38
0110
0000
0001
0100
0010
1000
0000
0000
,  // measure 39
1001
0000
1000
0010
0100
0001
0000
0000
,  // measure 40
0010
0000
0000
0010
0000
0000
0010
0000
0100
0000
1000
0000
0100
0000
0000
0000
,  // measure 41
1001
0000
0001
0001
1000
1000
0000
0000
,  // measure 42
1001
0000
0100
0100
0010
0010
0000
0000
,  // measure 43
0110
0000
1000
1000
0001
0100
0000
0000
,  // measure 44
0001
0000
0000
0001
0000
0000
0001
0000
0010
0000
0100
0000
0100
0000
1000
0000
,  // measure 45
1001
0000
0000
0000
;
