#TITLE:Sundown;
#SUBTITLE:;
#ARTIST:S Club 8;
#TITLETRANSLIT:;
#SUBTITLETRANSLIT:;
#ARTISTTRANSLIT:;
#GENRE:;
#CREDIT:;
#BANNER:Sundown.png;
#BACKGROUND:Sundown-bg.png;
#LYRICSPATH:;
#CDTITLE:;
#MUSIC:Sundown.ogg;
#OFFSET:1.865000;
#SAMPLESTART:51.013500;
#SAMPLELENGTH:15.000000;
#LASTBEATHINT:1.830917;
#SELECTABLE:YES;
#BPMS:0.000000=126.999992
,196.000000=63.499996
,222.000000=126.999992
;
#STOPS:
;
#BGCHANGES:;
#KEYSOUNDS:;
#ATTACKS:;

//---------------dance-single - ----------------
#NOTES:
     dance-single:
     :
     Beginner:
     3:
     0.113675,0.147105,0.027920,0.069801,0.000000,114.000000,110.000000,4.000000,10.000000,0.000000,0.000000,0.113675,0.147105,0.027920,0.069801,0.000000,114.000000,110.000000,4.000000,10.000000,0.000000,0.000000:
0000
0000
0000
0000
,
0000
0000
0000
0000
,
0000
0000
0000
0000
,
0100
0100
0000
0000
,
0010
0000
0000
0000
,
0001
0001
0000
0000
,
0100
0000
0000
0000
,
1000
1000
0000
0000
,
0010
0000
0000
0000
,
0001
0000
0010
0000
,
0100
0000
1000
0000
,
0020
0000
0030
0000
,
0100
0000
0000
0000
,
0010
0010
0000
0000
,
1000
0000
0000
0000
,
0001
0001
0001
0000
,
0100
0000
0010
0000
,
0100
0000
0001
0000
,
1000
0000
0000
0000
,
0000
0000
0000
0000
,
0110
0000
0000
0000
,
1000
1000
0000
0000
,
0010
0000
0000
0000
,
0100
0100
0100
0000
,
0001
0000
1000
0000
,
0010
0000
0100
0000
,
0002
0000
0003
0000
,
2000
0000
3000
0000
,
0110
0000
0000
0000
,
0010
0000
0001
0000
,
1000
1000
0000
0000
,
0100
0000
1000
0000
,
0010
0010
0000
0000
,
0100
0000
0001
0000
,
1000
0000
0100
0000
,
0010
0000
0001
0000
,
1000
1000
0000
0000
,
0010
0000
0000
0000
,
0001
0001
0000
0000
,
0100
0000
0000
0000
,
0010
0010
0000
0000
,
0001
0000
1000
0000
,
0001
0000
0010
0000
,
0100
0000
1000
0000
,
0010
0000
0100
0000
,
0110
0000
0000
0000
,
0001
0001
0000
0000
,
1000
0000
0000
0000
,
0100
0000
0010
0000
,
0001
0000
0000
0000
,
1000
0000
0010
0000
,
0100
0000
0000
0000
,
0010
0000
1000
0000
,
0002
0003
0200
0300
,
0020
0030
2000
3000
,
0002
0003
0001
0000
,
0100
0000
0010
0000
,
0000
0000
1000
0000
,
0010
0000
0100
0000
,
0000
0000
0010
0000
,
1000
0000
0001
0000
,
0010
0000
0100
0000
,
1000
0000
1001
0000
,
0000
0000
0100
0000
,
1000
0000
0010
0000
,
0000
0000
0100
0000
,
0001
0000
0010
0000
,
0000
0000
0001
0000
,
0010
0000
2000
0000
,
3000
0000
0002
0000
,
0000
0003
0000
0000
;

//---------------dance-single - ----------------
#NOTES:
     dance-single:
     :
     Easy:
     5:
     0.217379,0.269693,0.041880,0.076781,0.000000,218.000000,212.000000,6.000000,11.000000,0.000000,0.000000,0.217379,0.269693,0.041880,0.076781,0.000000,218.000000,212.000000,6.000000,11.000000,0.000000,0.000000:
0000
0000
0000
0000
,
0000
0000
0000
0000
,
0000
0000
0000
0000
,
1000
1000
0000
0000
,
0100
1000
0010
0100
,
0001
0001
0000
0000
,
0010
0001
0100
0010
,
1000
1000
0000
0000
,
0100
1000
0010
0100
,
0001
0001
1000
1000
,
0010
0010
0100
0100
,
0220
0000
0000
0330
,
1000
1000
1000
0000
,
0100
0100
0100
0000
,
0001
0001
0001
0000
,
0010
0010
0010
0000
,
0001
0001
0010
0000
,
0100
1000
0100
0000
,
2000
0010
3010
0000
,
0002
0100
0103
0000
,
0010
0100
0010
1000
,
0001
0001
0001
0000
,
0100
0010
0100
0001
,
1000
1000
1000
0000
,
0001
0010
0001
0000
,
1000
0100
1000
0000
,
1010
1010
0000
1000
,
0101
0101
0000
0000
,
0010
0010
0000
0000
,
0100
0010
0001
1000
,
0100
0100
0000
0000
,
1000
0010
0100
0001
,
0010
0010
0000
0000
,
0010
0001
0100
0010
,
1000
1000
0010
0010
,
0100
0100
0001
0001
,
1000
1000
0000
0000
,
0100
0100
1000
1000
,
0010
0010
0000
0000
,
0010
0010
0001
0001
,
0100
0100
0000
0000
,
1000
0010
0100
0001
,
1000
0100
0100
0001
,
0001
0010
0010
0000
,
0100
0100
0010
0010
,
1001
0000
0100
0001
,
0010
0000
0010
0001
,
0100
0000
0100
0010
,
1000
0100
0010
0001
,
2000
0000
3010
0000
,
0002
0000
0103
0000
,
0200
0000
0310
0000
,
0020
0000
1030
0000
,
0001
0000
0010
0000
0100
0000
1000
0010
,
0100
0000
0001
0000
0100
0000
0010
1000
,
0001
0001
0000
0000
1000
0000
0001
0000
,
0010
0100
1000
1000
,
0000
0000
0001
1000
,
0100
0010
0001
0001
,
0000
0000
1000
0010
,
0100
0001
0010
0001
,
0001
0100
0100
0010
,
0010
1000
0001
0001
,
0000
0000
1000
0001
,
0100
0010
1000
1000
,
0000
0000
0010
1000
,
0100
0010
0001
0001
,
0000
0000
0010
0001
,
0100
0010
2000
0001
,
0010
0000
3002
1000
,
0200
0303
0000
0000
;

//---------------dance-single - ----------------
#NOTES:
     dance-single:
     :
     Medium:
     9:
     0.376924,0.416056,0.188462,0.034900,0.045370,378.000000,351.000000,27.000000,5.000000,0.000000,0.000000,0.376924,0.416056,0.188462,0.034900,0.045370,378.000000,351.000000,27.000000,5.000000,0.000000,0.000000:
0000
0000
0000
0000
,
0000
0000
0000
0000
,
0000
0000
0000
0000
,
0110
0000
1001
0000
0010
0000
0100
1000
,
0000
0001
0000
1000
0000
0001
0100
0001
,
0100
0000
0010
0000
0100
0000
0010
1000
,
0000
0001
0000
0010
0000
0100
0010
0001
,
0010
0100
1000
0000
0010
1000
0000
0100
,
0000
0001
0000
0110
0000
1001
0000
0010
,
1000
0100
1000
0000
0001
0100
0010
1000
,
0000
0001
0001
0000
0010
0010
0010
0000
,
0200
0000
0000
0000
,
1300
1000
0001
0100
,
0001
0010
0001
0000
1000
0010
1000
0000
,
0010
0100
0100
0010
,
0100
0001
0010
0000
0100
1000
0010
1000
,
0001
0010
0001
0100
,
0010
1000
0100
1000
,
0010
0000
0010
0000
0100
0001
1000
0010
,
0100
0000
0001
0000
0010
0100
0010
0100
,
1000
0000
0100
0000
1000
0001
0100
0000
,
0001
0001
0001
0000
1000
1000
1000
0000
,
0100
1000
0001
0010
,
0001
0100
0100
0000
0010
0010
1000
0000
,
0010
0000
0101
0000
0100
0001
0010
0000
,
0001
0000
1100
0000
1000
0100
0010
0000
,
1100
0000
0101
0000
0000
0110
0000
0100
,
1001
0000
1002
0000
0000
1000
1003
0000
,
0011
0000
1100
0000
0010
0000
0001
0100
,
0000
0001
0000
1000
0000
0010
0100
0010
,
0100
0000
0010
0000
1000
0000
0001
0010
,
0000
1000
0000
0010
0000
0001
0100
0010
,
1000
0010
0100
0000
0001
0010
0000
0100
,
0000
1000
0000
1100
0000
0101
0000
0100
,
0010
0000
1000
0000
0001
1000
0100
0010
,
0000
0001
0001
0000
1000
1000
1000
0000
,
1010
0000
0101
0000
0010
0000
0100
0001
,
0000
0010
0001
0010
0000
0100
1000
1000
,
0100
0000
1000
0000
0001
0001
0010
0001
,
0000
1000
0000
0010
0000
1000
0010
0100
,
0001
0010
0001
0000
1000
0010
1000
0010
,
0000
0100
0000
1010
0000
0101
0000
0100
,
0001
0000
0010
0000
0001
1000
0010
0100
,
0000
0001
0001
0000
1000
1000
1000
0000
,
0100
0000
0100
0000
0010
0100
0010
0000
,
1001
0000
0000
0000
0100
0000
0001
0000
0010
0000
0000
0010
0000
0000
0001
0000
,
0000
0001
0100
0000
0010
0100
0010
0000
,
1000
0000
0000
0000
0010
0000
1000
0000
0100
0000
0000
0100
0000
0000
1000
0000
,
1000
0010
0100
0001
,
1001
0000
0000
0000
0100
0000
0001
0010
0001
0000
0100
0000
0010
0000
1000
0000
,
0001
0000
0000
0000
0000
0000
1000
0100
1000
0000
0100
0000
0010
0000
0001
0000
,
1000
0000
0000
0000
0000
0010
0001
1000
0010
0000
1000
0000
0010
0000
0100
0000
,
0001
0000
0000
0000
0000
0001
0000
0001
1000
0000
0000
0000
0000
0000
0000
0000
,
2000
0000
0000
0001
0000
0000
0100
0000
0000
0100
0000
0000
0010
0000
0100
0000
,
3002
0000
0000
1000
0000
0000
0010
0000
0000
0010
0000
0000
0100
0000
1000
0000
,
0103
0000
0100
0000
0000
0000
0010
1000
0000
0000
0001
0000
0000
0000
1000
0000
,
0000
1000
0100
0010
0001
0000
0100
0000
,
0010
0000
0010
1000
0000
0010
0000
0100
,
0000
0001
0100
0010
1000
0100
0010
0000
,
0001
0000
0010
0100
0000
1100
0000
1000
,
0000
0101
0000
0100
0010
0000
0100
0000
,
0010
1000
0001
0010
0000
0100
0100
0000
,
0010
0010
0000
0000
0011
0000
1100
0000
,
0010
0000
1000
0100
0000
0100
0000
0010
,
0000
0001
0100
0001
1000
0000
0010
0000
,
0100
0000
0010
1000
0000
0001
0000
0100
,
0000
0001
0010
0100
1000
0001
1000
0000
,
0100
1000
0000
0001
0000
1000
0000
0110
,
0000
1001
0000
0010
0200
0000
1000
0000
,
0010
0000
0001
0001
0000
0010
0010
0000
,
1000
1300
0000
0000
0000
0000
0000
0000
;

//---------------dance-single - ----------------
#NOTES:
     dance-single:
     :
     Hard:
     11:
     0.445727,0.489478,0.244303,0.069801,0.108191,447.000000,412.000000,35.000000,10.000000,0.000000,0.000000,0.445727,0.489478,0.244303,0.069801,0.108191,447.000000,412.000000,35.000000,10.000000,0.000000,0.000000:
// measure 0
0000
0000
0000
0000
,  // measure 1
0000
0000
0000
0000
,  // measure 2
0000
0000
0000
0000
,  // measure 3
0110
0000
0000
0000
1001
0000
0000
1000
0100
0000
1000
0000
0010
0000
0100
0000
,  // measure 4
0000
0010
1000
0001
0000
0100
0001
0001
,  // measure 5
1000
0000
0001
0000
0010
0000
0100
1000
,  // measure 6
0000
1000
0100
0001
0000
0001
0100
1000
,  // measure 7
0010
0100
0010
0000
0100
0001
1000
0010
,  // measure 8
0000
1010
0000
0101
0000
1001
0000
0010
,  // measure 9
1000
0100
0010
0001
0010
0100
1000
0010
,  // measure 10
0100
0001
0100
0010
1000
0001
1001
0000
,  // measure 11
0220
0000
0000
0330
,  // measure 12
0001
0001
0100
0001
,  // measure 13
1000
0010
1000
0000
0001
0010
0001
0000
,  // measure 14
1000
1000
0010
0100
,  // measure 15
0001
0100
0001
0000
1000
0100
1000
0100
,  // measure 16
0010
0000
0100
0100
1000
0000
0101
0000
,  // measure 17
0010
0000
0100
0100
0001
0000
1010
0000
,  // measure 18
0001
0000
0001
0000
1000
0010
0001
0010
,  // measure 19
1000
0000
0100
0000
0010
0100
0010
0100
,  // measure 20
0110
0100
0010
0001
,  // measure 21
1000
1000
0100
0000
0001
0001
0010
0001
,  // measure 22
1000
0000
0010
0000
0100
0010
0100
0000
,  // measure 23
0001
0100
0010
0000
1000
0010
0100
0001
,  // measure 24
1000
0000
0100
0000
1000
0010
1000
0010
,  // measure 25
0100
0000
0010
0000
0100
0001
0100
0001
,  // measure 26
0010
0000
0011
0000
0100
1000
0001
1000
,  // measure 27
1100
0000
1000
0000
0001
1000
0110
0000
,  // measure 28
0011
0000
0000
0000
1100
0000
0000
0001
0100
0000
0001
0000
1000
0000
0100
0000
,  // measure 29
0000
0010
0001
1000
0000
0100
1000
1000
,  // measure 30
0001
0000
1000
0000
0010
0000
0100
0001
,  // measure 31
0000
0001
0100
1000
0000
1000
0100
0001
,  // measure 32
0010
0100
0010
0000
0100
1000
0100
0010
,  // measure 33
0000
0011
0000
1010
0000
1001
0000
0010
,  // measure 34
0001
0100
0010
1000
0010
0100
0001
0010
,  // measure 35
0001
0010
1000
0010
1000
0010
0110
0000
,  // measure 36
1100
0000
0000
0000
0101
0000
0000
1000
0010
0000
1000
0000
0001
0000
0100
0000
,  // measure 37
0000
0010
1000
0001
0000
0010
0100
0100
,  // measure 38
0010
0001
0100
0000
0010
1000
0100
1000
,  // measure 39
0000
1000
0010
0001
0000
0010
1000
0001
,  // measure 40
0010
0100
1000
0000
0100
0010
0001
1000
,  // measure 41
0000
1010
0000
0001
0000
0101
0000
0100
,  // measure 42
1000
0100
0010
0100
0001
0010
1000
0010
,  // measure 43
0001
0010
0100
1000
0100
0010
1001
0000
,  // measure 44
0100
0000
0000
0000
0100
0000
0000
0000
0010
0100
0010
0000
0010
0000
0000
0000
,  // measure 45
1001
0000
0000
0000
0100
0000
0001
0000
0010
0000
0001
0010
0000
0000
0001
0000
,  // measure 46
0000
0000
1000
0000
0100
0000
0000
0000
1000
0010
0100
0000
0010
0000
0000
0000
,  // measure 47
1000
0000
0000
0000
0001
0000
0100
0000
0010
0000
0100
0001
0000
0000
0010
0000
,  // measure 48
0012
0203
0320
2030
,  // measure 49
3001
0000
0000
0000
0000
0010
0100
1000
0100
0000
1000
0010
0100
0000
0001
0000
,  // measure 50
0010
0000
0000
0000
0000
0000
0000
0000
0000
0000
0001
0000
0010
0000
0100
0000
1000
0000
0000
0010
0000
0000
0010
0000
0000
0000
0100
0000
0000
0100
0000
0000
,  // measure 51
0001
0000
0000
0000
0000
0000
0000
0000
0000
0000
1000
0000
0010
0000
1000
0000
0100
0000
0000
0010
0000
0000
0001
0000
0000
0000
0010
0000
0000
0000
0100
0000
,  // measure 52
1000
0000
0000
0000
0001
0100
0000
0100
0010
0100
0010
0000
0000
0000
0000
0000
,  // measure 53
0200
0000
0000
1000
0000
0000
0001
0000
0000
0010
0000
0000
0001
0000
0001
0000
,  // measure 54
0320
0000
0000
1000
0000
0000
0001
0000
0000
0100
0000
0000
0001
0000
0031
0000
,  // measure 55
1010
0000
0101
0000
0000
0000
0100
0001
0000
0000
0010
0000
0100
0000
1000
0000
,  // measure 56
0000
0100
0010
0010
0001
1000
0010
0000
,  // measure 57
0100
0000
0010
1000
0000
0001
0010
0100
,  // measure 58
0000
1000
0010
0100
0001
1000
0100
0000
,  // measure 59
0010
0001
1000
0010
0000
0101
0000
0010
,  // measure 60
0000
1100
0000
0010
1000
0100
0010
0100
,  // measure 61
0010
0001
0010
0100
1000
0010
0100
0001
,  // measure 62
0100
0000
1000
0000
0100
0000
0000
0000
1001
0000
0000
0000
0110
0000
0000
0100
,  // measure 63
1000
0001
0100
1000
0000
1000
0100
0001
,  // measure 64
0000
1000
0001
0001
0010
0010
0100
0000
,  // measure 65
0010
0000
0001
0100
0000
0010
1000
0100
,  // measure 66
0000
1000
0001
0010
1000
0010
0001
0000
,  // measure 67
1000
0010
0100
0001
0000
1001
0000
0110
,  // measure 68
0000
1001
0000
0100
0020
0000
1000
0000
,  // measure 69
0100
0100
0100
2030
0000
0001
0001
0000
,  // measure 70
0010
3010
0000
0000
0000
0000
0000
0000
;
