#VERSION:0.83;
#TITLE:Sorrows;
#SUBTITLE:;
#ARTIST:Asako Yoshihiro;
#TITLETRANSLIT:;
#SUBTITLETRANSLIT:;
#ARTISTTRANSLIT:;
#GENRE:;
#ORIGIN:;
#TAGS:;
#CREDIT:;
#BANNER:Sorrows.png;
#BACKGROUND:Sorrows-bg.png;
#PREVIEWVID:;
#JACKET:Sorrows-jacket.png;
#CDIMAGE:;
#DISCIMAGE:;
#LYRICSPATH:;
#CDTITLE:;
#MUSIC:Sorrows.ogg;
#OFFSET:0.000000;
#SAMPLESTART:62.250000;
#SAMPLELENGTH:15.000000;
#SELECTABLE:YES;
#BPMS:0.000000=92.500000
,36.000000=46.250000
,38.000000=185.000000
,102.000000=92.500000
,126.000000=185.000000
,286.000000=46.250000
;
#STOPS:;
#DELAYS:;
#WARPS:;
#TIMESIGNATURES:0.000000=4=4
;
#TICKCOUNTS:0.000000=4
;
#COMBOS:0.000000=1
;
#SPEEDS:0.000000=1.000000=0.000000=0
;
#SCROLLS:0.000000=1.000000
;
#LABELS:0.000000=Song Start
;
#BGCHANGES:;
#KEYSOUNDS:;
#ATTACKS:
;

//---------------dance-single - ----------------
#NOTEDATA:;
#CHARTNAME:;
#CHARTHASH:1247580617;
#STEPSTYPE:dance-single;
#BANNER:;
#DESCRIPTION:;
#CHARTSTYLE:;
#DIFFICULTY:Beginner;
#METER:4;
#METERF:0.000000;
#LASTSECONDHINT:116.756760;
#RADARVALUES:0.126424,0.216517,0.051552,0.189023,0.000000,103.000000,97.000000,6.000000,22.000000,0.000000,0.000000,0.000000,0.000000,0.000000,0.126424,0.216517,0.051552,0.189023,0.000000,103.000000,97.000000,6.000000,22.000000,0.000000,0.000000,0.000000,0.000000,0.000000;
#CREDIT:;
#NOTES:
0000
0000
0000
0000
,
0000
0000
0000
0000
,
0000
0000
0000
0000
,
0000
0000
0000
0000
,
0000
0000
0000
0000
,
0002
0000
0003
0000
,
0020
0000
0030
0000
,
0200
0000
0300
0000
,
2000
0000
3000
0000
,
2002
3003
0010
0000
,
0000
0000
0010
0000
,
0000
0000
0100
0000
,
0000
0000
0100
0000
,
0000
0000
1000
0000
,
0000
0000
1000
0000
,
0000
0000
0001
0000
,
0000
0000
0001
0000
,
0010
0000
0001
0000
,
0000
0000
0100
0000
,
0000
0000
1000
0000
,
0000
0000
0010
0000
,
0000
0000
1000
0000
,
0000
0000
0100
0000
,
0000
0000
0010
0000
,
0100
0000
0010
0000
,
0010
0000
0001
0000
,
1000
0000
0200
0000
,
0300
0000
1000
0000
,
0001
0000
0020
0000
,
0030
0000
0002
0000
,
0003
0000
2000
0000
,
3000
0000
0020
0000
,
0000
0030
0010
0000
,
0010
0000
0010
0000
,
0000
0000
0100
0000
,
0010
0000
0200
0000
,
0000
0000
0000
0300
,
0100
0000
0001
0000
,
1000
0000
0001
0000
,
0000
0000
2000
0000
,
0000
0000
0000
3000
,
1000
0000
1000
0000
,
0000
0000
0010
0000
,
1000
0000
0002
0000
,
0000
0000
0000
0003
,
0001
0000
0010
0000
,
0100
0000
0010
0000
,
0100
0000
0010
0010
,
0000
0010
0000
0000
,
0110
0000
0100
0100
,
0000
0100
0000
0000
,
0110
0000
1000
1000
,
0000
1000
0000
0000
,
1001
0000
0001
0001
,
0000
0001
0000
0000
,
1001
0000
0001
0000
,
0010
0000
0002
0000
,
0003
0000
1000
0000
,
0010
0000
2000
0000
,
3000
0000
0001
0000
,
1000
0000
0200
0000
,
0300
0000
1000
0000
,
0001
0000
0200
0000
,
0300
0000
0010
0000
,
0100
0000
0200
0000
,
0300
0000
1000
0000
,
0001
0000
0002
0000
,
0003
0000
0001
0000
,
1000
0000
0100
0000
,
0010
0000
0100
0000
,
1000
0000
0001
0000
,
0100
0000
0220
0000
,
0330
0000
0000
0000
;

//---------------dance-single - ----------------
#NOTEDATA:;
#CHARTNAME:;
#CHARTHASH:2012403031;
#STEPSTYPE:dance-single;
#BANNER:;
#DESCRIPTION:;
#CHARTSTYLE:;
#DIFFICULTY:Easy;
#METER:8;
#METERF:0.000000;
#LASTSECONDHINT:115.459457;
#RADARVALUES:0.287217,0.277413,0.008592,0.249167,0.000000,234.000000,233.000000,1.000000,29.000000,0.000000,0.000000,0.000000,0.000000,0.000000,0.287217,0.277413,0.008592,0.249167,0.000000,234.000000,233.000000,1.000000,29.000000,0.000000,0.000000,0.000000,0.000000,0.000000;
#CREDIT:;
#NOTES:
0000
0000
0000
0000
,
0000
0000
0000
0000
,
0000
0000
0000
0000
,
0000
0000
0000
0000
,
0000
0000
0000
0000
,
0002
0000
0100
0000
,
2003
0000
0100
0000
,
3020
0000
0000
0230
0000
0000
0000
0000
,
0302
0000
0000
2003
0000
0000
0000
0000
,
3020
0000
0130
0010
,
0100
0001
0100
0001
,
0100
0100
0010
1000
,
0100
0010
0100
1000
,
0010
0010
1000
0001
,
0100
0010
0100
0001
,
1000
1000
0001
0100
,
0010
1000
0100
0010
,
0001
0001
2000
0010
,
0100
0010
0001
0100
,
0010
0000
3002
1000
,
0100
0010
0100
0010
,
1000
0000
0203
0010
,
0001
0010
0001
0001
,
0010
0000
0320
1000
,
0100
1000
0100
0100
,
0001
0030
1001
0100
,
0010
0000
0001
0010
,
0100
1000
0001
0000
,
0001
0000
0100
0000
1000
0000
0000
2000
,
0000
0000
0010
0000
3020
0000
0000
0100
,
0000
0000
0000
0000
0130
0001
1000
0200
,
0000
0000
0310
0010
,
0010
0010
0001
0010
,
0100
1000
0100
0100
,
0100
0100
1000
0001
,
0100
0010
1000
1000
,
1000
1000
0010
0100
,
0001
1000
0010
0010
,
0100
0100
0001
0001
,
1000
0100
0010
0010
,
0010
0010
0001
0010
,
0001
1000
0100
0100
,
0100
0100
1000
0010
,
0100
0001
1000
1000
,
1000
1000
0001
0100
,
0010
1000
0001
0001
,
0001
0001
0010
0100
,
0010
0000
0001
0000
1000
2000
0000
0000
,
0000
0000
0001
0001
0000
3002
0000
0000
,
1003
0000
0000
0000
0001
0002
0000
0000
,
0000
0000
1000
1000
0000
2003
0000
0000
,
3001
0000
0000
0000
0010
0020
0000
0000
,
0000
0000
0100
0100
0000
0230
0000
0000
,
0310
0000
0000
0000
0100
0200
0000
0000
,
0000
0000
0010
0010
0000
0320
0000
0000
,
0130
0000
0100
1000
,
0200
0000
0310
0001
,
0100
0010
1000
0001
,
2000
0000
3010
1000
,
0001
0100
0010
1000
,
0200
0000
0310
0100
,
1000
0100
0010
0001
,
0020
0000
0031
0010
,
0100
1000
0001
1000
,
0200
0000
0001
0000
,
1000
1000
1300
0001
,
0020
0000
1000
0000
,
0001
0031
0100
0001
,
0010
0010
0001
0100
,
0010
0100
0010
1000
,
0100
0100
1000
0010
,
0100
0000
0001
0002
0000
0000
0003
0000
;

//---------------dance-single - ----------------
#NOTEDATA:;
#CHARTNAME:;
#CHARTHASH:2147483647;
#STEPSTYPE:dance-single;
#BANNER:;
#DESCRIPTION:;
#CHARTSTYLE:;
#DIFFICULTY:Medium;
#METER:10;
#METERF:0.000000;
#LASTSECONDHINT:115.459457;
#RADARVALUES:0.429598,0.462354,0.103103,0.463965,0.017184,350.000000,338.000000,12.000000,54.000000,0.000000,0.000000,0.000000,0.000000,0.000000,0.429598,0.462354,0.103103,0.463965,0.017184,350.000000,338.000000,12.000000,54.000000,0.000000,0.000000,0.000000,0.000000,0.000000;
#CREDIT:;
#NOTES:
0000
0000
0000
0000
,
0000
0000
0000
0000
,
0000
0000
0000
0000
,
0000
0000
0000
0000
,
0000
0000
0000
0000
,
0020
0000
0000
2030
0000
3200
0320
0000
,
0230
0000
0000
2300
0000
3002
0203
0000
,
0320
0000
0100
0230
0000
0000
0302
0000
,
2003
0000
0001
0002
0000
0000
3003
0000
,
0020
0000
0000
0000
0000
0000
0100
0130
0001
0000
0100
0000
0000
0000
0010
0000
,
1000
0000
0001
0010
0000
0100
1000
0000
,
0001
1000
0001
0000
1000
0100
0000
0010
,
0001
0000
1000
0010
0000
0100
0001
0000
,
0100
0010
0100
0000
0010
1000
0000
0010
,
0001
0000
0010
0100
0000
0001
0010
0000
,
0100
0010
0100
0000
1000
0100
0000
0001
,
0100
0000
1000
0010
0000
0001
0010
0000
,
0110
0000
1001
0000
0200
1300
0000
0020
,
1030
0000
0002
1003
0000
0200
1300
0000
,
0010
0100
0010
0000
0200
0301
0000
0200
,
0310
0000
0200
0301
0000
0020
0130
0000
,
0010
0100
0010
0001
1000
0000
0020
1030
,
0000
0002
0103
0000
0020
0130
0000
0002
,
0013
0100
1000
0000
0200
0310
0000
0002
,
0103
0000
0020
1030
0000
0002
0013
0000
,
0100
1000
0100
0010
0001
0001
1000
0010
,
0100
0000
0000
0000
0010
0000
0010
0000
0100
0000
0000
0001
0000
0001
0000
0000
,
1000
0010
0100
0001
0010
0000
0100
0100
,
0200
0000
1000
1000
2300
0000
0000
3002
,
0000
0000
0203
0000
0320
0000
0100
0230
,
0000
0000
0000
0000
0302
0000
0000
0000
2003
0000
3020
0000
0230
0300
0002
0000
,
0000
1003
1001
1000
,
0100
0010
0100
0010
0000
0001
0010
0000
,
0001
0100
0010
0010
,
1000
0000
0001
0100
0000
1000
0100
0001
,
0000
0001
0100
1000
0000
0100
0010
0100
,
0000
0010
0000
1010
0000
0000
0100
0000
,
0001
0010
0001
0000
1000
0000
0001
1000
,
0100
0000
1000
0010
0100
0001
0000
0100
,
0000
0100
0000
0000
0110
0000
0010
0000
,
0010
0000
1000
0010
0000
0010
0100
0001
,
0010
0001
0100
0100
,
0010
0000
0100
0001
0000
0010
0001
0010
,
0000
0100
1000
0010
0000
1000
0001
1000
,
0000
1001
0000
0110
0000
0100
0010
0000
,
1000
0000
1000
0000
0001
0000
1000
0100
,
1000
0000
0001
0001
0100
0010
0000
0110
,
0000
1001
0000
0000
0001
0002
0000
0000
,
0103
0000
0100
0200
0000
0010
0300
0000
,
0010
0000
0010
0000
1000
2000
0000
0000
,
3010
0000
0010
0020
0000
0100
0030
0000
,
0100
0000
0010
0000
0100
0200
0000
0000
,
0301
0000
0001
0002
0000
1000
0003
0000
,
1000
0000
0010
0000
1000
2000
0000
0000
,
3010
0000
0010
0020
0000
0100
0030
0000
,
0100
0000
0001
0000
0100
0010
1000
0100
,
0020
0000
0000
0001
0000
0100
0130
0000
,
0010
0001
0100
0010
1000
0100
0010
0000
,
0200
0000
0000
1000
0000
0010
0310
0000
,
0001
1000
0001
0000
1000
0010
0100
0000
,
0100
0010
0000
0010
0000
1000
0100
0000
,
0010
0010
0001
0000
0100
0010
0001
0000
,
0001
0100
0000
0010
0000
1000
0001
0000
,
1001
0000
0110
0000
0100
0001
1000
0000
,
0002
0000
0000
0010
0000
0100
0103
0000
,
0010
0001
0010
0000
0100
1000
0001
0000
,
2000
0000
0000
0001
0000
0100
3100
0000
,
0001
1000
0001
0000
0100
0001
0100
0000
,
0010
0100
0010
0000
1000
0010
1000
0000
,
0001
1000
0001
0000
1000
1000
1000
0000
,
0010
0100
0000
0110
0000
0100
0001
0000
,
0001
0001
1000
2000
0000
0000
3000
0000
;

//---------------dance-single - ----------------
#NOTEDATA:;
#CHARTNAME:;
#CHARTHASH:677047834;
#STEPSTYPE:dance-single;
#BANNER:;
#DESCRIPTION:;
#CHARTSTYLE:;
#DIFFICULTY:Hard;
#METER:13;
#METERF:0.000000;
#LASTSECONDHINT:115.459457;
#RADARVALUES:0.578116,0.616472,0.240575,0.128879,0.017184,471.000000,443.000000,28.000000,15.000000,0.000000,0.000000,0.000000,0.000000,0.000000,0.578116,0.616472,0.240575,0.128879,0.017184,471.000000,443.000000,28.000000,15.000000,0.000000,0.000000,0.000000,0.000000,0.000000;
#CREDIT:;
#NOTES:
// measure 0
0000
0000
0000
0000
,  // measure 1
0000
0000
0000
0000
,  // measure 2
0000
0000
0000
0000
,  // measure 3
0000
0000
0000
0000
,  // measure 4
0000
0000
0000
0000
,  // measure 5
1000
0000
1000
0100
0000
0100
1000
1000
,  // measure 6
0001
0000
0001
0100
0000
0100
0010
0010
,  // measure 7
1000
0000
0001
0010
0100
1000
0001
0000
,  // measure 8
0100
0010
1000
0010
0100
0001
0010
0010
,  // measure 9
0200
0000
0000
0000
0000
0000
1000
1300
1001
0000
1000
0000
0100
0000
0010
0000
,  // measure 10
0001
0000
1000
0010
0000
0010
0100
0001
,  // measure 11
0100
0010
1000
0001
0010
0100
1000
0100
,  // measure 12
0001
0000
0100
1000
0000
0001
0100
0010
,  // measure 13
1000
0010
0100
0001
0010
0100
1000
0100
,  // measure 14
0010
0000
0001
0100
0000
0010
0100
0001
,  // measure 15
0010
0001
0100
0010
1000
0001
0100
0001
,  // measure 16
0010
0000
0001
1000
0010
1000
0100
0000
,  // measure 17
0011
0000
1100
0000
1001
0001
0100
0010
,  // measure 18
0100
0000
0010
1000
0000
0001
0010
1000
,  // measure 19
0010
0100
0010
0100
1000
0010
0100
0001
,  // measure 20
0010
0000
0100
0001
0000
0100
1000
0010
,  // measure 21
0100
0010
0100
0001
0010
0001
1000
0001
,  // measure 22
0010
0000
0100
1000
0000
0001
0100
0010
,  // measure 23
1000
0010
1000
0001
0010
0100
0010
0100
,  // measure 24
1000
0000
0100
0010
0001
0010
0100
0000
,  // measure 25
1000
0010
0100
0001
1001
0001
0100
0100
,  // measure 26
0010
0000
0000
0000
1000
0000
0001
0000
0010
0000
0010
0100
0000
1000
0000
1000
,  // measure 27
0001
0100
0010
1000
0001
0000
1000
1000
,  // measure 28
0100
0000
0001
0001
0010
0000
0001
0100
,  // measure 29
0000
0010
1000
0000
0010
0010
0100
0001
,  // measure 30
0000
0001
0100
0000
0011
0001
0100
1010
,  // measure 31
0100
0001
0101
1000
1100
1000
0100
1000
,  // measure 32
0100
0001
0100
1000
0000
0001
0100
0010
,  // measure 33
1000
0010
1000
0000
0001
0100
1000
0100
,  // measure 34
0001
0010
0100
1000
0000
1000
0010
1000
,  // measure 35
0001
0010
0100
1000
0000
1000
0100
0010
,  // measure 36
0000
0011
0000
1100
0000
0100
1000
0010
,  // measure 37
0100
0010
0100
0000
0001
0100
0010
1000
,  // measure 38
0010
0100
0001
0010
0100
1000
0100
0010
,  // measure 39
0001
0001
1000
0000
0011
0001
0100
0001
,  // measure 40
0010
0001
0010
1000
0000
0010
0001
0100
,  // measure 41
0010
1000
0010
0000
1000
0001
0100
0001
,  // measure 42
0100
0010
0100
0001
0000
0010
0100
0010
,  // measure 43
0001
1000
0010
0100
0001
0100
0010
1000
,  // measure 44
0000
0101
0000
1100
0000
0001
0100
1000
,  // measure 45
0100
0001
0010
0000
0100
0100
1000
0010
,  // measure 46
0010
1000
0100
0100
0010
0100
1000
1000
,  // measure 47
0100
0010
0001
0000
1000
1100
0000
0100
,  // measure 48
0010
0000
0011
0001
0000
0001
0100
0000
,  // measure 49
0010
0100
0010
0000
1000
1001
0000
0001
,  // measure 50
0100
0000
0110
1000
0000
1000
0001
0000
,  // measure 51
0010
0100
0010
0000
0011
0001
0000
1000
,  // measure 52
0010
0000
1000
1100
0000
0001
0100
0000
,  // measure 53
0010
0100
0010
0000
0110
0001
0000
0100
,  // measure 54
0010
0000
1000
1100
0000
0010
0001
0000
,  // measure 55
1000
0001
1000
0000
0001
0100
1000
0200
,  // measure 56
0001
0000
0310
2000
0000
3010
0002
0013
,  // measure 57
1000
0100
0010
0001
0100
0010
1000
0200
,  // measure 58
0001
0000
0010
0302
0000
1003
0020
0130
,  // measure 59
0001
0100
0010
1000
0001
0010
0100
0010
,  // measure 60
0001
0100
0000
0101
0000
0001
0010
0100
,  // measure 61
1000
1000
0001
0000
1000
0001
1000
0010
,  // measure 62
0100
0010
1000
0100
0000
0100
0010
0000
,  // measure 63
0110
0000
1001
0000
0001
0010
1000
0020
,  // measure 64
0001
0000
0130
2000
0000
3010
0200
0301
,  // measure 65
0100
1000
0100
0001
1000
0100
0010
0002
,  // measure 66
1000
0000
0103
0020
0000
0031
0020
0130
,  // measure 67
0001
0010
0100
1000
0010
1000
0100
0010
,  // measure 68
0000
0110
0000
1010
0000
0001
0100
0010
,  // measure 69
1000
1000
0001
0000
0010
0100
0010
0100
,  // measure 70
1000
1000
0001
0100
0010
0010
1000
0001
,  // measure 71
0010
0010
0022
0000
0000
0000
0033
0000
;
