#TITLE:Snow Goose;
#SUBTITLE:;
#ARTIST:Mutsuhiko Izumi;
#TITLETRANSLIT:;
#SUBTITLETRANSLIT:;
#ARTISTTRANSLIT:;
#GENRE:;
#CREDIT:;
#BANNER:Snow Goose.png;
#BACKGROUND:Snow Goose-bg.png;
#LYRICSPATH:;
#CDTITLE:;
#MUSIC:Snow Goose.ogg;
#OFFSET:0.000000;
#SAMPLESTART:22.788000;
#SAMPLELENGTH:15.000000;
#SELECTABLE:YES;
#BPMS:0.000000=200.000000
;
#STOPS:267.750000=2.400000,
307.750000=0.600000
;
#BGCHANGES:;
#KEYSOUNDS:;
#ATTACKS:;

//---------------dance-single - ----------------
#NOTES:
     dance-single:
     :
     Beginner:
     4:
     0.158587,0.229881,0.019648,0.216127,0.000000,113.000000,111.000000,2.000000,22.000000,0.000000,0.000000,0.158587,0.229881,0.019648,0.216127,0.000000,113.000000,111.000000,2.000000,22.000000,0.000000,0.000000:
0000
0000
0000
0000
,
0000
0000
0000
0000
,
0000
0000
0000
0000
,
0000
0000
0000
0000
,
0000
0000
0000
0000
,
0000
0000
0000
0000
,
0001
0000
0001
0000
,
0001
0000
0001
0000
,
1000
0000
1000
0000
,
1000
0000
1000
0000
,
0010
0000
0100
0000
,
0020
0000
0030
0000
,
2000
0000
3000
0000
,
0002
0000
0003
0000
,
0200
0000
0300
0000
,
0002
0000
0003
0000
,
2000
0000
3000
0000
,
0200
0000
0300
0000
,
0020
0000
0030
0000
,
0001
0000
0010
0000
,
1000
0000
0000
0000
,
1000
0000
0010
0000
,
0001
0000
0000
0000
,
0001
0000
0001
0000
,
0100
0000
0100
0000
,
1000
0000
0000
0000
,
0001
0000
0000
0000
,
1000
0000
1000
0000
,
0010
0000
0000
0000
,
0001
0000
0001
0000
,
0100
0000
0000
0000
,
0010
0000
0000
0000
,
0100
0000
0000
0000
,
0001
0000
0000
0000
,
1000
0000
0000
0000
,
1000
0000
1000
0000
,
0002
0000
0003
0000
,
0001
0000
0001
0000
,
2000
0000
3000
0000
,
0010
0000
0010
0000
,
0200
0000
0300
0000
,
0100
0000
0010
0000
,
1000
0000
0001
0000
,
0010
0000
0001
0000
,
0010
0000
0001
0000
,
1000
0000
0100
0000
,
1000
0000
0000
0000
,
0010
0000
1000
0000
,
0010
0000
1000
0000
,
0001
0000
0100
0000
,
0001
0000
0000
0000
,
0100
0000
1000
0000
,
0001
0000
0010
0000
,
1000
0000
0010
0000
,
0001
0000
0000
0000
,
0010
0000
0001
0000
,
1000
0000
0100
0000
,
0001
0000
0100
0000
,
1000
0000
0000
0000
,
0001
0000
0100
0000
,
0020
0000
0030
0000
,
1000
0000
0100
0000
,
0020
0000
0030
0000
,
0001
0000
1000
0000
,
0020
0000
0030
0000
,
1000
0000
0010
0000
,
0100
0000
0001
0000
,
2002
0000
3003
0000
,
0200
0000
0300
0000
,
0020
0000
0030
0000
,
2000
0000
3000
0000
,
0002
0000
0003
0000
,
0010
0000
0001
0000
,
0100
0000
0001
0000
,
1000
0000
0010
0000
,
1000
0000
0100
0000
,
0010
0000
0010
0000
,
0100
0000
2002
0000
,
3003
0000
0000
0000
;

//---------------dance-single - ----------------
#NOTES:
     dance-single:
     :
     Easy:
     7:
     0.301736,0.383134,0.019648,0.314367,0.000000,215.000000,213.000000,2.000000,32.000000,0.000000,0.000000,0.301736,0.383134,0.019648,0.314367,0.000000,215.000000,213.000000,2.000000,32.000000,0.000000,0.000000:
0000
0000
0000
0000
,
0000
0000
0000
0000
,
0000
0000
0000
0000
,
0000
0000
0000
0000
,
0000
0000
0000
0000
,
0000
0000
0000
0000
,
1000
1000
0001
0000
,
0001
0001
0100
0000
,
0010
0010
1000
0000
,
1000
1000
0001
0000
,
0010
0001
0010
0100
,
1000
0100
0001
0000
,
1000
0100
0001
0000
,
0001
0010
1000
0000
,
0001
0010
1000
0000
,
1000
0010
0001
0000
,
1000
0010
0001
0000
,
0001
0100
1000
0000
,
0001
0100
1000
1000
,
0020
1000
0000
1000
,
0200
0000
0000
0330
,
0200
0001
0000
0001
,
0020
0000
0000
0330
,
2000
0000
0100
0100
,
3002
0000
0100
0103
,
0020
0000
0000
0000
,
0230
0000
0020
0330
,
2000
0010
0000
0010
,
0200
0000
0000
3300
,
0002
0100
0000
0100
,
0020
0000
0000
0033
,
2000
0000
0010
0001
,
3002
0000
0100
1000
,
0203
0000
0000
0000
,
0320
0000
2000
3030
,
0001
0100
0010
1000
,
0002
0000
0000
0003
,
1000
0100
0010
0001
,
2000
0000
0000
3000
,
0010
1000
0001
0100
,
0020
0000
0000
0030
,
0100
0001
1000
0100
,
0010
0001
0010
0100
,
1000
0100
0001
0100
,
1000
0100
0001
0100
,
1000
0010
0001
0010
,
1000
0010
0001
0010
,
1000
0010
0100
0001
,
0001
0100
0010
1000
,
0001
0001
1000
1000
,
0010
1000
0001
0100
,
0001
0100
1000
0100
,
0001
0100
1000
0100
,
0001
0010
1000
0010
,
0001
0010
1000
0010
,
0001
0100
0010
1000
,
1000
0010
0100
0001
,
1000
1000
0001
0001
,
0100
0010
1000
0001
,
0010
0100
1000
0100
,
0002
0000
0000
0003
,
0100
0010
0001
1000
,
0020
0000
0000
0030
,
0100
0001
1000
0010
,
0200
0000
0000
0300
,
0001
0100
0010
1000
,
0001
0010
0100
1000
,
2002
0000
0000
3003
,
0200
0000
0000
0300
,
0020
0000
0000
0030
,
0002
0000
0000
0003
,
2000
0000
0000
3000
,
1000
0010
1000
0001
,
1000
0100
1000
1000
,
0001
0100
0001
1000
,
0001
0010
0001
0001
,
0100
0010
1000
1000
,
0010
0000
0100
2002
,
3003
0000
0000
0000
;

//---------------dance-single - ----------------
#NOTES:
     dance-single:
     :
     Medium:
     12:
     0.516459,0.689642,0.019648,0.343838,0.039296,368.000000,366.000000,2.000000,35.000000,0.000000,0.000000,0.516459,0.689642,0.019648,0.343838,0.039296,368.000000,366.000000,2.000000,35.000000,0.000000,0.000000:
0000
0000
0000
0000
,
0000
0000
0000
0000
,
0000
0000
0000
0000
,
0000
0000
0000
0000
,
0000
0000
0000
0000
,
0000
0000
0000
0000
,
0010
0001
0010
0001
1000
0100
1000
0000
,
0001
0100
0001
1000
0010
1000
0010
0000
,
0100
0001
0100
0001
0010
0100
0010
0100
,
1000
0000
0000
0001
0000
0000
0001
0000
0000
0100
0000
0000
0010
0000
0010
0000
,
1000
0000
0000
1000
0000
0000
0001
0000
0000
1000
0000
0000
0100
0000
0100
0000
,
1000
0100
0010
0020
0000
0000
0001
0000
,
0031
0100
0010
0020
0000
0000
1000
0000
,
1030
0010
0100
0200
0000
0000
0001
0000
,
1300
0010
1000
0000
0001
0100
0001
0000
,
1000
0100
0010
0002
0000
0000
1000
0000
,
1003
0001
0010
0200
0000
0000
1000
0000
,
1300
0010
0100
0002
0000
0000
1000
0000
,
0013
0100
0010
0100
1000
0001
1000
0001
,
0200
0000
0010
0000
0000
0310
0100
0000
,
0002
0000
0010
0000
0000
0000
0013
0001
,
2000
0000
0010
0000
0000
3010
1000
0000
,
0002
0100
0000
0103
,
0001
0000
1000
0100
0000
0100
0010
0000
,
0001
0000
0100
0010
0000
0010
1000
0000
,
0002
0000
0000
0000
0010
0000
0000
0100
,
0203
0000
0010
0000
,
0320
0000
1000
0000
0000
0130
0001
0000
,
0002
0000
1000
0000
0000
0000
0013
0100
,
2000
0000
0010
0000
0000
3010
0100
0000
,
0002
0000
1000
0000
0000
0000
0103
0010
,
2000
0000
0010
0000
0000
0001
0001
0000
,
3002
0000
0100
0000
0000
1000
1003
0000
,
1000
0000
0020
0000
0000
0100
0130
0000
,
0001
0010
1000
0000
1000
0010
0001
0000
,
1000
0010
0100
0010
0000
0100
0001
1000
,
0020
0000
0000
0130
,
0100
0001
0010
0100
0000
0100
0010
0001
,
2000
0000
0000
3001
,
0001
1000
0010
0100
0000
0001
1000
0100
,
0020
0000
0000
0031
,
0010
0001
0010
0001
1000
0010
1000
0010
,
0100
0001
0100
0001
1000
0100
1000
0100
,
0010
0000
0001
1000
0100
0010
0001
0000
,
1000
0000
0001
0100
0010
1000
0100
0000
,
1000
0000
0010
0100
0001
0100
0010
0000
,
1000
0100
0010
0100
1000
0010
0100
0000
,
0001
0000
0010
0001
0100
0001
0010
0000
,
0100
0000
1000
0010
0100
0010
1000
0000
,
0002
0010
0000
0010
0000
0100
0000
0103
,
0010
1000
0010
1000
0001
0010
0100
0000
,
0010
0000
0100
1000
0010
1000
0100
0000
,
1000
0000
0001
0100
0010
0100
0001
0000
,
1000
0000
0001
0010
1000
0010
0001
0000
,
0100
0001
0100
0001
1000
0010
1000
0000
,
0001
0000
1000
0100
0010
0100
1000
0000
,
0010
0000
0100
0001
0010
0001
1000
0000
,
0200
0010
0000
0010
0000
1000
0000
1300
,
0001
1000
0010
1000
0001
0010
0100
0000
,
1000
0100
1000
0100
0000
0010
0001
1000
,
0020
0000
0000
1030
,
1000
0010
0100
0010
0000
1000
0010
0100
,
0002
0000
0000
1003
,
1000
0001
0010
0100
0000
0100
0010
0100
,
2000
0000
0000
3010
,
0100
0001
0100
0001
1000
0100
1000
0100
,
0010
0001
0010
0001
1000
0010
1000
0010
,
2002
0000
0000
3000
,
0023
0000
0000
0000
,
0230
0000
0000
0000
,
2300
0000
0000
0000
,
0002
0000
0000
3003
,
1000
0010
1000
0000
1000
0100
1000
0000
,
0100
0001
0100
0000
0100
1000
0100
0000
,
0010
0001
0010
0000
0010
1000
0010
0000
,
0001
0000
0000
0001
0000
0000
1000
0000
0000
0010
0000
0000
0100
0000
0100
0000
,
0010
0000
0000
1000
0000
0000
1000
0000
0000
0001
0000
0000
0100
0000
0100
0000
,
0010
0010
1000
1000
0000
0000
0202
0000
,
0303
0000
0000
0000
;

//---------------dance-single - ----------------
#NOTES:
     dance-single:
     :
     Hard:
     15:
     0.676449,0.957836,0.019648,0.491198,0.284895,482.000000,480.000000,2.000000,50.000000,0.000000,0.000000,0.676449,0.957836,0.019648,0.491198,0.284895,482.000000,480.000000,2.000000,50.000000,0.000000,0.000000:
// measure 0
0000
0000
0000
0000
,  // measure 1
0000
0000
0000
0000
,  // measure 2
0000
0000
0000
0000
,  // measure 3
0000
0000
0000
0000
,  // measure 4
0000
0000
0000
0000
,  // measure 5
0000
0000
0000
0000
,  // measure 6
0100
0001
0100
0001
1000
0010
1000
0010
,  // measure 7
1000
0100
1000
0100
0010
0001
0010
0001
,  // measure 8
1000
0001
1000
0001
0100
0010
0100
0010
,  // measure 9
1000
0000
0000
0010
0000
0000
0001
0000
0000
0010
0000
0000
1000
0000
1000
0000
,  // measure 10
0001
0000
0000
0010
0000
0000
1000
0000
0000
0010
0000
0000
0001
0000
0001
0000
,  // measure 11
0100
0010
1000
2000
0000
0100
3100
0000
,  // measure 12
1000
0100
0010
0020
0000
0001
0031
0000
,  // measure 13
0001
1000
0100
0200
0000
0010
0310
0000
,  // measure 14
0001
0000
0100
0000
0001
0000
1000
0000
0001
0100
0001
0000
1000
0010
1000
0000
,  // measure 15
0010
0100
0001
0002
0000
0010
0013
0000
,  // measure 16
0001
1000
0100
0200
0000
1000
1300
0000
,  // measure 17
0001
0100
0010
0020
0000
1000
1030
0000
,  // measure 18
0010
1000
0010
0000
0100
0001
0100
0000
0001
0010
0100
0000
1000
0010
0100
0000
,  // measure 19
0002
0000
0010
0010
0000
0100
0100
0000
,  // measure 20
2003
0000
0100
0000
0000
0000
3100
1000
,  // measure 21
0020
0000
0100
0100
0000
0001
0001
0000
,  // measure 22
2030
0001
0000
0001
,  // measure 23
3001
0010
0001
0010
0000
0100
0100
0000
,  // measure 24
1000
0010
1000
0010
0000
0100
0100
0000
,  // measure 25
0002
0000
0000
0000
0000
0000
0000
0000
1000
0000
0000
0000
0000
0000
0013
0100
,  // measure 26
2000
0000
3002
0000
,  // measure 27
0203
0000
0010
0010
0000
0001
0001
0000
,  // measure 28
0320
0000
1000
0000
0000
0000
0100
0100
,  // measure 29
2030
0000
0100
0100
0000
0010
0010
0000
,  // measure 30
3002
0000
0000
0000
1000
0000
0000
0000
0000
0000
0000
0000
1003
0010
0100
0001
,  // measure 31
0020
0000
0100
0100
0000
0001
0001
0000
,  // measure 32
0230
0000
1000
1000
0000
0010
0010
0000
,  // measure 33
0302
0000
0000
0000
0000
0000
0000
0000
0100
0000
0000
0000
0000
0000
1003
0100
,  // measure 34
2000
0000
0001
3001
,  // measure 35
1000
0010
1000
0100
0000
1000
0010
0100
,  // measure 36
0002
0000
1000
1000
1003
0000
0001
0000
,  // measure 37
0010
0100
1000
0001
0000
0001
0100
0010
,  // measure 38
2000
0000
0010
0010
3010
0000
0100
0000
,  // measure 39
0001
1000
0010
0100
0000
0001
1000
0100
,  // measure 40
0020
0000
0001
0001
0031
0000
1000
0000
,  // measure 41
0100
1000
0001
0100
0010
1000
0001
0010
,  // measure 42
0001
0010
0100
0000
1000
0010
0100
0000
0001
0100
0010
0000
1000
0100
0010
0001
,  // measure 43
2000
0000
3100
1000
0010
0100
0001
1000
,  // measure 44
0002
0000
0013
0001
0100
0010
1000
0001
,  // measure 45
2000
0000
3001
1000
0100
0010
0001
0010
,  // measure 46
0100
1000
0100
0000
1000
0001
1000
0000
0001
0100
0001
0000
0010
0100
0010
0000
,  // measure 47
0200
0000
1300
0010
0100
0001
1000
0100
,  // measure 48
0020
0000
0031
1000
0010
0100
0001
1000
,  // measure 49
0002
0010
0000
0100
0000
0100
0000
1003
,  // measure 50
0010
1000
0010
0000
0100
0000
0001
0000
1000
0100
1000
0000
0001
0010
0100
1000
,  // measure 51
0020
0000
0130
0001
0100
0010
1000
0001
,  // measure 52
2000
0000
3010
0100
0001
1000
0100
0010
,  // measure 53
0002
0000
1003
0001
0010
0100
1000
0001
,  // measure 54
0100
0001
0100
0000
0010
0100
0010
0000
1000
0010
1000
0000
0001
1000
0001
0000
,  // measure 55
0200
0000
0310
1000
0001
0010
0100
1000
,  // measure 56
0002
0000
1003
0010
0100
0001
0100
0010
,  // measure 57
2000
0001
0000
0001
0000
0100
0000
3001
,  // measure 58
1000
0010
0100
0000
0001
0010
0100
0000
1000
0100
0010
0000
0001
0100
0010
1000
,  // measure 59
0001
1000
0001
1000
0000
0100
0100
0010
,  // measure 60
0002
0000
1000
1000
1003
0000
0001
0000
,  // measure 61
1000
0010
1000
0010
0000
0100
0100
0001
,  // measure 62
0020
0000
0100
0100
0130
0000
0010
0000
,  // measure 63
0001
0010
0001
0010
0000
0001
1000
1000
,  // measure 64
0020
0000
0100
0100
0130
0000
0001
0000
,  // measure 65
1000
0100
1000
0000
0010
0000
0100
0000
0001
0010
0001
0000
0100
0000
0010
0000
,  // measure 66
1000
0010
1000
0000
0001
0010
0001
0000
0100
0010
1000
0000
0001
0010
0100
1000
,  // measure 67
2002
3000
0200
0003
,  // measure 68
0320
0000
2030
0000
,  // measure 69
3002
0000
0023
0000
,  // measure 70
0230
0000
0000
1000
0000
0000
1000
0000
0000
1000
0000
0000
1000
0000
2300
0000
,  // measure 71
0001
0000
0000
0001
0000
0000
0001
0000
0000
0001
0000
0000
0001
0000
3001
0000
,  // measure 72
0100
0001
0100
0001
1000
0010
1000
0010
,  // measure 73
1000
0100
1000
0100
0010
0001
0010
0001
,  // measure 74
0100
0001
0100
0001
1000
0010
1000
0010
,  // measure 75
0100
0000
0001
0100
0000
0010
0100
0000
0001
0100
0000
0010
1000
0000
1000
0000
,  // measure 76
0100
0000
0010
0100
0000
0010
0001
0000
1000
0100
0000
0010
0001
0000
0001
0000
,  // measure 77
1000
0010
1000
0010
0000
0000
0100
0001
0000
0000
0000
0000
2200
0000
0000
0000
,  // measure 78
3300
0000
0000
0000
;
