#VERSION:0.83;
#TITLE:SO DEEP (Sanxion7 Remix);
#SUBTITLE:;
#ARTIST:SILVERTEAR;
#TITLETRANSLIT:;
#SUBTITLETRANSLIT:;
#ARTISTTRANSLIT:;
#GENRE:;
#ORIGIN:;
#CREDIT:;
#BANNER:SO DEEP (Sanxion7 Remix).png;
#BACKGROUND:SO DEEP (Sanxion7 Remix)-bg.png;
#PREVIEWVID:;
#JACKET:SO DEEP (Sanxion7 Remix)-jacket (2).png;
#CDIMAGE:SO DEEP (Sanxion7 Remix)-jacket.png;
#DISCIMAGE:;
#LYRICSPATH:;
#CDTITLE:;
#MUSIC:SO DEEP (Sanxion7 Remix).ogg;
#OFFSET:0.000000;
#SAMPLESTART:55.255001;
#SAMPLELENGTH:15.000000;
#SELECTABLE:YES;
#BPMS:0.000=152.000;
#STOPS:;
#DELAYS:;
#WARPS:;
#TIMESIGNATURES:0.000=4=4;
#TICKCOUNTS:0.000=4;
#COMBOS:0.000=1;
#SPEEDS:0.000=1.000=0.000=0;
#SCROLLS:0.000=1.000;
#FAKES:;
#LABELS:0.000=Song Start;
#BGCHANGES:;
#KEYSOUNDS:;
#ATTACKS:
;

//---------------dance-single - ----------------
#NOTEDATA:;
#CHARTNAME:;
#STEPSTYPE:dance-single;
#DESCRIPTION:;
#CHARTSTYLE:;
#DIFFICULTY:Beginner;
#METER:4;
#RADARVALUES:0.153741,0.280164,0.142306,0.160094,0.000000,121.000000,105.000000,16.000000,18.000000,0.000000,0.000000,0.000000,0.000000,0.000000,0.153741,0.280164,0.142306,0.160094,0.000000,121.000000,105.000000,16.000000,18.000000,0.000000,0.000000,0.000000,0.000000,0.000000;
#CREDIT:;
#NOTES:
0000
0000
0000
0000
,
0000
0000
0000
0000
,
0000
0000
0000
0000
,
0000
0000
0000
0000
,
0000
0000
0000
0000
,
1000
0000
0100
0000
,
1000
0000
1000
0000
,
0001
0000
0100
0000
,
0001
0000
0000
0000
,
1000
0000
0010
0000
,
0100
0000
0001
0000
,
0010
0000
0001
0000
,
1000
0000
0000
0000
,
0001
0000
0010
0000
,
0001
0000
1000
0000
,
0100
0000
1000
0000
,
0010
0000
0100
0000
,
0002
0000
0003
0000
,
2000
0000
3000
0000
,
0002
0000
0003
0000
,
2000
0000
3000
0000
,
0020
0000
0030
0000
,
0200
0000
0300
0000
,
0020
0000
0030
0000
,
0200
0000
0300
0000
,
0002
0000
0003
0000
,
0020
0000
0030
0000
,
0002
0000
0003
0000
,
0020
0000
0030
0000
,
0200
0000
0300
0000
,
2000
0000
3000
0000
,
0200
0000
0300
0000
,
2000
0000
3000
0000
,
0002
0000
0000
0000
,
0000
0000
0003
0000
,
1000
1000
0000
0000
,
0001
0001
0000
0000
,
1000
0000
0001
0000
,
0010
0000
0100
0000
,
0010
0010
0000
0000
,
0100
0100
0000
0000
,
1000
0000
0010
0000
,
0100
0000
0001
0000
,
1000
0000
0000
0001
,
0001
0000
0000
0001
,
0001
0000
1000
0000
,
0100
0000
0010
0000
,
0010
0000
0000
0100
,
0100
0000
0000
0000
,
0100
0000
1000
0000
,
0001
0000
0100
0000
,
0110
0110
0000
0000
,
1001
1001
0000
0000
,
0010
0000
0010
0000
,
0100
0000
0100
0000
,
1001
1001
0000
0000
,
0110
0110
0000
0000
,
1000
0000
0010
0000
,
0100
0000
0001
0000
,
1001
1001
0000
0000
,
0110
0110
0000
0000
,
0001
0000
0010
0000
,
0100
0000
1000
0000
,
1001
1001
0000
0000
,
0110
0110
0000
0000
,
0100
0000
0001
0000
,
1000
0000
0100
0000
,
0010
0000
0001
0000
,
2000
0000
0000
0000
,
0000
0000
0000
0000
,
3000
0000
0000
0000
;

//---------------dance-single - ----------------
#NOTEDATA:;
#CHARTNAME:;
#STEPSTYPE:dance-single;
#DESCRIPTION:;
#CHARTSTYLE:;
#DIFFICULTY:Easy;
#METER:8;
#RADARVALUES:0.313835,0.498070,0.097835,0.204564,0.000000,247.000000,236.000000,11.000000,23.000000,0.000000,0.000000,0.000000,0.000000,0.000000,0.313835,0.498070,0.097835,0.204564,0.000000,247.000000,236.000000,11.000000,23.000000,0.000000,0.000000,0.000000,0.000000,0.000000;
#CREDIT:;
#NOTES:
0000
0000
0000
0000
,
0000
0000
0000
0000
,
0000
0000
0000
0000
,
0000
0000
0000
0000
,
0000
0000
0000
0000
,
0001
0000
0100
0000
,
0001
0000
0100
0001
,
1000
0000
0100
0000
,
1000
0000
0100
0010
,
0010
0001
0010
0010
,
0001
1000
0001
0001
,
1000
0010
1000
1000
,
0100
0000
1000
0000
0100
0100
0100
0000
,
1000
0001
0010
0010
,
0001
1000
0100
0100
,
1000
1000
0010
0010
,
0100
0010
0100
0000
0001
1000
0001
1000
,
0002
0000
1000
1000
,
2003
0000
0100
0100
,
3200
0000
0000
0000
,
0320
0000
0001
0001
,
0032
0000
0000
0100
,
0203
0000
0010
0010
,
0320
0000
0000
0000
,
2030
0000
0010
0010
,
3020
0000
0000
0100
,
0230
0000
0001
0001
,
0302
0000
0000
0000
,
2003
0000
0100
0100
,
3200
0000
0000
0010
,
0320
0000
0100
0100
,
0230
0000
0000
0000
,
2300
0000
0001
0001
,
3002
0000
0000
0000
,
0000
0000
0000
0100
,
0103
0000
0100
0010
,
1000
0000
0000
0000
0010
0000
0100
0100
,
0001
0000
0010
0100
,
1000
0000
0000
0000
0100
0000
0010
0001
,
0001
0000
1000
0001
,
0100
0000
0000
0000
0001
0000
1000
0100
,
0100
0000
0000
0000
1000
0000
0001
0001
,
0010
0000
0000
0000
0001
0000
1000
1000
,
0010
0010
0100
0100
,
0001
0000
0010
0000
0100
0000
1000
1000
,
0100
0100
0010
0010
,
0001
0000
1000
0000
0100
0000
0010
0010
,
0001
0001
1000
1000
,
0010
0000
1000
0000
0001
0100
0100
0000
,
0001
0010
0001
0000
1000
0100
1000
0000
,
0100
1000
0001
0100
,
0010
0100
0010
0000
1000
0000
0100
0000
,
0021
0001
0100
0031
,
0100
0001
0100
0000
0001
0000
1000
0000
,
1020
0100
0001
1030
,
0100
1000
0100
0000
1000
0000
0001
0000
,
0201
0001
0010
0301
,
0100
0001
0100
0000
0010
0000
1000
0000
,
1200
1000
0001
1300
,
0001
0010
0001
0000
0010
0000
0001
0000
,
1000
0010
1000
0000
0010
0000
1000
0000
,
0001
1000
0001
0000
0100
0010
0001
0000
,
1000
0001
1000
0000
0100
0010
1000
0000
,
1010
0000
1000
0000
0100
1000
0010
0000
,
0101
0000
0001
0000
0010
0001
0100
0000
,
0010
1000
0010
0000
0100
0001
0100
0000
,
0010
1000
0100
0000
0001
0100
1000
0000
,
1010
0101
0011
1100
,
2002
0000
0000
0000
,
0000
0000
0000
0000
,
3003
0000
0000
0000
;

//---------------dance-single - ----------------
#NOTEDATA:;
#CHARTNAME:;
#STEPSTYPE:dance-single;
#DESCRIPTION:;
#CHARTSTYLE:;
#DIFFICULTY:Medium;
#METER:13;
#RADARVALUES:0.532376,0.622588,0.026682,0.151200,0.329082,419.000000,416.000000,3.000000,17.000000,0.000000,0.000000,0.000000,0.000000,0.000000,0.532376,0.622588,0.026682,0.151200,0.329082,419.000000,416.000000,3.000000,17.000000,0.000000,0.000000,0.000000,0.000000,0.000000;
#CREDIT:;
#NOTES:
0000
0000
0000
0000
,
0000
0000
0000
0000
,
0000
0000
0000
0000
,
0000
0000
0000
0000
,
0000
0000
0000
0000
,
0000
0001
0000
0001
0000
0010
0000
0010
,
0000
0001
0000
0001
0000
0100
0000
0100
,
0000
0010
0000
0010
0000
1000
0000
1000
,
0000
0100
0000
0100
0000
1000
0000
1000
,
0001
0100
0001
0000
1000
0001
1000
0000
,
0010
1000
0010
0000
0100
0001
0100
0100
,
0001
0010
0001
0000
1000
0010
1000
0000
,
0100
1000
0100
0000
1000
0001
1000
1000
,
0001
0100
0001
0000
1000
0100
0010
0000
,
0001
0100
0001
0000
0100
0010
1000
1000
,
0010
1000
0010
0000
1000
0001
0100
0000
,
0001
0100
0001
0000
1000
0001
0010
0100
,
2000
0000
0010
0000
0010
0000
3010
0100
,
0002
0000
0010
0000
0103
0001
0010
0100
,
2000
0001
0010
0100
,
3002
0000
0100
0000
1003
0001
1000
0010
,
0200
0000
0001
0000
0010
0000
0310
0100
,
0002
0000
0010
0000
0100
0000
0013
0100
,
2000
0010
0001
3001
,
1000
0010
1000
0010
0100
0001
0100
0001
,
0020
0000
0001
0000
0100
0000
0031
0100
,
0020
0000
1000
0000
0130
0010
1000
0001
,
0020
0001
0001
0001
,
0230
0000
1000
0000
1300
0100
0001
1000
,
0200
0000
1000
0000
0010
0000
1300
0001
,
0200
0000
0010
0000
0301
0100
0010
1000
,
0200
0010
0010
0310
,
1000
0010
0100
0001
0010
0001
1000
0100
,
0020
0000
0000
0000
,
0000
0000
0000
0130
,
1000
0100
0000
0000
0100
0000
1000
0001
0000
0000
0001
0000
0100
0000
0000
0000
,
0001
0100
0000
0000
0100
0000
0001
1000
0000
0000
1000
0000
0010
0000
0010
0000
,
1000
0010
0000
0000
0010
0000
0100
0001
0000
0000
0001
0000
0010
0000
0000
0000
,
0001
0010
0000
0000
0010
0000
0100
1000
0000
0000
1000
0000
0001
0000
0001
0000
,
1000
0010
0000
0000
0100
0000
0010
1000
0000
0000
1000
0000
0001
0000
0000
0000
,
0001
0100
0000
0000
0010
0000
0100
0001
0000
0000
0001
0000
1000
0000
1000
0000
,
0100
0010
0000
0000
0100
0000
1000
0010
0000
0000
0010
0000
1000
0000
0000
0000
,
0001
0100
0000
0000
0010
0000
0100
0001
0000
0000
0001
0000
1000
0000
1000
0000
,
0001
0010
0000
0000
0010
0000
0100
1000
0000
0000
0001
0000
1000
0000
0000
0000
,
1000
0001
0000
0000
0100
0000
0100
0010
0000
0000
0010
0000
1000
0000
1000
0000
,
0001
0100
0000
0000
0010
0000
0100
0001
0000
0000
0001
0000
1000
0000
0000
0000
,
1000
0100
0000
0000
0010
0000
0001
0100
0000
0000
0100
0000
0001
0000
0001
0000
,
1000
0010
0000
0000
0010
0000
0010
0100
0000
0000
0100
0000
0001
0000
0000
0000
,
0001
0010
0000
0000
0010
0000
0010
0100
0000
0000
0100
0000
1000
0000
1000
0000
,
0001
1000
0000
0000
0010
0000
0100
0001
0000
0000
0001
0000
1000
0000
0000
0000
,
1000
0001
0000
0000
0100
0000
0010
1000
0000
0000
1000
0000
0001
0000
0001
0000
,
0010
0100
0000
0000
1000
0000
0100
0010
0000
0010
0100
0000
1000
0000
0000
0000
,
0001
0100
0000
0000
0010
0000
0100
0010
0000
0010
0100
0000
0001
0000
0001
0000
,
1000
0001
0000
0000
0100
0000
0001
1000
0000
1000
0010
0000
1000
0000
0000
0000
,
0001
1000
0000
0000
0010
0000
1000
0001
0000
0001
0100
0000
0001
0000
0001
0000
,
0010
0100
0000
0000
1000
0000
0100
0010
0000
0010
0100
0000
1000
0000
0000
0000
,
0010
0100
0000
0000
0001
0000
0100
0010
0000
0010
0100
0000
0001
0000
0001
0000
,
1000
0001
0000
0000
0100
0000
0001
0010
0000
0010
0100
0000
1000
0000
0000
0000
,
0001
1000
0000
0000
0100
0000
1000
0010
0000
0010
0100
0000
0001
0000
0001
0000
,
0010
0000
0001
0000
0100
0000
0001
0100
0000
0001
0100
0000
0010
0000
0000
0000
,
0100
0000
0001
0000
0010
0000
0100
0010
0000
0010
0100
0000
1000
0000
1000
0000
,
0100
0000
1000
0000
0010
0000
1000
0010
0000
1000
0010
0000
0100
0000
0000
0000
,
0010
0000
1000
0000
0100
0000
0010
0100
0000
0100
0010
0000
0001
0000
0001
0000
,
1000
0000
0010
0000
0100
0000
0000
0100
0000
0001
1000
0000
0001
0000
0000
0000
,
0100
0000
0001
0000
0010
0000
0000
0100
0000
1000
0010
0000
1000
0000
1000
0000
,
0001
0100
0000
0001
0100
0000
0001
0100
0000
0000
0010
0000
0010
0000
1000
0000
,
1000
0100
0000
1000
0100
0000
1000
0100
0000
0000
0010
0000
0010
0000
0000
0000
,
1000
0101
0001
1100
,
0220
0000
0000
0000
,
0000
0000
0000
0000
,
0330
0000
0000
0000
;

//---------------dance-single - ----------------
#NOTEDATA:;
#CHARTNAME:;
#STEPSTYPE:dance-single;
#DESCRIPTION:;
#CHARTSTYLE:;
#DIFFICULTY:Hard;
#METER:15;
#RADARVALUES:0.728046,0.747105,0.053365,0.160094,0.804917,573.000000,567.000000,6.000000,18.000000,0.000000,0.000000,0.000000,0.000000,0.000000,0.728046,0.747105,0.053365,0.160094,0.804917,573.000000,567.000000,6.000000,18.000000,0.000000,0.000000,0.000000,0.000000,0.000000;
#CREDIT:;
#NOTES:
// measure 0
0000
0000
0000
0000
,  // measure 1
0000
0000
0000
0000
,  // measure 2
0000
0000
0000
0000
,  // measure 3
0000
0000
0000
0000
,  // measure 4
0000
0000
0000
0000
,  // measure 5
1000
0010
0000
0010
0100
0000
0100
0000
0001
0010
0000
0010
0100
0000
0100
0000
,  // measure 6
1000
0001
0000
0001
0100
0000
0100
0000
0001
0010
0100
0000
1000
0010
0100
0000
,  // measure 7
0001
0100
0000
0100
0010
0000
0010
0000
1000
0100
0000
0100
0010
0000
0010
0000
,  // measure 8
0001
1000
0000
1000
0010
0000
0010
0000
1000
0001
0010
0000
0001
0100
0010
0000
,  // measure 9
1000
0001
0000
0001
0100
0000
0010
0000
0100
0001
0000
0001
0010
0000
0100
0000
,  // measure 10
1000
0001
0000
0001
0010
0000
0100
0000
0010
0001
0100
0000
0010
1000
0100
0000
,  // measure 11
0100
1000
0000
1000
0010
0000
0100
0000
0010
1000
0000
1000
0001
0000
0100
0000
,  // measure 12
0010
1000
0000
0100
1000
0000
0001
0000
0100
0001
0010
0000
0100
1000
0001
0100
,  // measure 13
0010
1000
0000
0010
0100
0000
0010
0000
0100
0001
0000
0100
0010
0000
0100
0000
,  // measure 14
0001
1000
0000
0100
0010
0000
0100
0000
1000
0100
0010
0000
1000
0100
0001
0000
,  // measure 15
0100
1000
0000
0001
0100
0000
0100
0000
0010
1000
0000
0001
0010
0000
0100
0000
,  // measure 16
0010
0001
0000
1000
0100
0000
1000
0000
0001
0010
1000
0000
1000
0010
0001
0000
,  // measure 17
2001
0000
0010
0000
3100
1000
0010
0100
,  // measure 18
0002
0000
0010
0000
1003
0010
1000
0100
,  // measure 19
0020
0001
0001
0100
,  // measure 20
0032
0000
0100
0000
0013
0001
0100
0010
,  // measure 21
2000
0000
0001
0000
3010
0100
0001
1000
,  // measure 22
0200
0000
1000
0000
1300
0001
1000
0100
,  // measure 23
0020
1000
1000
0100
,  // measure 24
2030
0000
0010
0000
3010
0100
0001
1000
,  // measure 25
0002
0000
0010
0000
1003
0001
0010
0100
,  // measure 26
2000
0000
0001
0000
3100
1000
0010
0100
,  // measure 27
0002
0010
0100
0010
,  // measure 28
1003
0010
1000
0010
0100
0001
0010
0100
,  // measure 29
2000
0000
0010
0000
0100
0000
3001
1000
,  // measure 30
0200
0000
0010
0000
0310
0100
1000
0001
,  // measure 31
0020
0001
0001
0100
,  // measure 32
0031
0100
0010
1000
0100
0010
0001
1000
,  // measure 33
2002
0000
0000
0000
,  // measure 34
0000
0000
3003
1001
,  // measure 35
1000
0100
0000
0100
1000
0000
1000
0001
0000
0001
1000
0000
0010
0000
0010
0000
,  // measure 36
0010
1000
0000
1000
0001
0000
0001
0100
0000
0100
0010
0000
1000
0000
1000
0000
,  // measure 37
1000
0100
0000
0100
1000
0000
1000
0001
0000
0001
1000
0000
0010
0000
0010
0000
,  // measure 38
0010
1000
0000
1000
0001
0000
0001
0100
0000
0100
0010
0000
1000
0000
1000
0000
,  // measure 39
0001
0100
0000
0100
0001
0000
0001
1000
0000
1000
0001
0000
0010
0000
0010
0000
,  // measure 40
0010
0001
0000
0001
1000
0000
1000
0100
0000
0100
0010
0000
0001
0000
0001
0000
,  // measure 41
0001
0100
0000
0100
0001
0000
0001
1000
0000
1000
0001
0000
0010
0000
0010
0000
,  // measure 42
0010
0001
0000
0001
1000
0000
1000
0100
0000
0100
0010
0000
0001
0000
0001
0000
,  // measure 43
1000
0100
0000
0100
1000
0000
0100
0010
0000
0010
0001
0000
0100
0000
0100
0000
,  // measure 44
0010
1000
0000
1000
0001
0000
0100
0001
0000
0001
0010
0000
0100
1000
0100
0000
,  // measure 45
0100
0010
0000
0010
0001
0000
0001
1000
0000
1000
0010
0000
1000
0000
1000
0000
,  // measure 46
0001
0100
0000
0100
0001
0000
0100
0010
0000
0010
1000
0000
0010
1000
0010
0000
,  // measure 47
1000
0001
0000
0001
0010
0000
0010
0001
0000
0001
1000
0000
0001
0000
0001
0000
,  // measure 48
0001
1000
0000
1000
0100
0000
0100
1000
0000
1000
0001
0000
0100
0010
0100
0000
,  // measure 49
0010
1000
0000
1000
0100
0000
0100
1000
0000
0001
1000
0000
0100
0000
0100
0000
,  // measure 50
0010
0001
0000
0001
1000
0000
0001
1000
0000
0010
1000
0000
0100
0000
0100
0000
,  // measure 51
1000
0100
1000
0000
0010
0000
1000
0100
0010
0000
0100
0000
1000
0010
1000
0000
,  // measure 52
0001
0100
0000
0100
0010
0000
0010
1000
0000
1000
0100
0000
1000
0000
1000
0000
,  // measure 53
0001
0010
0001
0000
0100
0000
0001
0010
0100
0000
0010
0000
0001
0100
0001
0000
,  // measure 54
1000
0010
0000
0010
0100
0000
0100
0001
0000
0001
1000
0000
0001
0100
0001
0000
,  // measure 55
0010
0100
0010
0000
0100
0000
0010
0001
0100
0000
0010
0000
0100
0001
0100
0000
,  // measure 56
0010
1000
0000
1000
0100
0000
0010
0001
0000
0001
1000
0000
0001
0000
0001
0000
,  // measure 57
0100
0010
0100
0000
0010
0000
1000
0100
0010
0000
0100
0000
1000
0010
1000
0000
,  // measure 58
0010
1000
0000
1000
0001
0000
0001
0010
0000
0010
0100
0000
1000
0100
1000
0000
,  // measure 59
1000
0010
0100
0000
0010
0000
1000
0010
0001
0000
0010
0000
1000
0010
1000
0000
,  // measure 60
0001
0010
0000
0001
0100
0000
0001
0010
0000
0001
1000
0000
0100
0010
0100
0010
,  // measure 61
0001
0100
0010
0000
0100
0000
0001
0100
1000
0000
0100
0000
0001
0010
0001
0000
,  // measure 62
1000
0010
0000
1000
0100
0000
1000
0001
0000
1000
0100
0000
1000
0001
1000
0001
,  // measure 63
0100
0010
1000
0000
0010
0000
0100
0010
0001
0000
0010
0000
0100
0010
1000
0000
,  // measure 64
0001
0010
0000
0010
1000
0000
0001
0100
0000
0100
1000
0000
0001
1000
0001
0000
,  // measure 65
0010
0100
1000
0000
0100
0000
0010
0100
0001
0000
0100
0000
0010
0100
1000
0000
,  // measure 66
1000
0010
0000
0010
0001
0000
0001
0100
0000
0100
1000
0000
0001
1000
0001
1000
,  // measure 67
0100
0010
0101
0000
0100
0010
1100
0000
,  // measure 68
2002
0000
0000
0000
,  // measure 69
0000
0000
0000
0000
,  // measure 70
3003
0000
0000
0000
;
