#VERSION:0.83;
#TITLE:SKY HIGH (Speed Remix);
#SUBTITLE:;
#ARTIST:DJ MIKO;
#TITLETRANSLIT:;
#SUBTITLETRANSLIT:;
#ARTISTTRANSLIT:;
#GENRE:;
#ORIGIN:;
#CREDIT:;
#BANNER:SKY HIGH (Speed Remix).png;
#BACKGROUND:SKY HIGH (Speed Remix)-bg (widescreen).png;
#PREVIEWVID:;
#JACKET:SKY HIGH (Speed Remix)-jacket.png;
#CDIMAGE:;
#DISCIMAGE:Dancemania.png;
#LYRICSPATH:;
#CDTITLE:;
#MUSIC:SKY HIGH (Speed Remix).ogg;
#OFFSET:0.000000;
#SAMPLESTART:51.494999;
#SAMPLELENGTH:15.003000;
#SELECTABLE:YES;
#DISPLAYBPM:172.000000;
#BPMS:0.000=172.378,
256.000=175.000;
#STOPS:44.000=0.174,
44.500=0.174,
45.000=0.174,
45.500=0.174,
142.000=0.174,
142.500=0.174,
143.000=0.087,
143.250=0.087,
143.500=0.174;
#DELAYS:;
#WARPS:;
#TIMESIGNATURES:0.000=4=4;
#TICKCOUNTS:0.000=4;
#COMBOS:0.000=1;
#SPEEDS:0.000=1.000=0.000=0;
#SCROLLS:0.000=1.000;
#FAKES:;
#LABELS:0.000=Song Start;
#BGCHANGES:;
#KEYSOUNDS:;
#ATTACKS:
;

//---------------dance-single - ----------------
#NOTEDATA:;
#CHARTNAME:;
#STEPSTYPE:dance-single;
#DESCRIPTION:;
#CHARTSTYLE:;
#DIFFICULTY:Beginner;
#METER:4;
#RADARVALUES:0.163829,0.279221,0.039889,0.109694,0.000000,115.000000,111.000000,4.000000,11.000000,0.000000,0.000000,0.000000,0.000000,0.000000,0.163829,0.279221,0.039889,0.109694,0.000000,115.000000,111.000000,4.000000,11.000000,0.000000,0.000000,0.000000,0.000000,0.000000;
#CREDIT:;
#DISPLAYBPM:172.000000;
#NOTES:
0000
0000
0000
0000
,
0000
0000
0000
0000
,
0000
0000
0000
0000
,
0000
0000
0000
0000
,
0000
0000
0000
0000
,
0000
0000
0000
0000
,
0000
0000
0000
0000
,
0000
0000
0000
0000
,
0000
0000
0000
0000
,
0020
0000
0000
0000
,
0000
0000
0030
0000
,
2000
3000
0001
0000
,
0000
0000
0100
0000
,
0010
0000
1000
0000
,
0000
0000
0001
0000
,
0010
0000
0100
0000
,
0000
0000
1000
0000
,
0001
0000
0100
0000
,
0010
0000
0100
0000
,
0010
0000
1000
0000
,
0000
0000
0001
0000
,
0000
0000
0010
0000
,
0001
0000
0010
0000
,
0001
0000
1000
0000
,
0000
0000
0010
0000
,
1000
0000
0001
0000
,
0100
0000
0010
0000
,
0010
0000
0010
0000
,
1000
0000
0100
0000
,
0001
0000
0100
0000
,
1000
0000
0010
0000
,
0000
0000
0100
0000
,
1000
0000
0010
0000
,
0001
0000
0010
0000
,
1000
0000
0100
0000
,
0010
0000
0000
0000
0002
0000
0000
0003
,
1001
0000
1000
0000
,
0001
0000
0100
0000
,
0010
0000
1000
0000
,
0010
0010
0010
0000
,
1000
0000
0001
0000
,
0010
0000
0001
0000
,
0100
0000
0010
0000
,
1000
1000
1000
0000
,
0020
0000
0000
0000
,
0000
0000
0030
0000
,
0100
0100
0100
0000
,
0001
0001
0001
0000
,
1000
1000
1000
0000
,
0001
0001
0001
0000
,
0010
0010
0010
0000
,
0100
0100
0100
0000
,
0010
0000
0001
0000
,
1000
0000
0100
0000
,
2000
0000
0000
0000
,
0000
0000
0000
3000
,
0001
0000
0001
0000
,
1000
0000
1000
0000
,
0010
0000
0010
0000
,
0100
0000
0100
0000
,
0010
0010
0010
0000
,
1000
1000
1000
0000
,
0001
0001
0001
0000
,
0010
0010
0010
0000
,
0220
0000
0330
0000
,
1000
0000
0000
0000
,
0220
0000
0330
0000
,
0001
0000
0000
0000
,
2002
0000
0000
0000
,
0000
0000
0000
0000
,
3003
0000
0000
0000
;

//---------------dance-single - ----------------
#NOTEDATA:;
#CHARTNAME:;
#STEPSTYPE:dance-single;
#DESCRIPTION:;
#CHARTSTYLE:;
#DIFFICULTY:Easy;
#METER:8;
#RADARVALUES:0.336205,0.418831,0.159555,0.139610,0.000000,236.000000,220.000000,16.000000,14.000000,0.000000,1.000000,0.000000,0.000000,0.000000,0.336205,0.418831,0.159555,0.139610,0.000000,236.000000,220.000000,16.000000,14.000000,0.000000,1.000000,0.000000,0.000000,0.000000;
#CREDIT:;
#DISPLAYBPM:172.000000;
#NOTES:
0000
0000
0000
0000
,
0000
0000
0000
0000
,
0000
0000
0000
0000
,
0000
0000
0000
0000
,
0000
0000
0000
0000
,
0000
0000
0000
0000
,
0000
0000
0000
0000
,
0000
0000
0000
0000
,
0000
0000
0000
0000
,
2002
0000
0000
0000
,
0000
0000
0000
3003
,
0010
0010
0010
0010
0110
0000
0100
0000
,
0001
0100
0010
1000
,
0001
0000
1100
0010
,
0001
0010
0100
1000
,
0001
0000
0011
0100
,
0010
1000
0010
0100
,
0001
0001
1100
1000
,
0100
0001
0100
1000
,
0010
0100
0110
0010
,
1000
0010
0001
0010
,
1000
0010
0001
0010
,
0010
0100
0100
0001
,
0001
1000
1001
1000
,
0100
0001
0100
1000
,
0010
0100
0001
0001
,
1000
1000
0100
0100
,
0010
0010
1100
0000
,
0100
1000
0010
0000
,
0100
0001
0010
0000
,
0001
1000
0010
1000
,
0010
0100
0001
0000
,
0010
0001
1000
0000
,
0100
1000
0001
0000
,
1000
0010
0100
0001
,
0100
0000
0010
0000
1000
1000
0100
0110
,
0010
0010
0001
0001
,
1000
0010
1000
0010
,
0100
0100
0001
0001
,
1000
0000
0100
0000
0010
0001
0010
0000
,
1001
0001
0100
0010
,
1000
1000
0001
0001
,
0010
0100
1000
0100
,
0010
0000
0010
0001
0000
0001
1000
0000
,
2002
0000
0000
0000
,
3203
0010
0010
0310
,
0110
0010
1000
0010
,
0100
0001
0010
0100
,
1000
1000
0001
0001
,
0010
0000
0100
0000
1000
0001
1000
0000
,
1010
0100
0001
0100
,
0010
1000
0100
0010
,
0001
0001
1000
1000
,
0100
0000
0100
0010
0000
0010
0001
0000
,
0012
0100
0100
0100
,
2003
0000
0010
0000
0010
0010
3010
0000
,
1000
0010
1000
0001
,
0100
0010
0100
0000
,
0001
0100
0010
1000
,
0100
1000
0100
0000
,
0010
0010
0001
0001
,
1000
0010
1000
0001
,
1000
1000
0001
0001
,
0010
0100
0010
0001
,
1002
0000
0100
0000
,
2003
0010
0001
0000
,
3200
0000
0010
0000
,
0320
0100
0002
0033
,
2002
0000
0000
0000
,
0000
0000
0000
0000
,
3003
0000
0000
0000
;

//---------------dance-single - ----------------
#NOTEDATA:;
#CHARTNAME:;
#STEPSTYPE:dance-single;
#DESCRIPTION:;
#CHARTSTYLE:;
#DIFFICULTY:Medium;
#METER:12;
#RADARVALUES:0.552744,0.663150,0.139610,0.388915,0.134624,388.000000,374.000000,14.000000,39.000000,0.000000,0.000000,0.000000,0.000000,0.000000,0.552744,0.663150,0.139610,0.388915,0.134624,388.000000,374.000000,14.000000,39.000000,0.000000,0.000000,0.000000,0.000000,0.000000;
#CREDIT:;
#DISPLAYBPM:172.000000;
#NOTES:
0000
0000
0000
0000
,
0000
0000
0000
0000
,
0000
0000
0000
0000
,
0000
0000
0000
0000
,
0000
0000
0000
0000
,
0000
0000
0000
0000
,
0000
0000
0000
0000
,
0000
0000
0000
0000
,
0000
0000
0000
0000
,
0220
0000
0000
0000
,
0000
0000
0000
0330
,
0010
0010
0110
0110
0100
0001
1000
0100
,
0010
0001
0010
0100
1000
0002
0103
0002
,
1003
0002
0013
0000
0010
0100
1000
0001
,
0100
0010
0100
0001
0010
0200
1300
0200
,
0301
0200
1300
0000
0001
0010
0001
0100
,
0010
1000
0100
0010
0001
0010
0200
1300
,
0200
0301
0200
1300
0010
1000
0010
1000
,
0001
0100
0001
0100
0010
0020
1030
2000
,
3001
0002
0023
0000
0130
0000
0110
0000
,
0100
1000
0010
0000
0100
1000
0010
0000
,
0100
0001
0010
0000
0100
0001
0010
0001
,
0010
0001
1000
0010
1000
0010
0100
0001
,
1000
0100
0010
0001
1000
0000
1001
0000
,
1000
0100
0010
0000
0001
0100
0010
0000
,
0001
0010
0100
0000
0010
0001
0010
0001
,
1000
0010
0100
0001
0100
0010
1000
0001
,
0010
0100
1000
1000
0012
0000
0103
0000
,
0100
0010
1000
0001
2000
0000
3010
0000
,
0100
0001
1000
0100
0020
0000
0001
0000
,
0100
0000
0031
0100
0010
0010
1000
0100
,
0100
0010
0001
0000
2100
0000
3001
0000
,
0100
0010
1000
0001
0020
0000
0130
0000
,
1000
0010
0100
0001
0020
0000
0130
0000
,
1000
0100
0010
0001
1000
0010
0010
0100
,
0100
0000
0001
0000
1000
0000
0000
0000
0001
0000
0001
0000
0100
0010
1001
0000
,
0011
0000
0000
0100
0000
0000
1000
0000
0010
0000
0000
0100
0000
0000
0001
0000
,
1000
0000
0000
0001
0000
0000
0010
0000
0100
0000
0000
0010
0000
0000
0001
0000
,
1000
0000
0000
0010
0000
0000
0100
0000
0001
0000
0000
0100
0000
0000
0010
0000
,
1000
0100
1000
0100
0010
0100
0101
0000
,
1001
0000
0000
0010
0000
0000
0100
0000
0001
0000
0000
0010
0000
0000
0100
0000
,
1000
0000
0000
0001
0000
0000
1000
0000
0100
0000
0000
0010
0000
0000
0001
0000
,
1000
0000
0000
0010
0000
0000
0010
0000
0001
0000
0000
0100
0000
0000
0100
0000
,
1000
0001
1000
0001
0100
0010
1000
0000
,
0021
0100
0001
1000
,
0230
0000
1000
0000
0010
0000
1000
1300
,
0001
0000
0000
0010
0000
0000
0100
0000
1000
0000
0000
0100
0000
0000
0010
0000
,
0001
0000
0000
1000
0000
0000
0010
0000
0100
0000
0000
0001
0000
0000
0100
0000
,
0010
0000
0000
1000
0000
0000
1000
0000
0001
0000
0000
0010
0000
0000
0010
0000
,
0100
0000
0000
1000
0000
0000
1000
0000
0001
0000
0000
0100
0000
0000
0100
0000
,
0110
0000
0000
0010
0000
0000
1000
0000
0001
0000
0000
0100
0000
0000
0010
0000
,
1000
0000
0000
0001
0000
0000
0010
0000
0100
0000
0000
1000
0000
0000
0001
0000
,
1000
0000
0000
0010
0000
0000
1000
0000
0001
0000
0000
0100
0000
0000
0001
0000
,
0010
0100
1000
1000
0001
0001
0100
0000
,
2010
0001
0100
3002
,
0010
0000
1000
0000
0103
0010
0000
0010
,
1000
0010
0100
0001
0010
0100
1000
0100
,
0010
0002
0103
0002
0013
0002
1003
0000
,
0001
1000
0010
0100
0001
0010
0100
1000
,
0010
2000
3001
2000
3100
2000
3010
0000
,
1000
0010
1000
0010
0100
0001
0010
0100
,
1000
0020
0130
0020
0031
0020
1030
0000
,
0001
1000
0010
0100
0001
0100
0001
0010
,
0001
0200
0310
0200
1300
0200
0302
0000
,
1003
0000
1000
0000
1000
0000
1000
0100
,
0010
0000
0010
0000
0001
0010
0001
0010
,
0100
0000
0100
0000
1000
0000
1000
0001
,
0100
0000
0010
0000
1000
0001
1000
0001
,
0020
0000
0000
0000
,
0000
0000
0000
0000
,
0030
0000
0000
0000
;

//---------------dance-single - ----------------
#NOTEDATA:;
#CHARTNAME:;
#STEPSTYPE:dance-single;
#DESCRIPTION:;
#CHARTSTYLE:;
#DIFFICULTY:Hard;
#METER:15;
#RADARVALUES:0.770707,0.872566,0.388915,0.558442,0.498609,541.000000,502.000000,39.000000,56.000000,0.000000,0.000000,0.000000,0.000000,0.000000,0.770707,0.872566,0.388915,0.558442,0.498609,541.000000,502.000000,39.000000,56.000000,0.000000,0.000000,0.000000,0.000000,0.000000;
#CREDIT:;
#DISPLAYBPM:172.000000;
#NOTES:
// measure 0
0000
0000
0000
0000
,  // measure 1
0000
0000
0000
0000
,  // measure 2
0000
0000
0000
0000
,  // measure 3
0000
0000
0000
0000
,  // measure 4
0000
0000
0000
0000
,  // measure 5
0000
0000
0000
0000
,  // measure 6
0000
0000
0000
0000
,  // measure 7
0000
0000
0000
0000
,  // measure 8
0000
0000
0000
0000
,  // measure 9
2002
0000
0000
0000
,  // measure 10
0000
0000
0000
3003
,  // measure 11
1010
0101
1100
0101
1001
0010
0100
0010
,  // measure 12
1000
0000
0001
0100
0001
0000
0100
0000
0010
0000
1000
0010
2000
0000
3002
0000
,  // measure 13
0023
0000
0230
0000
2300
0000
3001
0000
1000
0000
0001
0100
0001
0000
1000
0000
,  // measure 14
0010
0000
0100
0010
0100
0000
0001
0000
0010
0000
0100
0010
0200
0000
2300
0000
,  // measure 15
3002
0000
0203
0000
0320
0000
2030
0000
3001
0000
0010
0001
0010
0000
0001
0000
,  // measure 16
1000
0000
0010
1000
0010
0000
0100
0000
0001
0000
0100
0001
0200
0000
0320
0000
,  // measure 17
2030
0000
3002
0000
0023
0000
0230
0000
1300
0000
0001
0010
0001
0000
1000
0000
,  // measure 18
0010
0000
0100
0001
0100
0000
0010
0000
1000
0000
0001
1000
0002
0000
2003
0000
,  // measure 19
3200
0000
0302
0000
0203
2300
3200
2300
3010
0000
1000
0000
0010
0000
0100
0000
,  // measure 20
0010
1000
0010
0100
0001
0100
0010
0100
,  // measure 21
0001
0000
0100
0000
0010
0000
1000
0000
0001
0000
0010
0000
0001
1000
0001
0000
,  // measure 22
0100
0000
0010
1000
0000
1000
0100
0000
1000
0000
0001
0000
0100
0001
0100
0000
,  // measure 23
0010
0000
1000
0100
0000
0100
0010
0000
0100
0000
1000
0000
0010
0000
1000
0000
,  // measure 24
0100
1000
0001
0100
0010
0100
0001
0100
,  // measure 25
0010
0000
1000
0000
0001
0000
0010
0000
0001
0000
1000
0000
0010
1000
0010
0000
,  // measure 26
0100
0000
0010
1000
0000
1000
0100
0000
0010
0000
0001
0100
0000
0100
0001
0000
,  // measure 27
1000
0000
0001
1000
0000
1000
0100
0000
0011
0000
0100
0000
1000
0000
0100
0000
,  // measure 28
0010
0001
0100
0100
0010
1000
0001
0100
,  // measure 29
0010
1000
0001
0001
1000
0100
0010
0100
,  // measure 30
1000
0010
0100
0010
1001
0001
0010
0110
,  // measure 31
0010
0001
0110
1000
1100
0001
0100
0010
,  // measure 32
1000
0001
0010
0001
1000
0010
0100
0001
,  // measure 33
0100
0010
1000
0001
0010
0001
0010
1000
,  // measure 34
0010
1000
0010
0001
0110
0100
0010
1100
,  // measure 35
1000
0000
0010
0000
0101
0000
0000
0000
1001
0000
1001
0000
0100
0010
1001
0000
,  // measure 36
1001
0000
0001
0100
0000
0001
0100
0000
0010
0000
1000
0100
0000
1000
0100
0000
,  // measure 37
1000
0000
0001
0100
0000
0001
0100
0000
0010
0000
1000
0010
0000
1000
0010
0000
,  // measure 38
0100
0000
0001
1000
0000
0100
0010
0000
0001
0000
1000
0010
0000
0100
0001
0000
,  // measure 39
0110
0010
1000
0011
0100
1000
0101
0000
,  // measure 40
1001
0000
1000
0010
0000
1000
0010
0000
0100
0000
0001
0010
0000
0001
0010
0000
,  // measure 41
0001
0000
1000
0100
0000
0010
0100
0000
1000
0000
0001
0100
0000
0010
0100
0000
,  // measure 42
1000
0000
0100
0001
0000
0100
1000
0000
0100
0000
0001
0010
0000
0001
0100
0000
,  // measure 43
1010
0100
0001
0011
0100
1000
1010
0000
,  // measure 44
2001
0010
0010
3020
,  // measure 45
0100
0000
0000
0000
0130
0000
0000
0000
1001
0000
1000
0100
0001
0000
0001
0100
,  // measure 46
1000
0000
0001
0100
0000
0010
1000
0000
0001
0000
1000
0010
0000
0100
0001
0000
,  // measure 47
0100
0000
0001
0010
0000
0100
0010
0000
0100
0000
0010
0001
0000
1000
0010
0000
,  // measure 48
0100
0000
0001
0100
0000
1000
0100
0000
0001
0000
1000
0100
0000
0010
0001
0000
,  // measure 49
1010
1000
0001
0011
0001
0100
0110
0000
,  // measure 50
1001
0000
1000
0010
0000
0100
0001
0010
0100
0000
0010
0001
0000
1000
0001
0000
,  // measure 51
0100
0000
0010
1000
0000
0001
0100
0001
1000
0000
0100
0010
0000
0010
0001
0000
,  // measure 52
1000
0000
0010
0100
0000
0001
0100
0010
1000
0000
0001
1000
0000
1000
0100
0000
,  // measure 53
0011
0001
1000
1010
0100
0001
0110
0000
,  // measure 54
1002
1000
1000
0203
,  // measure 55
0010
0000
0310
0000
0110
0110
0000
1001
,  // measure 56
1001
0000
1000
0100
1000
0000
0100
0000
0010
0000
0001
0010
0001
0000
0100
0000
,  // measure 57
0010
0000
1000
0010
2000
0000
3002
0000
0203
0000
0320
0000
2030
0000
3002
0000
,  // measure 58
1003
0000
0001
0010
0001
0000
1000
0000
0010
0000
1000
0010
1000
0000
0010
0000
,  // measure 59
0100
0000
0001
0100
0020
0000
2030
0000
3200
0000
0320
0000
0032
0000
2003
0000
,  // measure 60
3001
0000
1000
0010
0100
0000
0001
0000
0010
0000
0100
0010
0001
0000
1000
0000
,  // measure 61
0010
0000
0001
0010
2000
0000
3020
0000
0230
0000
0302
0000
0023
0000
0230
0000
,  // measure 62
1300
0000
0001
0010
0100
0000
1000
0000
0010
0000
0001
0010
1000
0000
0010
0000
,  // measure 63
0100
0000
0001
0100
2000
0000
3200
0000
0302
0000
2003
0000
3200
0000
0320
0000
,  // measure 64
0031
0000
0000
0000
0001
0000
0000
0000
0001
0000
0000
0000
0001
0000
1000
0100
,  // measure 65
1000
0000
0000
0000
1000
0000
0000
0000
0010
0000
1000
0001
0100
0000
0001
1000
,  // measure 66
0010
0000
0000
0000
0010
0000
0000
0000
0100
0000
0000
0000
0010
0000
0100
0001
,  // measure 67
0010
0000
0100
0000
0100
0000
0000
0000
0010
0001
0100
0010
1000
0100
0010
0001
,  // measure 68
2000
0000
0000
0000
,  // measure 69
0000
0000
0000
0000
,  // measure 70
3000
0000
0000
0000
;
