#VERSION:0.83;
#TITLE:S Club Party;
#SUBTITLE:;
#ARTIST:S Club 7;
#TITLETRANSLIT:;
#SUBTITLETRANSLIT:;
#ARTISTTRANSLIT:;
#GENRE:;
#ORIGIN:;
#CREDIT:;
#BANNER:S Club Party.png;
#BACKGROUND:S Club Party-bg.png;
#PREVIEWVID:;
#JACKET:S Club Party-jacket.png;
#CDIMAGE:;
#DISCIMAGE:;
#LYRICSPATH:;
#CDTITLE:;
#MUSIC:S Club Party.ogg;
#OFFSET:2.263000;
#SAMPLESTART:47.124001;
#SAMPLELENGTH:15.000000;
#SELECTABLE:YES;
#BPMS:0.000=102.000;
#STOPS:;
#DELAYS:;
#WARPS:;
#TIMESIGNATURES:0.000=4=4;
#TICKCOUNTS:0.000=4;
#COMBOS:0.000=1;
#SPEEDS:0.000=1.000=0.000=0;
#SCROLLS:0.000=1.000;
#FAKES:;
#LABELS:0.000=Song Start;
#BGCHANGES:;
#KEYSOUNDS:;
#ATTACKS:
;

//---------------dance-single - ----------------
#NOTEDATA:;
#CHARTNAME:;
#STEPSTYPE:dance-single;
#DESCRIPTION:;
#CHARTSTYLE:;
#DIFFICULTY:Beginner;
#METER:3;
#RADARVALUES:0.093338,0.128340,0.023334,0.031113,0.000000,84.000000,81.000000,3.000000,4.000000,0.000000,0.000000,0.000000,0.000000,0.000000,0.093338,0.128340,0.023334,0.031113,0.000000,84.000000,81.000000,3.000000,4.000000,0.000000,0.000000,0.000000,0.000000,0.000000;
#CREDIT:;
#NOTES:
0000
0000
0000
0000
,
0000
0000
0000
0000
,
0000
0000
0000
0000
,
0000
0000
0000
0000
,
0000
0000
0000
0000
,
0110
0000
0000
0000
,
1000
0000
0100
0000
,
0010
0000
0000
0000
,
0001
0000
0010
0000
,
0100
0000
0000
0000
,
1000
0000
0010
0000
,
1000
0000
0010
0000
,
0100
0000
0001
0000
,
0010
0010
0000
0000
,
0001
0000
0000
0000
,
0100
0100
0000
0000
,
1000
0000
0000
0000
,
1000
0000
1000
0000
,
0001
0000
0001
0000
,
0010
0000
0100
0000
,
0010
0000
1000
0000
,
1001
0000
0000
0000
,
0100
0000
0001
0000
,
0100
0000
0000
0000
,
0010
0000
1000
0000
,
0010
0000
0000
0000
,
1000
0000
0100
0000
,
1000
0000
0000
0000
,
0001
0000
0010
0000
,
0001
0001
0000
0000
,
0001
0001
0000
0000
,
1000
1000
0000
0000
,
1000
1000
0000
0000
,
0010
0010
0000
0000
,
0100
0100
0000
0000
,
0010
0010
0000
0000
,
0100
0100
0000
0000
,
0010
0000
0100
0000
,
0001
0000
0000
0000
,
0100
0000
0010
0000
,
1000
0000
0000
0000
,
0002
0000
0003
0000
,
0020
0000
0030
0000
,
0200
0000
0300
0000
,
2000
0000
3000
0000
,
1001
0000
0000
0000
,
0100
0000
0010
0000
,
0001
0000
0000
0000
,
0010
0000
0100
0000
,
1000
0000
0000
0000
,
1000
0000
0001
0000
,
0010
0000
0000
0000
,
0001
0000
1000
0000
,
0100
0000
0000
0000
,
0010
0000
0100
0000
,
0010
0000
0000
0000
;

//---------------dance-single - ----------------
#NOTEDATA:;
#CHARTNAME:;
#STEPSTYPE:dance-single;
#DESCRIPTION:;
#CHARTSTYLE:;
#DIFFICULTY:Easy;
#METER:4;
#RADARVALUES:0.185565,0.235290,0.140007,0.303348,0.000000,167.000000,149.000000,18.000000,39.000000,0.000000,0.000000,0.000000,0.000000,0.000000,0.185565,0.235290,0.140007,0.303348,0.000000,167.000000,149.000000,18.000000,39.000000,0.000000,0.000000,0.000000,0.000000,0.000000;
#CREDIT:;
#NOTES:
0000
0000
0000
0000
,
0000
0000
0000
0000
,
0000
0000
0000
0000
,
0000
0000
0000
0000
,
0000
0000
0000
0000
,
2001
0000
0000
0002
0000
0000
3003
0000
,
0100
0010
0100
0002
,
0000
2003
0000
3020
,
0000
0100
0100
0130
,
1002
0000
0000
2000
0000
0000
3003
0000
,
0010
0100
0010
2000
,
0000
3002
0000
0203
,
0000
0010
0010
0310
,
1000
0010
1000
0001
,
0010
0000
0100
0010
,
0001
0001
0010
0000
,
1000
1000
0100
0000
,
1000
1000
0100
0100
,
0010
0010
0001
0001
,
0100
0100
0010
0010
,
1000
0001
0010
0110
,
0201
0000
0000
0002
0000
0000
0303
0000
,
0010
0100
1000
2000
,
0000
3200
0000
0320
,
0000
0100
0001
0031
,
1020
0000
0000
2000
0000
0000
3030
0000
,
0100
0010
0001
0002
,
0000
0023
0000
0230
,
0000
0010
1000
1300
,
0001
0001
0101
0000
,
1000
1000
1010
0000
,
0001
0001
0011
0000
,
1000
1000
1010
0000
,
0100
0100
0011
0000
,
0010
0010
1100
0000
,
1000
1000
0101
0000
,
0001
0001
1010
0000
,
1000
0010
0100
0001
,
0020
0000
0000
0030
,
0001
0010
0100
1000
,
0020
0000
0100
0130
,
1002
0000
0000
2000
0000
0000
3003
0000
,
1000
0100
0001
0200
,
0000
2300
0000
3020
,
0000
0100
0100
0130
,
2001
0000
0000
0020
0000
0000
3030
0000
,
0001
0010
1000
0020
,
0000
0032
0000
0203
,
0000
0010
0010
0310
,
2001
0000
0000
0200
0000
0000
3300
0000
,
0100
1000
0100
0020
,
0000
0230
0000
2300
,
0000
0001
0001
3100
,
1002
0000
0000
0020
0000
0000
0033
0000
,
0010
0001
0010
0100
,
1001
0000
0000
0000
;

//---------------dance-single - ----------------
#NOTEDATA:;
#CHARTNAME:;
#STEPSTYPE:dance-single;
#DESCRIPTION:;
#CHARTSTYLE:;
#DIFFICULTY:Medium;
#METER:8;
#RADARVALUES:0.304460,0.342239,0.155563,0.365574,0.031113,274.000000,254.000000,20.000000,47.000000,0.000000,0.000000,0.000000,0.000000,0.000000,0.304460,0.342239,0.155563,0.365574,0.031113,274.000000,254.000000,20.000000,47.000000,0.000000,0.000000,0.000000,0.000000,0.000000;
#CREDIT:;
#NOTES:
0000
0000
0000
0000
,
0000
0000
0000
0000
,
0000
0000
0000
0000
,
0000
0000
0000
0000
,
0000
1000
0000
1000
0000
1000
0000
0100
,
1002
0000
0000
0023
0000
0000
0000
0000
,
0130
0010
0100
0010
0001
0100
0010
2000
,
0000
0000
3100
0002
0000
0000
0103
2000
,
0000
0010
3010
0000
0100
0010
0100
0000
,
2001
0000
0000
3200
0000
0000
0000
0000
,
0310
0100
0010
0100
1000
0010
0100
0002
,
0000
0000
0013
2000
0000
0000
3010
0002
,
0000
0100
0103
0000
0010
0010
0010
0000
,
1000
0100
1000
1000
1000
0000
0010
0100
,
0001
0000
0100
0010
1000
0000
0001
0001
,
1000
0100
0001
0100
1000
0000
0010
0000
,
0001
0010
1000
0010
0001
0000
0100
0000
,
0001
0002
0000
0000
1003
2000
0000
0000
,
3010
0020
0000
0000
0130
0200
0000
0000
,
0301
0002
0000
0000
1003
2000
0000
0000
,
3010
0010
0010
0010
1000
0001
0110
0000
,
2001
0000
0000
3020
0000
0000
0000
0000
,
0130
0001
0100
0001
1000
0010
0100
0002
,
0000
0000
0013
2000
0000
0000
3010
0002
,
0000
0100
0103
0000
0010
0100
0010
0000
,
1002
0000
0000
0203
0000
0000
0000
0000
,
0310
1000
0010
1000
0001
0100
0010
2000
,
0000
0000
3100
0002
0000
0000
0103
2000
,
0000
0010
3010
0000
0100
0010
0100
0000
,
0001
0000
0000
0001
0000
0000
0001
0000
0100
0000
0010
0000
1100
0000
0000
0000
,
1000
0000
0000
1000
0000
0000
1000
0000
0100
0000
0010
0000
0101
0000
0000
0000
,
0001
0000
0000
0001
0000
0000
0001
0000
0010
0000
0100
0000
1010
0000
0000
0000
,
1000
0000
0000
1000
0000
0000
1000
0000
0100
0000
0010
0000
0011
0000
0000
0000
,
0100
0000
0000
0100
0000
0000
0100
0000
0001
0000
1000
0000
1010
0000
0000
0000
,
0010
0000
0000
0010
0000
0000
0010
0000
1000
0000
0001
0000
0101
0000
0000
0000
,
0100
0000
0000
0100
0000
0000
0100
0000
0010
0000
1000
0000
0101
0000
0000
0000
,
0010
0000
0000
0010
0000
0000
0010
0000
0100
0000
0001
0000
1010
0000
0000
0000
,
1001
1000
0100
0000
0010
0010
0002
0000
,
1000
0000
0010
0000
1000
1000
0103
0000
,
0001
0001
0100
0000
0010
0010
1000
0000
,
0210
0000
0010
0000
0001
0001
0301
0000
,
1002
0000
0000
0203
0000
0000
0000
0000
,
0310
1000
0010
1000
0001
0010
0100
2000
,
0000
0000
3100
0002
0000
0000
0103
2000
,
0000
0001
0001
3001
,
0201
0000
0000
0320
0000
0000
0000
0000
,
0130
0010
0100
0010
1000
0001
0010
0200
,
0000
0000
1300
0200
0000
0000
0301
0200
,
0000
0001
0010
1300
,
1020
0000
0000
0230
0000
0000
0000
0000
,
0310
0100
0010
0100
0001
1000
0100
0020
,
0000
0000
0031
0020
0000
0000
1030
0020
,
0000
1000
0100
0031
,
0210
0000
0000
0020
0000
0000
0330
0000
,
0100
0001
0100
0001
0010
0100
2002
0000
,
3003
0000
0000
0000
;

//---------------dance-single - ----------------
#NOTEDATA:;
#CHARTNAME:;
#STEPSTYPE:dance-single;
#DESCRIPTION:;
#CHARTSTYLE:;
#DIFFICULTY:Hard;
#METER:12;
#RADARVALUES:0.455578,0.470579,0.357796,0.396686,0.287792,410.000000,364.000000,46.000000,51.000000,0.000000,0.000000,0.000000,0.000000,0.000000,0.455578,0.470579,0.357796,0.396686,0.287792,410.000000,364.000000,46.000000,51.000000,0.000000,0.000000,0.000000,0.000000,0.000000;
#CREDIT:;
#NOTES:
// measure 0
0000
0000
0000
0000
,  // measure 1
0000
0000
0000
0000
,  // measure 2
0000
0000
0000
0000
,  // measure 3
0000
0000
0000
0000
,  // measure 4
0000
0001
0000
0001
0000
0001
0100
0010
,  // measure 5
2010
0000
0000
0000
0000
0000
3002
0000
0000
0000
0000
0000
0023
0000
0000
0130
,  // measure 6
0010
0000
0010
0000
0001
0000
0100
0010
1000
0000
1000
0000
0001
0000
1200
0000
,  // measure 7
0000
1300
0010
0201
0000
0301
0010
1200
,  // measure 8
0000
0000
1300
0000
0001
1000
0001
0000
0100
0000
0010
0010
0000
0000
0000
0000
,  // measure 9
2001
0000
0000
0000
0000
0000
3002
0000
0000
0000
0000
0000
0023
0000
0030
0100
,  // measure 10
1000
0000
1000
0000
0010
0000
0100
0001
0010
0000
0001
0000
1000
0000
0201
0000
,  // measure 11
0000
0301
0010
1200
0000
1300
0010
0201
,  // measure 12
0000
0000
0301
0000
0010
0100
0010
0000
0100
0000
1000
1000
0001
0000
0000
0000
,  // measure 13
1000
0000
0100
0000
0010
0000
0100
0000
1000
0000
0000
0000
0001
1000
0100
0000
,  // measure 14
0010
0000
0000
0000
0001
1000
0010
0000
0100
0000
0000
0000
0010
0100
0010
0000
,  // measure 15
1000
0010
0001
0010
1000
0010
1001
0000
,  // measure 16
0001
0100
1000
0100
0001
0100
1001
0000
,  // measure 17
1000
0000
0010
1000
0000
1000
0000
0000
0001
0000
0100
0001
0000
0001
0000
0000
,  // measure 18
0010
0000
0001
0010
0000
0010
0000
0000
0100
0000
1000
0100
0000
0100
0000
0000
,  // measure 19
1000
0000
0001
0100
0000
0010
0000
0000
0100
0000
0010
1000
0000
0001
0000
0000
,  // measure 20
0010
0000
0010
0000
0100
0010
0100
0000
1001
0000
0100
0000
1001
0000
0010
0000
,  // measure 21
2001
0000
0000
0000
0000
0000
3020
0000
0000
0000
0000
0000
0230
0000
0300
0001
,  // measure 22
0010
0000
0010
0000
0100
0000
0010
0001
0100
0000
0010
0000
1000
0000
1020
0000
,  // measure 23
0000
1030
0001
0021
0000
0031
1000
1020
,  // measure 24
0000
0000
0130
0000
0001
1000
0001
0000
0010
0000
0100
0100
0000
0000
0000
0000
,  // measure 25
1002
0000
0000
0000
0000
0000
0203
0000
0000
0000
0000
0000
0320
0000
0030
1000
,  // measure 26
0100
0000
0100
0000
0010
0000
0100
1000
0010
0000
0100
0000
0001
0000
0021
0000
,  // measure 27
0000
0031
1000
1020
0000
1030
0001
0021
,  // measure 28
0000
0000
0031
0000
0100
0010
0100
0000
0110
0000
1000
1000
0001
0000
0000
0000
,  // measure 29
1000
0100
0000
1000
0100
0000
1000
0000
0010
0000
1000
0010
1000
0000
0000
0000
,  // measure 30
0001
0100
0000
0001
0100
0000
0001
0010
0001
0000
0010
0000
0011
0000
0000
0000
,  // measure 31
0100
1000
0000
0100
1000
0000
0100
0000
1000
0100
1000
0000
0001
0000
0000
0000
,  // measure 32
0100
0001
0000
0100
0001
0000
0010
0001
0010
0000
0001
0000
0011
0000
0000
0000
,  // measure 33
0001
0010
0000
0001
0010
0000
0001
0100
0001
0000
0100
0000
0001
0000
0000
0000
,  // measure 34
1000
0010
0000
1000
0010
0000
1000
0100
1000
0000
0100
0000
1100
0000
0000
0000
,  // measure 35
0100
1000
0000
0100
1000
0000
0010
1000
0010
0000
0100
0000
0001
0000
0000
0000
,  // measure 36
0010
0001
0000
0010
0001
0000
0010
0100
0010
0000
0100
0000
1001
0000
0000
0000
,  // measure 37
1100
0000
1000
0020
0000
0000
0100
0000
0130
0000
0001
2000
0000
0000
0010
0000
,  // measure 38
0000
3000
0001
0000
0010
0000
1000
0000
0010
0000
0001
0000
0010
0000
1001
0000
,  // measure 39
0010
0000
0002
1000
0000
1003
0000
0000
0100
0000
2000
0001
0000
3001
0000
0000
,  // measure 40
1010
0000
0101
0000
0011
1100
1010
0101
,  // measure 41
1002
0000
0000
0000
0000
0000
0203
0000
0000
0000
0000
0000
0320
0000
0030
1000
,  // measure 42
0100
0000
0100
0000
0010
0000
0100
0010
0001
0000
0100
0000
0010
0000
2000
0000
,  // measure 43
0000
3010
0100
0002
0000
0013
0100
2000
,  // measure 44
0000
0000
3001
0000
0010
0100
0010
0000
0110
0000
0100
0100
0000
0000
0000
0000
,  // measure 45
2001
0000
0000
0000
0000
0000
3200
0000
0000
0000
0000
0000
0320
0000
0030
0001
,  // measure 46
0010
0000
0010
0000
0100
0000
1000
0010
1000
0000
0100
0000
0010
0000
0201
0000
,  // measure 47
0000
0301
1000
1200
0000
1300
0001
0201
,  // measure 48
0000
0000
0301
0000
0100
0010
0100
0000
0010
0000
1000
0001
0000
0000
0000
0000
,  // measure 49
1002
0000
0000
0000
0000
0000
0023
0000
0000
0000
0000
0000
0230
0000
0300
1000
,  // measure 50
0001
0000
0001
0000
0100
0000
0010
1000
0010
0000
0100
0000
0001
0000
0021
0000
,  // measure 51
0000
0031
0100
1020
0000
1030
0100
0021
,  // measure 52
0000
0000
0031
0000
0100
0010
0100
0000
0010
0000
1000
0000
1001
0000
0000
0000
,  // measure 53
0201
0000
0000
0000
0000
0000
0320
0000
0000
0000
0000
0000
2030
0000
3000
0001
,  // measure 54
0010
0010
0100
0010
0001
1000
2002
0000
,  // measure 55
3003
0000
0000
0000
;
