#TITLE:Rock The Club;
#SUBTITLE:;
#ARTIST:Expander;
#TITLETRANSLIT:;
#SUBTITLETRANSLIT:;
#ARTISTTRANSLIT:;
#GENRE:;
#CREDIT:;
#BANNER:Rock The Club.png;
#BACKGROUND:Rock The Club-bg.png;
#LYRICSPATH:;
#CDTITLE:;
#MUSIC:Rock The Club.ogg;
#OFFSET:-0.757000;
#SAMPLESTART:55.209000;
#SAMPLELENGTH:15.000000;
#SELECTABLE:YES;
#DISPLAYBPM:130.000000:260.000000;
#BPMS:0.000000=260.000000
,100.000000=130.000000
,168.000000=260.000000
,240.000000=130.000000
,272.000000=65.000000
,274.000000=260.000000
,338.000000=520.000000
,350.000000=260.000000
,352.000000=130.000000
;
#STOPS:
;
#BGCHANGES:;
#KEYSOUNDS:;
#ATTACKS:;

//---------------dance-single - ----------------
#NOTES:
     dance-single:
     :
     Beginner:
     5:
     0.186937,0.346173,0.158613,0.071376,0.000000,165.000000,145.000000,20.000000,9.000000,0.000000,0.000000,0.186937,0.346173,0.158613,0.071376,0.000000,165.000000,145.000000,20.000000,9.000000,0.000000,0.000000:
0000
0000
0000
0000
,
0000
0000
0000
0000
,
0000
0000
0000
0000
,
0000
0000
0000
0000
,
0000
0000
0000
0000
,
0000
0000
0000
0000
,
0000
0000
0000
0000
,
0000
0000
0000
0000
,
0000
0000
0000
0000
,
0001
0000
0001
0000
,
0001
0000
0000
0000
,
1000
0000
1000
0000
,
1000
0000
0000
0000
,
0010
0000
1000
0000
,
0010
0000
0000
0000
,
0100
0000
0001
0000
,
0100
0000
0000
0000
,
0001
0000
0001
0000
,
1001
0000
0000
0000
,
0000
0000
1000
0000
,
1001
0000
0000
0000
,
0110
0000
0000
0000
,
1001
0000
0000
0000
,
1000
0000
0001
0000
,
0200
0000
0300
0000
,
1001
0000
0010
0000
,
0001
0000
0001
0000
,
0100
0100
0000
0000
,
1000
1000
0000
0000
,
0010
0000
1000
0000
,
0010
0000
0000
0000
,
0100
0000
0001
0000
,
0100
0000
0000
0000
,
0110
0110
0000
0000
,
0010
0000
0100
0000
,
0001
0001
0000
0000
,
1000
1000
0000
0000
,
0010
0000
0100
0000
,
0010
0000
0010
0000
,
1000
0000
0001
0000
,
1000
0000
1000
0000
,
2002
0000
3003
0000
,
0110
0000
0100
0000
,
0010
0000
0000
0000
,
1000
0000
0100
0000
,
1000
0000
0100
0000
,
0010
0000
0010
0000
,
0001
0000
0000
0000
,
0001
0000
0001
0000
,
0100
0000
0010
0000
,
1000
0000
0001
0000
,
1000
0000
0000
0000
,
0001
0000
1000
0000
,
0110
0000
0110
0000
,
0001
0000
0000
0000
,
0100
0000
0000
0000
,
1000
0000
1000
0000
,
0010
0000
0010
0000
,
2002
0000
0000
0000
,
0000
0000
3003
0000
,
1000
0000
0100
0000
,
0001
0000
0001
0000
,
0001
0000
0010
0000
,
1000
0000
1000
0000
,
1000
0000
0010
0000
,
0110
0000
1001
0000
,
0100
0000
0001
0000
,
0010
0000
0010
0000
,
1000
0001
0100
0000
,
0100
0000
0010
0000
,
0010
0000
1000
0000
,
0100
0000
1000
0000
,
0000
0000
0010
0000
,
0010
0000
0100
0000
,
0100
0000
0001
0000
,
0010
0000
0001
0000
,
0000
0000
0001
0000
,
0001
0000
0001
0000
,
0000
0000
1000
0000
,
1000
0000
1000
0000
,
0000
0000
0010
0000
,
0000
0000
0100
0000
,
0000
0000
0001
0000
,
0100
0000
0010
0000
,
1000
0000
2002
0000
,
0000
0000
0000
0000
,
3003
0000
0000
0000
,
0000
0000
0000
0000
,
1001
0000
0100
0000
,
0010
0000
0010
0000
,
1000
0000
0001
0000
,
1000
0000
0000
0000
,
0001
0001
0001
0000
,
0002
0000
0003
0000
,
1000
1000
1000
0000
,
2000
0000
3000
0000
,
0110
0000
1001
1001
,
1001
0000
0000
0000
;

//---------------dance-single - ----------------
#NOTES:
     dance-single:
     :
     Easy:
     9:
     0.331955,0.460969,0.166544,0.055515,0.000000,293.000000,272.000000,21.000000,7.000000,0.000000,0.000000,0.331955,0.460969,0.166544,0.055515,0.000000,293.000000,272.000000,21.000000,7.000000,0.000000,0.000000:
0000
0000
0000
0000
,
0000
0000
0000
0000
,
0000
0000
0000
0000
,
0000
0000
0000
0000
,
0000
0000
0000
0000
,
0000
0000
0000
0000
,
0000
0000
0000
0000
,
0000
0000
0000
0000
,
0000
0000
0000
0000
,
1000
0000
1000
0000
,
1000
0010
0100
0001
,
0010
0000
0000
0000
,
0010
0001
0100
0010
,
1000
0000
0001
0000
,
1000
0100
0010
0001
,
0100
0000
0000
0000
,
0001
0010
0100
0010
,
1001
0000
1001
0000
,
1001
0100
0010
0000
,
0000
0110
0110
0000
,
1001
0100
0010
0000
,
2200
0000
0000
3300
,
0022
0000
0000
0033
,
1000
0010
0100
0001
,
0010
0000
0110
0000
,
1001
0100
0001
1000
,
0100
0000
0100
0000
0010
0010
0001
0000
,
0100
0100
1000
0000
0001
1000
0001
0000
,
1000
0010
0100
0000
,
0001
0001
1000
0010
,
0100
0000
0001
0000
0010
0010
0100
0000
,
1000
0000
0001
0000
1000
1000
0100
0000
,
0010
0001
1000
0000
,
0110
0100
0001
1000
,
0100
0000
0010
0000
0100
0100
1000
0000
,
0001
0001
0100
0000
0010
0000
1000
0000
,
0001
0010
0100
0000
,
0010
0000
0010
0000
0001
0001
0010
0000
,
0001
0000
0010
0000
0100
0000
1000
1000
,
0010
0000
1000
0000
0001
0001
0100
0000
,
0010
0010
0100
0001
,
1000
0000
0100
0000
0010
0010
0010
0000
,
1001
0000
0100
0000
,
0001
0100
0001
0100
,
0010
0000
1000
0000
,
0100
0010
0001
0000
,
1000
0000
0001
0000
,
1000
1000
0100
0000
,
0010
0001
0100
0000
,
0010
1000
0100
0000
,
1000
0000
1000
0000
,
0010
0000
0100
0001
,
0010
0100
0010
0000
,
1100
0000
0011
0000
,
1001
0000
0100
0000
,
0001
0100
0001
0100
,
0010
0000
0001
0000
,
1000
0100
0010
0001
,
2000
0000
0000
0000
,
0000
0000
0000
0000
,
3001
0001
1000
0100
,
0010
0010
0000
0000
0100
0100
0000
0000
,
0100
0100
1000
0001
,
1000
1000
0000
0000
0001
0001
0000
0000
,
1000
0010
0100
0001
,
0010
0010
0000
0000
0100
0100
0000
0000
,
0010
0001
0001
1000
,
0100
1000
0000
0000
1000
0001
0000
0000
,
1001
0100
0001
0000
,
0001
0000
1000
0000
,
0100
0000
0010
0001
,
0010
0000
0001
0100
,
0001
0000
0010
0000
,
0100
0000
1000
0010
,
1000
0000
0100
0000
,
1000
0000
0001
0100
,
0001
0100
0010
0000
,
0010
0000
0010
0100
,
0010
0000
1000
0000
,
1000
0000
1000
0100
,
1000
0000
0100
1000
,
0100
0000
0010
0001
,
0010
0000
0001
1000
,
0010
0000
0100
0001
,
0010
0000
0220
0000
,
0000
0000
0000
0000
,
0000
0000
0000
0000
,
0000
0000
0330
0000
,
1001
0000
0100
0000
,
0001
0001
0100
0010
,
1000
0000
0001
0000
,
1000
1000
0100
0010
,
0001
0000
0100
0000
0010
0000
0100
0001
,
0010
0000
0001
0001
,
1000
0000
0100
0000
0010
0000
0100
1000
,
0010
0000
1000
0001
,
1001
0000
1001
0000
0100
0000
0010
0110
;

//---------------dance-single - ----------------
#NOTES:
     dance-single:
     :
     Medium:
     13:
     0.567608,0.845110,0.333087,0.134821,0.162578,501.000000,459.000000,42.000000,17.000000,0.000000,0.000000,0.567608,0.845110,0.333087,0.134821,0.162578,501.000000,459.000000,42.000000,17.000000,0.000000,0.000000:
// measure 0
0000
0000
0000
0000
,  // measure 1
0000
0000
0000
0000
,  // measure 2
0000
0000
0000
0000
,  // measure 3
0000
0000
0000
0000
,  // measure 4
0000
0000
0000
0000
,  // measure 5
0000
0000
0000
0000
,  // measure 6
0000
0000
0000
0000
,  // measure 7
0000
0000
0000
0000
,  // measure 8
0000
0000
0000
0000
,  // measure 9
1001
0000
0000
0000
1000
0010
0100
0001
,  // measure 10
0010
0000
0010
0100
0000
1000
0000
1000
,  // measure 11
0000
0000
0000
0000
0001
0100
0010
1000
,  // measure 12
0001
0000
0001
0010
0000
0100
0000
0100
,  // measure 13
0000
0000
0010
0000
0100
1000
0010
0100
,  // measure 14
0001
0000
0001
0100
0000
0010
0000
0010
,  // measure 15
0000
0000
1000
0000
0001
1000
0010
0100
,  // measure 16
0001
0000
0001
1000
0000
1000
0000
1000
,  // measure 17
0100
0000
0110
0000
,  // measure 18
0110
0000
0001
1000
0000
0000
0000
1000
,  // measure 19
0001
0110
0110
0000
,  // measure 20
1001
0000
1000
0100
0000
0000
0010
0000
,  // measure 21
0022
0000
0000
0033
,  // measure 22
2200
0000
0000
3300
,  // measure 23
1000
0010
0100
0001
,  // measure 24
0010
0000
0220
0330
,  // measure 25
1001
0000
0000
0001
0100
0000
0000
0000
0010
0000
1000
0000
0100
0000
0010
0000
,  // measure 26
0001
0001
1000
1000
0010
0100
0010
0000
,  // measure 27
0110
0000
0110
0000
0001
0000
1000
0000
0100
0010
0100
0010
0001
0000
1000
0000
,  // measure 28
0010
0100
0001
0100
1000
0100
0001
0000
,  // measure 29
1000
0000
1000
0000
0100
0000
0000
0000
0010
0000
0100
0010
0100
0000
0010
0000
,  // measure 30
0001
0100
0010
1000
0010
0100
0001
0000
,  // measure 31
1000
0000
1000
0000
0001
0000
0001
0000
0010
0100
0010
0100
1000
0000
0000
0000
,  // measure 32
0100
0010
0001
0100
1000
0100
0001
0000
,  // measure 33
1001
0000
0000
0100
0010
0000
0000
0000
1000
0000
0010
0000
0100
0000
0010
0000
,  // measure 34
1000
0000
0001
0100
0001
1000
0100
0000
,  // measure 35
0010
0000
0010
0000
0001
0000
1000
0000
0001
0100
0001
0100
0010
0000
0000
0000
,  // measure 36
1000
0010
0100
0001
0010
0100
0100
0000
,  // measure 37
0010
0010
0011
0000
0100
0100
1000
0100
,  // measure 38
1000
0000
0001
1000
0010
0100
0001
0000
,  // measure 39
1000
0000
1000
0000
0001
0000
0001
0000
0100
0010
0100
0010
0100
0000
0000
0000
,  // measure 40
0010
1000
0010
0100
0001
0010
0100
0000
,  // measure 41
0010
0000
0001
1000
0000
1000
0010
0100
0010
0200
0000
0000
,  // measure 42
0310
0010
1000
0100
,  // measure 43
0010
0010
0001
1000
,  // measure 44
0010
0000
0100
0001
0100
0000
0010
1000
,  // measure 45
0010
1000
1001
0000
,  // measure 46
0100
0100
1000
0001
,  // measure 47
0100
0100
0010
1000
,  // measure 48
0001
0000
0010
0100
0010
0000
0100
1000
,  // measure 49
0100
1000
1001
0000
,  // measure 50
0100
0001
0001
1000
,  // measure 51
0010
1000
1000
0100
,  // measure 52
0010
0000
0001
0000
0010
0100
0010
0000
,  // measure 53
1001
0100
0220
0330
,  // measure 54
1000
1000
0010
0100
,  // measure 55
0001
0001
0100
0001
,  // measure 56
1000
0000
0100
1000
0010
0000
0100
0001
,  // measure 57
0010
0000
0001
1000
0100
0000
0010
0000
,  // measure 58
0220
0000
0000
0000
,  // measure 59
0000
0000
0000
0330
,  // measure 60
0100
0000
0100
0000
0001
0000
0001
0000
1000
0100
0010
0000
0001
0100
0010
0000
,  // measure 61
0100
0010
0000
0110
0000
0000
0000
0000
1000
0001
0000
1001
0000
0000
0000
0000
,  // measure 62
1000
0000
1000
0000
0010
0000
0010
0000
0100
0010
0100
0000
0001
0100
0001
0000
,  // measure 63
1000
0100
0000
1100
0000
0000
0000
0000
0001
0010
0000
0011
0000
0000
0000
0000
,  // measure 64
1000
0000
0001
0000
0100
0000
0010
0000
1000
0010
0100
0000
0001
0010
0100
0000
,  // measure 65
0010
0100
0000
0110
0000
0000
0000
0000
0001
1000
0000
1001
0000
0000
0000
0000
,  // measure 66
1000
0000
1000
0000
0001
0000
0001
0000
0100
0001
0100
0000
0010
1000
0010
0000
,  // measure 67
1000
0010
0000
0110
0000
0000
0000
0000
0001
0100
0000
0110
0000
0000
0000
0000
,  // measure 68
0110
0000
0100
0010
1000
0001
1000
0000
0100
0000
0000
0000
1000
0000
0000
0000
,  // measure 69
1000
0100
0010
0010
,  // measure 70
0001
0000
1000
0000
0010
0000
1000
0010
,  // measure 71
0100
0000
0001
0100
0010
0000
1000
0001
,  // measure 72
0010
0100
0010
0010
,  // measure 73
0001
1000
0100
0100
,  // measure 74
1000
0000
1000
0000
0010
0000
1000
0010
,  // measure 75
0100
0000
0001
0100
0010
0000
1000
0100
,  // measure 76
0010
0001
1000
0100
,  // measure 77
1100
0000
1100
0000
0010
0000
1000
0010
,  // measure 78
0000
1000
0010
0000
0100
0000
0001
0000
,  // measure 79
0101
0000
0101
0000
0010
0000
0001
0010
,  // measure 80
0000
0100
0010
0000
0001
0000
0001
0000
,  // measure 81
0100
1000
0100
0000
1000
0000
1000
0000
,  // measure 82
0001
0100
0001
0000
0010
0000
1000
0010
,  // measure 83
0100
0000
0001
0010
0100
0000
1000
0100
,  // measure 84
0010
0001
2002
0000
,  // measure 85
0000
0000
0000
0000
,  // measure 86
0000
0000
0000
0000
,  // measure 87
0000
0000
0000
3003
,  // measure 88
1000
0100
0010
0000
0001
0100
0010
0000
,  // measure 89
1000
1000
0001
0001
0010
0100
0010
0000
,  // measure 90
0100
1000
0100
0000
0010
0001
0010
0000
,  // measure 91
0001
0001
1000
1000
0010
0100
0001
1000
,  // measure 92
0100
1000
1100
0000
0010
0001
0011
0000
,  // measure 93
2002
0000
3000
0000
0100
0100
0103
0000
,  // measure 94
0100
0001
0011
0000
0100
1000
1010
0000
,  // measure 95
2002
0000
0003
0000
0010
0010
3010
0000
,  // measure 96
0110
0000
0110
0000
1000
0001
0100
0110
;

//---------------dance-single - ----------------
#NOTES:
     dance-single:
     :
     Hard:
     16:
     0.778337,1.229251,0.459978,0.126890,0.582903,687.000000,629.000000,58.000000,16.000000,0.000000,0.000000,0.778337,1.229251,0.459978,0.126890,0.582903,687.000000,629.000000,58.000000,16.000000,0.000000,0.000000:
0000
0000
0000
0000
,
0000
0000
0000
0000
,
0000
0000
0000
0000
,
0000
0000
0000
0000
,
0000
0000
0000
0000
,
0000
0000
0000
0000
,
0000
0000
0000
0000
,
0000
0000
0000
0000
,
0000
0000
0000
0000
,
1001
0000
0000
0000
1000
0001
0100
0010
,
1000
0000
1000
0100
0000
0010
0000
0010
,
0001
0000
0000
0000
0001
0100
0010
1000
,
0001
0000
0001
0010
0000
0100
0000
0100
,
0000
0000
1000
0000
0001
0010
0100
1000
,
0010
0000
0100
0001
0000
1000
0000
1000
,
0000
0000
0001
0000
1000
0010
0100
0001
,
0010
0000
0010
0100
0000
0100
0000
0010
,
1001
0100
1001
0010
,
1001
0000
1000
0100
1000
0000
0000
1000
,
0100
0011
0011
0001
,
1000
0000
0001
0010
0001
0000
0100
0000
,
0020
1000
0000
1000
0000
1000
0000
1030
,
0200
0010
0000
0010
0000
0010
0000
0310
,
0001
0011
1010
0110
,
1001
0010
0200
0000
,
0310
0000
0000
1000
0100
0000
0000
0000
0010
0000
0001
0010
0001
0000
0100
0010
,
1000
0000
0010
1000
0001
0000
0010
0100
1000
0000
0001
0000
0100
0000
0000
0000
,
0110
0000
0110
0000
0001
0000
0100
0000
0001
1000
0100
0010
0001
0010
0100
0000
,
1000
0100
1000
0000
0010
0000
0100
0001
0100
0001
0010
0000
0001
0000
0000
0000
,
1001
0000
0001
0010
0001
0000
0000
0000
1001
0000
1000
0010
1000
0000
0010
0100
,
0010
0000
0100
0001
0010
0000
0100
1000
0100
0000
0010
0001
1000
0000
0000
0000
,
0010
0000
0010
0000
0100
0000
0001
0000
1000
0010
0100
0001
0010
0001
1000
0000
,
0001
0100
1000
0000
1000
0100
0001
0000
0010
0000
1100
0000
0102
0000
0000
0000
,
1003
0000
0000
1000
0100
0000
0000
0000
0010
0000
0100
1000
0010
0000
0100
0001
,
0010
0000
0001
1000
0100
0000
1000
0010
0100
0000
0001
0000
0110
0000
0000
0000
,
0011
0000
0011
0000
1000
0000
0001
0000
1000
0001
0100
0001
0010
0100
1000
0000
,
0010
0100
0010
0000
0100
0001
0010
0000
0001
1000
0100
0000
0010
0000
0010
0000
,
1000
0010
0100
0001
0010
0000
0000
0000
0001
0010
0100
1000
0010
0000
0100
0000
,
0010
0000
1000
0001
0000
0100
0001
1000
0010
0000
1000
0100
0001
0000
0000
0000
,
0010
0100
0010
0000
0100
0000
0100
0000
0001
0100
0010
1000
0100
0010
0001
0000
,
1000
0010
1000
0000
1000
0010
0100
0000
0001
0100
0010
0000
1000
0100
0001
0000
,
0100
1000
0010
0010
0001
0100
0100
1000
0010
0200
0000
0000
,
0301
0000
0001
0000
1000
0001
0100
0010
,
1000
0000
0001
0000
1000
0010
0100
0001
,
0010
0000
0100
0010
0001
0000
0010
0100
,
1000
0001
1010
0101
,
0100
0000
0100
0000
0010
1000
0100
0010
,
0001
0000
1000
0000
0001
0010
0100
1000
,
0010
0000
1000
0100
0001
0000
0001
0100
,
1000
0000
0010
0100
0001
0000
1000
0000
,
0010
0000
0010
0000
1000
0100
0010
0001
,
0100
0000
0100
0000
0001
0010
0100
1000
,
0010
1000
0001
0000
0100
0001
1000
0000
,
2100
3010
0202
0303
,
0110
0000
0110
0000
0100
1000
0100
0010
,
0001
0000
0001
0000
0100
0001
0010
0100
,
1000
0000
0001
0100
0010
0000
1000
0010
,
0100
0000
0001
0010
0100
0000
0010
0000
,
2002
0000
0000
0000
,
0000
0000
0000
3003
,
0100
1000
0100
1000
0001
0100
0001
0100
0010
1000
0010
1000
0001
0010
0001
0000
,
0001
0100
0000
0101
0000
0100
0001
0000
1000
0100
0000
1100
0000
0100
1000
0000
,
0010
1000
0010
1000
0001
0100
0001
0100
0001
1000
0001
1000
0100
0010
0001
0000
,
1000
0010
0000
0110
0000
0100
0001
0000
0001
0100
0000
1001
0000
0010
1000
0000
,
0010
1000
0100
1000
0010
0100
0001
0010
0100
0010
0001
0100
0010
1000
0001
0000
,
1000
0100
0000
2200
0000
0000
3300
0000
0001
0010
0000
0022
0000
0000
0033
0000
,
0100
0010
0100
0001
0100
1000
0100
0001
0010
0100
1000
0100
0010
0001
1000
0010
,
0100
0001
0000
0011
0000
0001
0100
0000
0010
1000
0000
1010
0000
0000
0000
0000
,
1001
0000
0000
1000
0010
0000
0100
0000
0001
0010
0001
0010
0100
0000
0110
0000
1001
0000
0000
0000
0000
0000
0000
0000
1001
0000
0000
0000
0000
0000
0000
0000
,
0100
1000
0010
0100
0001
0000
0001
0000
,
0100
0001
0010
0100
1000
0000
0010
1000
,
0001
0000
0100
0001
0010
0000
0100
1000
,
0010
0100
1001
1000
,
0001
0010
0100
1000
0010
0000
0010
0000
,
1000
0010
0100
0001
0010
0000
0100
1000
,
0010
0000
0100
0001
0010
0000
0100
0000
,
1100
0011
1000
1010
,
1100
0000
1010
0000
1000
0000
1000
0100
,
0000
0100
1000
0100
0010
0000
0011
0000
,
0101
0000
0011
0000
0110
0000
0100
0010
,
0000
0010
0001
1000
0010
0000
0010
0000
,
1000
0010
0100
0000
0001
0000
0001
0010
,
0000
0010
0100
0010
0001
0000
1000
0010
,
0100
0000
0001
0100
0010
0000
1000
0001
,
0010
0100
0220
0000
,
0000
0000
0000
0000
,
0000
0000
0000
0000
,
0000
0000
0330
0000
,
1001
0000
0000
1000
0100
0000
0010
0001
0010
0000
0001
0100
0000
0010
1000
0010
,
1000
0000
1000
0100
0000
0100
0010
0001
0010
0000
0001
1000
0001
0000
0010
0000
,
0110
0000
0000
0100
0010
0000
0010
0001
0100
0000
0100
0010
0000
0010
1000
0001
,
0100
0000
0010
1000
0100
0000
0010
0001
1000
0000
0101
0000
0010
0000
1001
0000
,
0110
0000
0100
0001
0000
0100
0001
1000
0010
0000
0010
1000
0000
0010
1000
0001
,
0010
0000
0010
0100
0000
0100
0010
0000
1000
0100
1000
0001
0100
0000
0010
0000
,
1010
0000
0100
0001
0000
0001
1000
0000
0001
0000
1000
0100
0000
0010
0001
0000
,
1000
0010
0100
0000
0001
0010
0100
0000
0010
0001
0100
0000
0010
1000
0100
0000
,
1100
0000
0010
0000
0101
0000
0100
0000
0110
0000
0010
1000
0000
1000
0001
0000
;
