#TITLE:Rising in the Sun (Breaks mix);
#SUBTITLE:;
#ARTIST:kors k feat.Rie;
#TITLETRANSLIT:;
#SUBTITLETRANSLIT:;
#ARTISTTRANSLIT:;
#GENRE:;
#CREDIT:;
#BANNER:Rising in the Sun (Breaks Mix).png;
#BACKGROUND:Rising in the Sun (Breaks Mix)-bg.png;
#LYRICSPATH:;
#CDTITLE:;
#MUSIC:Rising in the Sun (Breaks Mix).ogg;
#OFFSET:0.000000;
#SAMPLESTART:91.861000;
#SAMPLELENGTH:15.003000;
#SELECTABLE:YES;
#BPMS:0.000000=172.052994
;
#STOPS:
;
#BGCHANGES:;
#KEYSOUNDS:;
#ATTACKS:;

//---------------dance-single - ----------------
#NOTES:
     dance-single:
     :
     Beginner:
     4:
     0.128248,0.206688,0.076551,0.194857,0.000000,129.000000,118.000000,11.000000,28.000000,0.000000,0.000000,0.128248,0.206688,0.076551,0.194857,0.000000,129.000000,118.000000,11.000000,28.000000,0.000000,0.000000:
0000
0000
0000
0000
,
0000
0000
0000
0000
,
0000
0000
0000
0000
,
0000
0000
0000
0000
,
0000
0000
0000
0000
,
0000
0000
0000
0000
,
0000
0000
0000
0000
,
0000
0000
0000
0000
,
0000
0000
0000
0000
,
0000
0000
0000
0000
,
0000
0000
0000
0000
,
0002
0000
0000
0000
,
0003
0000
0000
0000
,
2000
0000
0000
0000
,
3000
0000
0000
0000
,
0200
0000
0000
0000
,
0300
0000
0000
0000
,
0020
0000
0000
0000
,
0030
0000
0000
0000
,
0001
0001
0000
0000
,
0001
0001
0000
0000
,
0010
0010
0000
0000
,
0010
0010
0000
0000
,
0100
0100
0000
0000
,
0100
0100
0000
0000
,
1000
1000
0000
0000
,
1000
1000
0000
0000
,
0010
0010
0000
0000
,
0100
0100
0000
0000
,
0001
0001
0000
0000
,
1000
1000
0000
0000
,
0001
0001
0000
0000
,
0100
0100
0000
0000
,
0010
0010
0000
0000
,
1000
1000
0000
0000
,
1001
0000
0100
0000
,
0010
0000
0100
0000
,
0001
0002
0000
0000
,
0000
0000
0003
0000
,
0100
0000
0001
0000
,
1000
0000
0100
0100
,
0200
0000
0000
0000
,
0300
0000
0000
0000
,
0010
0010
0010
0000
,
0100
0000
0010
0000
,
0001
0001
0001
0000
,
0100
0000
0010
0000
,
1000
1000
1000
0000
,
0010
0000
0100
0000
,
0001
0001
0001
0000
,
1000
0000
0000
0000
,
2002
0000
0000
0000
,
0000
0000
0000
0000
,
0000
0000
0000
0000
,
0000
0000
0000
0000
,
3003
0000
0000
0000
,
0000
0000
0000
0000
,
0000
0000
0000
0000
,
0100
0000
0010
0000
,
2000
0000
0000
0000
,
3000
0000
0000
0000
,
0002
0000
0000
0000
,
0003
0000
0000
0000
,
0020
0000
0030
0000
,
0200
0000
0300
0000
,
0010
0000
0000
0000
,
1000
0000
0001
0000
,
1001
0000
0001
0000
,
0001
0000
0000
0000
,
1001
0000
1000
0000
,
1000
0000
0000
0000
,
0110
0000
0010
0000
,
0010
0000
0000
0000
,
0110
0000
0100
0000
,
0100
0000
0000
0000
,
0010
0000
1000
0000
,
0200
0000
0300
0000
,
0010
0000
0001
0000
,
0200
0000
0300
0000
,
0010
0000
1000
0000
,
0002
0000
0003
0000
,
0100
0000
0001
0000
,
2000
0000
3000
0000
,
2002
0000
0000
0000
,
3003
0000
0000
0000
,
0220
0000
0000
0000
,
0330
0000
0000
0000
,
2002
0000
0000
0000
,
3003
0000
0000
0000
,
0220
0000
0000
0000
,
0330
0000
0000
0000
,
0010
0000
0001
0000
,
0020
0000
0030
0000
,
0100
0000
1000
0000
,
0200
0000
0300
0000
,
1000
0000
0010
0000
,
2000
0000
3000
0000
,
0001
0000
0100
0000
,
0002
0000
0003
0000
,
1001
0000
0000
0000
;

//---------------dance-single - ----------------
#NOTES:
     dance-single:
     :
     Easy:
     8:
     0.240589,0.413376,0.090469,0.236612,0.000000,242.000000,229.000000,13.000000,34.000000,0.000000,0.000000,0.240589,0.413376,0.090469,0.236612,0.000000,242.000000,229.000000,13.000000,34.000000,0.000000,0.000000:
0000
0000
0000
0000
,
0000
0000
0000
0000
,
0000
0000
0000
0000
,
0000
0000
0000
0000
,
0000
0000
0000
0000
,
0000
0000
0000
0000
,
0000
0000
0000
0000
,
0000
0000
0000
0000
,
0000
0000
0000
0000
,
0000
0000
0000
0000
,
0000
0000
0000
0000
,
0002
0000
0000
0000
,
0023
0000
0000
0000
,
0230
0000
0000
0000
,
2300
0000
0000
0000
,
3020
0000
0000
0000
,
0230
0000
0000
0000
,
0302
0000
0000
0000
,
1003
0000
0000
1001
,
1000
0100
1000
0010
,
0100
0001
0010
0001
,
1000
0010
0100
0010
,
0100
0001
0010
0001
,
0010
0010
0100
1000
,
0100
0010
0001
1000
,
0010
1000
0001
0100
,
0010
0010
0010
0110
,
0100
0001
0010
0001
,
1000
0010
1000
0100
,
0010
0001
0010
0100
,
1000
0001
0100
0010
,
2000
0010
0100
0010
,
3002
0100
0010
0103
,
1000
1000
0001
0001
,
0010
0100
0010
1001
,
0100
0000
0110
0000
0010
0000
0000
1000
,
0000
1000
0000
0100
0000
1000
0000
1000
,
0000
0020
0000
0000
0100
0000
0000
0000
,
1000
0000
1000
0000
,
1030
0000
0001
0000
0010
0000
0000
0100
,
0000
0010
0000
0001
0000
0100
0000
0002
,
0000
0000
0010
0000
,
1000
0000
0100
0103
,
0010
1000
1001
1000
,
0100
1000
0001
0100
,
0001
0001
1001
0100
,
0001
0010
0100
1000
,
0001
1000
0110
1000
,
0010
0100
0001
0100
,
0010
0010
1000
0100
,
0010
0000
0000
0001
0000
2000
0000
0020
,
0000
0000
0000
0000
,
0000
0000
0000
0000
,
0000
0000
0000
0000
,
0000
0000
0000
0000
,
3030
0000
0000
0000
,
0000
0000
0000
0000
,
0000
0000
0000
0000
,
0100
0000
0000
0000
0010
0010
0000
0020
,
0000
0000
0000
0000
,
0000
0000
0000
0100
,
0000
0100
0000
0200
0000
0000
0000
0000
,
0000
0000
0000
0330
,
1001
0010
0010
0010
,
1001
0100
0100
0100
,
2002
0000
0000
3000
,
0023
0000
0030
0100
0000
0100
0000
0100
,
1000
0000
0001
0000
0000
0100
0000
0100
,
0000
0000
0010
0000
0000
1000
0000
1000
,
0000
0000
0010
0000
0000
0100
0000
0100
,
0000
0000
0001
0000
0000
0010
0000
0010
,
0000
0000
0100
0000
0000
0010
0000
0010
,
0000
0000
0001
0000
0000
1000
0000
1000
,
0000
0000
0010
0000
0000
0100
0000
0100
,
0010
0000
0010
1000
0000
1000
0001
0000
,
1002
0000
0000
0203
0000
0000
0020
0000
,
0300
1000
0000
1030
,
2000
0000
0000
3002
0000
0000
0023
0000
,
0000
0100
0000
0001
,
0032
0000
0000
2003
0000
0000
3020
0000
,
0000
0100
0000
1000
,
2030
0000
0000
3200
0000
0000
0320
0000
,
0000
0001
0000
0031
,
1002
0000
1000
0000
,
0010
0000
0100
0000
,
1000
0000
1000
0000
,
0010
0000
0100
0000
,
2003
0000
0010
0000
,
0100
0000
0010
0000
,
0001
0000
0100
0000
,
0010
0000
0100
0000
,
3002
0000
1000
0000
,
0100
0000
1000
0000
,
0010
0000
0100
0000
,
0010
0000
0010
0000
,
2003
0000
0010
0000
,
0001
0000
0100
0000
,
0010
0000
0010
0000
,
0100
0000
0010
3000
,
0110
0000
0000
0000
;

//---------------dance-single - ----------------
#NOTES:
     dance-single:
     :
     Medium:
     11:
     0.336029,0.516719,0.097429,0.306204,0.093949,338.000000,324.000000,14.000000,44.000000,0.000000,0.000000,0.336029,0.516719,0.097429,0.306204,0.093949,338.000000,324.000000,14.000000,44.000000,0.000000,0.000000:
0000
0000
0000
0000
,
0000
0000
0000
0000
,
0000
0000
0000
0000
,
0000
0000
0000
0000
,
0000
0000
0000
0000
,
0000
0000
0000
0000
,
0000
0000
0000
0000
,
0000
0000
0000
0000
,
0000
0000
0000
0000
,
0000
0000
0000
0000
,
0000
0000
0000
0000
,
0002
0000
0000
0000
,
0203
0000
0000
0000
,
0302
0000
0000
0000
,
0023
0000
0000
0000
,
0230
0000
0000
0000
,
2300
0000
0000
0000
,
3002
0000
0000
0000
,
2003
0000
0010
0010
0000
0100
0000
3100
,
1000
0000
0000
1000
0000
0000
0001
0000
0000
0000
0001
0000
0100
0000
0010
0000
,
1000
0000
0000
1000
0000
0000
0010
0000
0000
0000
0100
0000
0001
0000
1000
0000
,
0001
0000
0000
0001
0000
0000
0010
0000
0000
0000
0010
0000
0100
0000
1000
0000
,
0001
0000
0000
0001
0000
0000
0100
0000
0000
0000
0010
0000
1000
0000
0001
0000
,
0010
0000
0000
0010
0000
0000
0100
0000
0000
0000
0100
0000
1000
0000
0001
0000
,
0000
0000
1000
0000
1000
0000
0000
0010
0000
0000
0100
0000
0001
0000
1000
0000
,
0100
0000
0000
0010
0000
0000
0010
0000
0000
0000
0001
0000
0010
0000
0100
0000
,
1000
0000
0001
0000
0100
0100
0000
0010
,
2001
0000
0000
0010
0000
0000
0100
0000
0000
0000
0100
0000
3001
0000
0000
0000
,
0012
0000
0000
1000
0000
0000
0100
0000
0000
0000
0100
0000
1003
0000
0000
0000
,
2100
0000
0000
0001
0000
0000
0010
0000
0000
0000
0010
0000
3001
0000
0000
0000
,
0012
0000
0000
1000
0000
0000
0100
0000
0000
0000
0100
0000
1003
0000
1000
0000
,
0010
0000
0000
0010
0000
0000
0100
0000
0001
0000
0100
0000
0010
0000
1000
0000
,
0000
0000
1000
0000
0001
0000
0000
0010
0000
0000
0010
0000
0100
0000
1000
0000
,
0001
0000
0010
0000
0001
0000
0000
0100
0000
0000
0100
0000
0010
0000
1000
0000
,
0001
0000
0000
0001
0000
0000
1000
0000
0000
1000
0000
0000
0100
0000
0010
0000
,
0110
0000
0100
0000
1000
0000
0001
0100
,
0000
0010
0000
1000
0000
0001
0000
1000
,
0000
1000
0100
0000
0010
0001
0010
0000
,
0001
1000
0001
1000
0010
0100
0010
0100
,
0001
0000
0100
0000
0010
0000
1000
0100
,
0000
0010
0000
0100
0000
1000
0000
1000
,
0001
0000
1000
0000
0001
0100
0001
0000
,
1000
0010
0100
0001
0100
0010
1000
0000
,
0011
0000
0100
0000
1000
0000
0001
0100
,
0000
0010
0000
1000
0000
0010
0000
0100
,
0001
0000
1000
0000
0100
0000
0010
0100
,
0000
1000
0000
0010
0000
0100
0000
0010
,
1000
0000
0001
0000
1000
0100
1000
0000
,
0001
0000
0100
0000
0010
0100
0010
0000
,
1000
0010
1000
0000
0001
0100
0001
0000
,
0100
0000
0100
0020
0000
2030
0000
0002
,
0000
0000
0000
0000
,
0000
0000
0000
0000
,
0000
0000
0000
0000
,
0000
0000
0000
0000
,
3003
0000
0000
0000
,
0000
0000
0000
0000
,
0000
0000
0000
0000
0000
0001
0010
0001
,
0010
0000
0100
0000
1000
0002
0000
2000
,
0000
0000
0000
0000
,
0000
0000
0003
3020
,
0000
0100
0000
0200
0000
0000
0000
0000
,
0000
0000
0000
0330
,
0001
0000
0001
0000
0001
0000
0001
0100
,
1000
0000
1000
0000
1000
0100
0001
0010
,
2000
0000
0000
0000
0000
0000
0000
0010
,
3010
0000
0001
1000
0000
0110
0000
1001
,
1000
0000
0000
0100
0000
0000
1000
0000
0000
0000
0001
0000
0010
0000
0100
0000
,
1000
0000
0000
0001
0000
0000
1000
0000
0000
0000
0010
0000
0100
0000
0001
0000
,
1000
0000
0000
1000
0000
0000
0100
0000
0000
0000
0001
0000
0100
0000
1000
0000
,
0010
0000
0000
1000
0000
0000
1000
0000
0000
0000
0100
0000
0010
0000
0010
0000
,
0001
0000
0000
1000
0000
0000
0001
0000
0000
0000
0100
0000
0010
0000
1000
0000
,
0001
0000
0010
0000
0001
0000
0000
1000
0000
0000
0100
0000
1000
0000
0001
0000
,
1000
0000
0010
0000
0100
0000
0000
0010
0000
0000
0100
0000
0001
0000
0001
0000
,
1000
0000
0000
1000
0000
0000
1000
0000
0001
0000
0000
0001
0000
0000
0001
0000
,
1002
0000
0000
0023
0000
0000
0230
0000
,
1300
0100
1000
0000
0001
0100
0001
0000
,
1020
0000
0000
0230
0000
0000
0302
0000
,
0013
0001
0100
0000
0010
1000
0100
0000
,
1002
0000
0000
0203
0000
0000
0320
0000
,
1030
0010
1000
0000
0001
0100
0010
0000
,
1200
0000
0000
0320
0000
0000
0032
0000
,
1003
0000
0000
1000
0000
0000
0001
0000
0000
0001
0000
0000
0100
0000
0010
0000
,
1002
0000
1000
0000
,
0203
0000
0000
0000
0000
0000
0000
0010
,
0000
0020
0000
0000
0000
0000
0000
0000
,
0000
0000
0000
0300
,
2030
0000
0010
0000
,
3020
0000
0000
0000
0000
0100
0000
0200
,
0000
0000
0000
0000
,
0000
0000
0000
0330
,
0200
0000
0001
0000
,
0302
0000
0000
0000
0000
0000
0000
1000
,
0000
2000
0000
0000
0000
0000
0000
0000
,
0000
0000
0000
0003
,
3002
0000
0010
0000
,
0023
0000
0000
0000
0000
0100
0000
0200
,
0000
0000
0000
0000
,
0000
0000
0000
0330
,
0110
0000
0000
0000
;

//---------------dance-single - ----------------
#NOTES:
     dance-single:
     :
     Hard:
     14:
     0.461294,0.757855,0.160061,0.194857,0.295765,464.000000,441.000000,23.000000,28.000000,0.000000,0.000000,0.461294,0.757855,0.160061,0.194857,0.295765,464.000000,441.000000,23.000000,28.000000,0.000000,0.000000:
// measure 0
0000
0000
0000
0000
,  // measure 1
0000
0000
0000
0000
,  // measure 2
0000
0000
0000
0000
,  // measure 3
0000
0000
0000
0000
,  // measure 4
0000
0000
0000
0000
,  // measure 5
0000
0000
0000
0000
,  // measure 6
0000
0000
0000
0000
,  // measure 7
0000
0000
0000
0000
,  // measure 8
0000
0000
0000
0000
,  // measure 9
0000
0000
0000
0000
,  // measure 10
0000
0000
0000
0000
,  // measure 11
2000
0000
0000
0000
,  // measure 12
3002
0000
0000
0000
,  // measure 13
0023
0000
0000
0000
,  // measure 14
0230
0000
0000
0000
,  // measure 15
2300
0000
0000
0000
,  // measure 16
3020
0000
0000
0000
,  // measure 17
0230
0000
0000
0000
0000
0000
0000
0001
,  // measure 18
0302
0000
1000
1000
0000
0010
0000
0100
,  // measure 19
0103
0001
0000
0100
0001
0000
0100
0010
0000
0000
0100
0000
0010
0000
0010
0000
,  // measure 20
1000
0100
0000
1000
0100
0000
0010
0100
0000
0000
0010
0000
0010
0000
0100
0000
,  // measure 21
0010
0001
0000
0010
0001
0000
0100
0001
0000
0000
0001
0000
1000
0000
1000
0000
,  // measure 22
0010
1000
0000
0010
1000
0000
0001
0100
0000
0000
0100
0000
0010
0000
0010
0000
,  // measure 23
1000
0001
0000
1000
0001
0000
0010
0100
0000
0000
0100
0000
0010
0000
0010
0000
,  // measure 24
0001
0100
0000
0001
0100
0000
1000
0100
0000
0000
0100
0000
0001
0000
0001
0000
,  // measure 25
0010
0100
0000
0010
0100
0000
1000
0100
0000
0000
1000
0000
0100
0000
0010
0000
,  // measure 26
0001
0000
1001
0000
1000
0010
0100
0001
,  // measure 27
0100
0010
0000
1000
0100
0000
0010
0100
0000
0000
1000
0000
0010
0000
0100
0000
,  // measure 28
0001
0010
0000
0100
0010
0000
0001
0100
0000
0000
0010
0000
1000
0000
0001
0000
,  // measure 29
1000
0001
0000
0010
0100
0000
1000
0001
0000
0000
0100
0000
0010
0000
0100
0000
,  // measure 30
0001
0010
0000
0100
1000
0000
0001
0100
0000
0000
0010
0000
1000
0000
0010
0000
,  // measure 31
1000
0001
0000
0001
0100
0000
0100
0010
0000
0000
0010
0000
1000
0000
0001
0000
,  // measure 32
1000
0100
0000
0010
0001
0000
0000
0110
0000
0000
0100
0000
0010
0000
0010
0000
,  // measure 33
0100
0010
0000
0100
0010
0000
1000
0100
0000
1000
0100
0000
0010
0000
0010
0000
,  // measure 34
0001
0100
0000
0010
1000
0000
0001
1000
0001
0000
0001
0000
1000
0000
0010
0000
,  // measure 35
0110
0000
0100
0000
0010
1000
0010
1000
,  // measure 36
0000
1000
0100
0010
0000
0100
0010
0001
,  // measure 37
0000
0001
1000
0000
0001
0100
0001
0100
,  // measure 38
0000
0010
1000
0010
0000
1000
0001
1000
,  // measure 39
0001
0010
0100
0000
0010
0000
0001
0100
,  // measure 40
0000
0010
1000
0010
0000
0100
0001
0100
,  // measure 41
0010
0100
0010
0000
1000
0000
0001
0010
,  // measure 42
0000
0001
1000
0010
0100
0010
0100
0010
,  // measure 43
1001
0000
0010
0000
0100
0000
0100
0010
,  // measure 44
0000
1000
0100
0010
0000
0001
0100
0010
,  // measure 45
0000
0010
1000
0000
0001
0100
1000
0100
,  // measure 46
0000
0100
0001
0010
0000
0010
0001
1000
,  // measure 47
0100
1000
0100
0000
0010
0100
0010
0100
,  // measure 48
0000
1000
0100
0010
0000
0001
0010
0100
,  // measure 49
1000
0000
1000
0001
0010
1000
0010
0001
,  // measure 50
1010
0000
0010
0100
0000
1001
0000
2002
,  // measure 51
0000
0000
0000
0000
,  // measure 52
0000
0000
0000
0000
,  // measure 53
0000
0000
0000
0000
,  // measure 54
0000
0000
0000
0000
,  // measure 55
3003
0000
0000
0000
,  // measure 56
0000
0000
0000
0000
,  // measure 57
0000
0000
0000
0000
0000
0100
0010
0010
,  // measure 58
1000
0100
1000
0000
0001
0010
0000
0220
,  // measure 59
0000
0000
0000
0000
,  // measure 60
0000
0000
0000
0000
0000
0300
0100
0000
,  // measure 61
0000
0001
0000
0002
0000
0000
0000
0000
,  // measure 62
0033
0000
0000
0000
,  // measure 63
1000
0000
0000
0000
0010
0000
0000
0010
0000
0000
0100
0000
0001
0000
0100
0000
,  // measure 64
0000
0001
0010
0000
0001
0000
0010
0001
0000
0000
0010
0000
0100
0000
0010
0000
,  // measure 65
0200
0000
0000
0000
0000
0000
0000
0010
,  // measure 66
0310
0000
0001
0001
0000
1001
0000
1001
,  // measure 67
1000
0010
0000
1000
0010
0000
1000
0010
0000
0000
0100
0000
0001
0000
0010
0000
,  // measure 68
0100
0010
0000
0001
0010
0000
0100
0010
0000
0000
0001
0000
1000
0000
0010
0000
,  // measure 69
0100
0001
0000
0100
0001
0000
0100
0001
0000
0000
1000
0000
0001
0000
0010
0000
,  // measure 70
0100
1000
0000
0100
0010
0000
0100
1000
0000
0000
1000
0000
0010
0000
0100
0000
,  // measure 71
0001
0100
0000
0010
1000
0000
0001
0100
0000
0010
1000
0000
0001
0000
0010
0000
,  // measure 72
0100
1000
0000
0001
0100
0000
0010
1000
0000
0001
0010
0000
0100
0000
0100
0000
,  // measure 73
0010
0001
0000
1000
0010
0000
0100
0001
0000
1000
0100
0000
0010
0000
0100
0000
,  // measure 74
0110
0000
0000
0001
0000
0000
1000
0000
0110
0000
0000
1000
0000
1000
0010
0000
,  // measure 75
0012
0000
1000
1000
0000
0100
0103
0000
,  // measure 76
0010
0000
1000
0000
0010
0000
1000
0001
0000
0001
0010
0000
0001
0000
0010
0000
,  // measure 77
2100
0000
0001
0001
0000
0010
3010
0000
,  // measure 78
0100
0000
0001
0000
0100
0000
0001
1000
0000
1000
0100
0000
1000
0000
0100
0000
,  // measure 79
0012
0000
0010
0100
0000
0100
1003
0000
,  // measure 80
1000
0000
0010
0000
1000
0000
0010
0100
0000
0100
0001
0000
0010
0000
0100
0000
,  // measure 81
2100
0000
0001
0001
0000
0010
3010
0000
,  // measure 82
1100
0000
0000
0011
0000
0000
1001
0000
0101
0000
0000
1010
0000
1000
0001
0000
,  // measure 83
0220
0000
0000
0000
0000
0030
0000
0001
,  // measure 84
0000
0010
0000
0001
0000
0010
0000
0001
,  // measure 85
0000
0002
0000
0000
0000
0000
0000
0000
,  // measure 86
0000
0000
0000
0300
,  // measure 87
2000
0000
0000
0000
0000
0000
0003
0010
,  // measure 88
0000
0100
0000
0001
0000
0100
0000
3002
,  // measure 89
0000
0000
0000
0000
,  // measure 90
0023
0000
0100
0000
,  // measure 91
0230
0000
0000
0000
0000
0000
0000
0010
,  // measure 92
0000
0010
0000
1000
0000
0010
0000
1000
,  // measure 93
0000
2000
0000
0000
0000
0000
0000
0000
,  // measure 94
0000
0000
0000
0300
,  // measure 95
0002
0000
0000
0000
0000
0000
3000
0100
,  // measure 96
0000
0010
0000
1000
0000
1000
0000
0020
,  // measure 97
0000
0000
0000
0000
,  // measure 98
0000
0000
0000
0033
,  // measure 99
0011
0000
0000
0000
;
