#VERSION:0.83;
#TITLE:Rhythm Inside;
#SUBTITLE:;
#ARTIST:Calum Scott;
#TITLETRANSLIT:;
#SUBTITLETRANSLIT:;
#ARTISTTRANSLIT:;
#GENRE:;
#ORIGIN:;
#CREDIT:;
#BANNER:Rhythm Inside.png;
#BACKGROUND:Rhythm Inside-bg (widescreen).png;
#PREVIEWVID:;
#JACKET:Rhythm Inside-jacket.png;
#CDIMAGE:;
#DISCIMAGE:Rhythm Inside-bg.png;
#LYRICSPATH:;
#CDTITLE:;
#MUSIC:Rhythm Inside.ogg;
#OFFSET:-0.040000;
#SAMPLESTART:67.746002;
#SAMPLELENGTH:15.000000;
#SELECTABLE:YES;
#BPMS:0.000=60.251,
20.000=120.503,
180.000=60.251;
#STOPS:;
#DELAYS:;
#WARPS:;
#TIMESIGNATURES:0.000=4=4;
#TICKCOUNTS:0.000=4;
#COMBOS:0.000=1;
#SPEEDS:0.000=1.000=0.000=0;
#SCROLLS:0.000=1.000;
#FAKES:;
#LABELS:0.000=Song Start;
#BGCHANGES:0.000=Rhythm Inside.avi=1.000=0=0=1=====,
99999=-nosongbg-=1.000=0=0=0 // don't automatically add -songbackground-
;
#KEYSOUNDS:;
#ATTACKS:
;

//---------------dance-single - ----------------
#NOTEDATA:;
#CHARTNAME:;
#STEPSTYPE:dance-single;
#DESCRIPTION:;
#CHARTSTYLE:;
#DIFFICULTY:Beginner;
#METER:2;
#RADARVALUES:0.082474,0.104002,0.000000,0.076410,0.000000,68.000000,68.000000,0.000000,9.000000,0.000000,0.000000,0.000000,0.000000,0.000000,0.082474,0.104002,0.000000,0.076410,0.000000,68.000000,68.000000,0.000000,9.000000,0.000000,0.000000,0.000000,0.000000,0.000000;
#CREDIT:;
#NOTES:
0000
0000
0000
0000
,
0000
0000
0000
0000
,
0000
0000
0000
0000
,
2000
0000
3000
0000
,
0002
0000
0003
0000
,
0000
0100
0000
0100
,
0000
0001
0000
0001
,
0000
1000
0000
1000
,
0000
0010
0000
0010
,
0000
1000
0000
0100
,
0000
1000
0000
0001
,
0000
0010
0000
0001
,
0000
0100
0000
0010
,
0010
0000
0100
0000
,
0001
0000
0000
0000
,
0100
0000
0010
0000
,
1000
0000
0000
0000
,
0001
0000
0000
0000
,
1000
0000
0000
0000
,
0200
0000
0300
0000
,
0020
0000
0030
0000
,
0001
0000
0010
0000
,
1000
0000
0000
0000
,
1000
0000
0100
0000
,
0001
0000
0000
0000
,
0020
0000
0030
0000
,
0200
0000
0300
0000
,
2000
0000
0000
0000
,
0000
0000
3000
0000
,
0001
0000
0100
0000
,
0001
0000
1000
0000
,
0010
0000
0000
0000
,
0100
0000
0010
0000
,
1000
0000
0001
0000
,
0010
0000
0001
0000
,
0100
0000
0000
0000
,
0010
0000
0010
0000
,
1000
0000
0000
0000
,
0001
0000
0000
0000
,
0010
0000
0001
0000
,
0100
0000
0010
0000
,
1000
0000
0000
0000
,
0001
0000
0000
0000
,
0100
0000
0001
0000
,
0010
0000
0100
0000
,
0020
0000
0030
0000
,
0001
0000
0000
0000
,
0200
0000
0300
0000
,
1000
0000
0000
0000
,
0001
0000
0000
0000
;

//---------------dance-single - ----------------
#NOTEDATA:;
#CHARTNAME:;
#STEPSTYPE:dance-single;
#DESCRIPTION:;
#CHARTSTYLE:;
#DIFFICULTY:Easy;
#METER:4;
#RADARVALUES:0.140691,0.208004,0.025470,0.161309,0.000000,116.000000,113.000000,3.000000,19.000000,0.000000,0.000000,0.000000,0.000000,0.000000,0.140691,0.208004,0.025470,0.161309,0.000000,116.000000,113.000000,3.000000,19.000000,0.000000,0.000000,0.000000,0.000000,0.000000;
#CREDIT:;
#NOTES:
0000
0000
0000
0000
,
0000
0000
0000
0000
,
0000
0000
0000
0000
,
2000
0000
0100
0000
,
3002
0000
0100
0000
,
0013
0010
0000
0001
,
0000
0100
0000
0010
,
0000
1000
0000
0001
,
0000
1000
0000
0100
,
0100
1000
0000
0010
,
0000
0100
0000
0001
,
0000
0001
0000
1000
,
0000
0010
0000
0100
,
0010
0010
1000
0000
,
0001
0000
0100
0000
,
0001
0001
0010
0000
,
0100
0000
1000
0100
,
2000
0000
0000
0001
,
3002
0000
0000
0100
,
0203
0000
0000
0000
,
0310
0000
0010
0000
,
0010
0010
1000
0000
,
0100
0000
1000
0000
,
0001
0001
1000
0000
,
0010
0000
0100
0001
,
0002
0000
0000
1000
,
2003
0000
0000
0100
,
3200
0000
0000
0000
,
0020
0000
0000
0330
,
1001
0001
0010
0001
,
0100
0010
1000
0100
,
0010
0000
0000
0000
,
0010
0010
0001
0001
,
1000
0100
1000
0001
,
0100
0010
1000
0100
,
1000
0000
0000
0000
,
0001
0010
0100
1000
,
1002
1000
0100
0000
,
2003
0000
0100
0000
,
3010
0000
0100
0000
,
0001
0100
0010
1000
,
0012
0010
1000
0000
,
2003
0000
0100
0000
,
3001
0100
0010
1000
,
0010
0100
0001
1000
,
0002
0000
0023
0000
,
0230
0000
0000
0000
,
2300
0000
3020
0000
,
0230
0000
0000
0000
,
0300
0000
0000
0000
;

//---------------dance-single - ----------------
#NOTEDATA:;
#CHARTNAME:;
#STEPSTYPE:dance-single;
#DESCRIPTION:;
#CHARTSTYLE:;
#DIFFICULTY:Medium;
#METER:8;
#RADARVALUES:0.259551,0.312007,0.059430,0.186779,0.335354,214.000000,207.000000,7.000000,22.000000,0.000000,0.000000,0.000000,0.000000,0.000000,0.259551,0.312007,0.059430,0.186779,0.335354,214.000000,207.000000,7.000000,22.000000,0.000000,0.000000,0.000000,0.000000,0.000000;
#CREDIT:;
#NOTES:
0000
0000
0000
0000
,
0000
0000
0000
0000
,
0000
0000
0000
0000
,
0200
0000
0320
0000
,
2030
0000
3002
0000
,
1003
0000
0000
1000
0000
0001
0000
0000
0000
0001
0000
0100
,
0000
0000
0000
0100
0000
0010
0000
0000
0000
0010
0000
1000
,
0000
0000
0000
1000
0000
0001
0000
0000
0000
0001
0000
0010
,
0000
0000
0000
0010
0000
0100
0000
0000
0000
0100
0000
1000
,
0000
0000
0000
1000
0000
0100
0000
0000
0000
0100
0000
1000
,
0000
0000
0000
0001
0000
0010
0000
0000
0000
0010
0000
0001
,
0000
0000
0000
0001
0000
0100
0000
0000
0000
0010
0000
1000
,
0000
0000
0000
1000
0000
0100
0000
0000
0000
0100
0000
0010
,
0001
0000
1000
0010
0000
0000
0100
0000
0000
0010
0000
1000
,
0002
0000
0000
0010
0000
0000
0100
0000
0000
1003
0000
1000
,
0001
0000
0001
0100
0000
0000
0110
0000
0000
0010
0000
0010
,
2000
0000
0000
0100
0000
0000
3001
0000
0001
0010
0000
0001
,
0000
0000
0000
1000
0000
1000
0000
0000
1000
0010
0000
0010
,
0000
0000
0000
0100
0000
0100
0000
0000
0001
0100
0000
0010
,
0000
0000
1000
0001
0000
0001
0200
0000
0000
0000
0000
0000
,
0010
0000
0000
0010
0000
0000
0001
0000
0000
0310
0000
0010
,
1000
0000
1000
0100
0000
0000
0010
0000
0000
0001
0000
0001
,
2000
0000
0000
0010
0000
0000
0100
0000
0000
3001
0000
0001
,
0100
0000
0100
0010
0000
0000
1001
0000
0000
1000
0000
1000
,
0020
0000
0000
0100
0000
0000
1030
0000
0000
0001
0000
0001
,
0000
0000
0000
0010
0000
0010
0000
0000
0010
0100
0000
0100
,
0000
0000
0000
1000
0000
1000
0000
0000
1000
0001
0000
0100
,
0000
0000
0010
1000
0000
0010
2000
0000
0000
0000
0000
0000
,
0000
0000
0000
3000
,
1001
0001
0100
0100
,
0010
0000
0010
1000
0000
1000
0100
0000
0100
0010
0000
0001
,
0000
0000
0001
1000
0000
0100
0000
0000
0000
1000
0000
0010
,
0000
0000
0010
0100
0000
0001
0100
0000
0010
1000
0000
0001
,
0000
0010
1100
0101
,
1000
0000
1000
0100
0000
0100
0010
0000
0010
0001
0000
1000
,
0000
0000
1000
0010
0000
0100
0000
0000
0000
0001
0000
0100
,
0000
0000
0100
0010
0000
0010
1000
0000
1000
0001
0000
0000
,
1002
0000
0000
0010
0000
0100
0000
0000
0000
0100
0000
0000
,
2003
0000
0100
0000
0000
0010
0000
0000
0000
3010
0000
0000
,
0001
0001
1000
1000
,
0010
0000
0010
1000
0000
1000
0001
0000
0001
0100
0000
0000
,
0021
0000
0000
0100
0000
0100
0000
0000
0000
0001
0000
0000
,
0230
0000
1000
0000
0000
0010
0000
0000
0000
0301
0000
0000
,
1000
1000
0001
0001
,
1000
0000
1000
0010
0000
0010
0100
0000
0100
0001
0000
0000
,
0002
0000
0023
0000
,
0230
0000
2000
3300
,
2000
0000
3002
0000
,
0203
0000
0020
0000
,
0330
0000
0000
0000
;

//---------------dance-single - ----------------
#NOTEDATA:;
#CHARTNAME:;
#STEPSTYPE:dance-single;
#DESCRIPTION:;
#CHARTSTYLE:;
#DIFFICULTY:Hard;
#METER:10;
#RADARVALUES:0.329896,0.436809,0.076410,0.178289,0.585808,272.000000,263.000000,9.000000,21.000000,0.000000,0.000000,0.000000,0.000000,0.000000,0.329896,0.436809,0.076410,0.178289,0.585808,272.000000,263.000000,9.000000,21.000000,0.000000,0.000000,0.000000,0.000000,0.000000;
#CREDIT:;
#NOTES:
// measure 0
0000
0000
0000
0000
,  // measure 1
0000
0000
0000
0000
,  // measure 2
0000
0000
0000
0000
,  // measure 3
0002
0000
0203
0000
,  // measure 4
0320
0000
2030
0000
,  // measure 5
3001
0000
0001
0010
0000
0100
0000
0000
1000
0010
0000
0100
,  // measure 6
0000
0000
0001
0100
0000
0010
0000
0000
1000
0100
0000
0010
,  // measure 7
0000
0000
0001
1000
0000
0100
0000
0000
1000
0001
0000
0100
,  // measure 8
0000
0000
0010
1000
0000
0001
0000
0000
0010
0001
0000
1000
,  // measure 9
0000
0000
0010
0100
0000
0001
0000
0000
0100
0010
0000
1000
,  // measure 10
0000
0000
0001
0010
0000
0100
0000
0000
1000
0010
0000
0100
,  // measure 11
0000
0000
0001
1000
0000
0100
0000
0000
0010
0001
0000
1000
,  // measure 12
0000
0000
0010
0100
0000
0001
0000
0000
0100
0010
0000
0010
,  // measure 13
1000
0000
1000
0100
0000
0000
0110
0000
0000
0001
0000
0001
,  // measure 14
2000
0000
0000
0010
0000
0000
0100
0000
0000
3010
0000
0010
,  // measure 15
0100
0000
0100
0001
0000
0000
1001
0000
0000
1000
0000
1000
,  // measure 16
0200
0000
0000
0010
0000
0000
0001
0000
0000
0310
0000
0010
,  // measure 17
0000
0000
0010
0100
0000
1000
0000
0000
1000
0001
0000
0100
,  // measure 18
0000
0000
0100
0010
0000
1000
0000
0000
1000
0001
0000
0010
,  // measure 19
0000
0000
0010
0100
0000
0010
0001
0000
0000
0001
0000
0001
,  // measure 20
0100
0000
0000
0100
0000
0100
0010
0000
1000
0010
0000
0100
,  // measure 21
0001
0000
1000
0100
0000
0000
0110
0000
0000
0001
0000
0001
,  // measure 22
2000
0000
0000
0010
0000
0000
0100
0000
0000
3010
0000
0010
,  // measure 23
0100
0000
0100
0001
0000
0000
1001
0000
0000
1000
0000
1000
,  // measure 24
0002
0000
0000
0010
0000
0000
0103
0000
0100
0010
0000
0010
,  // measure 25
0000
0000
0010
1000
0000
1000
0000
0000
1000
0100
0000
0100
,  // measure 26
0000
0000
0100
0010
0000
0010
0000
0000
0010
0001
0000
1001
,  // measure 27
0000
0000
0001
1000
0000
0001
2000
0000
0000
0000
0000
0000
,  // measure 28
0000
0000
0000
3000
,  // measure 29
1001
0000
1000
0010
0000
0000
0100
0000
0000
0001
0000
0001
,  // measure 30
0010
0000
0010
0100
0000
0100
1000
0000
1000
0001
0000
0100
,  // measure 31
0000
0000
0100
0010
0000
1000
0000
0000
1000
0001
0000
0010
,  // measure 32
0000
0000
0100
1000
0000
0001
0100
0000
0010
1000
0000
0001
,  // measure 33
0000
0000
0001
0010
0000
0000
0110
0000
0000
1001
0000
1000
,  // measure 34
0100
0000
0100
0010
0000
0010
0001
0000
0001
1000
0000
0010
,  // measure 35
0000
0000
1000
0001
0000
0100
0000
0000
0010
1000
0000
0001
,  // measure 36
0000
0000
1000
0010
0100
0001
0100
0010
1000
0100
0010
0001
,  // measure 37
2001
0000
0000
0100
0000
3100
0000
1000
0100
1000
0001
0100
,  // measure 38
0002
0000
0010
0000
0000
0103
0000
0000
0100
0010
0000
0100
,  // measure 39
0000
0000
0010
1000
0000
0010
0000
0000
1000
0001
0000
0100
,  // measure 40
0000
0000
0010
1000
0001
0010
0100
1000
0100
0010
0001
1000
,  // measure 41
0020
0000
0000
0100
0000
0130
0000
0000
0001
0010
0001
1000
,  // measure 42
0200
0000
0010
0000
0000
1300
0000
0000
1000
0010
0000
1000
,  // measure 43
0000
0000
0001
0100
0000
0001
1000
0000
1000
0100
0000
1000
,  // measure 44
0010
0000
0010
0100
0000
0100
0001
0010
0100
1000
0100
0010
,  // measure 45
0002
0000
0203
0000
,  // measure 46
0320
0000
2000
3030
,  // measure 47
2000
0000
3002
0000
,  // measure 48
0203
0000
0320
0000
,  // measure 49
0030
0000
0000
0000
;
