#VERSION:0.83;
#TITLE:Respectable;
#SUBTITLE:;
#ARTIST:Mel & Kim;
#TITLETRANSLIT:;
#SUBTITLETRANSLIT:;
#ARTISTTRANSLIT:;
#GENRE:;
#ORIGIN:;
#CREDIT:;
#BANNER:Respectable.png;
#BACKGROUND:Respectable-bg.png;
#PREVIEWVID:;
#JACKET:Respectable-jacket.png;
#CDIMAGE:;
#DISCIMAGE:;
#LYRICSPATH:;
#CDTITLE:;
#MUSIC:Respectable.ogg;
#OFFSET:0.000000;
#SAMPLESTART:60.849998;
#SAMPLELENGTH:15.003000;
#SELECTABLE:YES;
#BPMS:0.000=122.223;
#STOPS:;
#DELAYS:;
#WARPS:;
#TIMESIGNATURES:0.000=4=4;
#TICKCOUNTS:0.000=4;
#COMBOS:0.000=1;
#SPEEDS:0.000=1.000=0.000=0;
#SCROLLS:0.000=1.000;
#FAKES:;
#LABELS:0.000=Song Start;
#BGCHANGES:0.000=Respectable.mp4=1.000=0=0=0=StretchNoLoop====,
99999=-nosongbg-=1.000=0=0=0 // don't automatically add -songbackground-
;
#KEYSOUNDS:;
#ATTACKS:
;

//---------------dance-single - ----------------
#NOTEDATA:;
#CHARTNAME:;
#STEPSTYPE:dance-single;
#DESCRIPTION:;
#CHARTSTYLE:;
#DIFFICULTY:Beginner;
#METER:2;
#RADARVALUES:0.122578,0.165038,0.007730,0.000000,0.000000,111.000000,110.000000,1.000000,0.000000,0.000000,0.000000,0.000000,0.000000,0.000000,0.122578,0.165038,0.007730,0.000000,0.000000,111.000000,110.000000,1.000000,0.000000,0.000000,0.000000,0.000000,0.000000,0.000000;
#CREDIT:;
#NOTES:
// measure 0
0000
0000
0000
0000
,  // measure 1
0000
0000
0000
0000
,  // measure 2
0000
0000
0000
0000
,  // measure 3
0000
0000
0000
0000
,  // measure 4
0000
0000
0000
0000
,  // measure 5
1000
0000
0010
0000
,  // measure 6
0100
0000
0001
0000
,  // measure 7
1000
0000
0100
0000
,  // measure 8
0010
0000
0100
0000
,  // measure 9
0010
0000
0001
0000
,  // measure 10
0010
0000
0000
0000
,  // measure 11
0001
0001
0000
0000
,  // measure 12
1000
1000
0000
0000
,  // measure 13
0001
0000
1000
0000
,  // measure 14
0001
0000
0000
0000
,  // measure 15
0010
0010
0000
0000
,  // measure 16
0100
0100
0000
0000
,  // measure 17
0010
0000
0100
0000
,  // measure 18
0010
0000
0000
0000
,  // measure 19
0100
0000
0001
0000
,  // measure 20
0010
0000
0100
0000
,  // measure 21
1000
1000
0000
0000
,  // measure 22
0001
0001
0000
0000
,  // measure 23
1000
0000
0001
0000
,  // measure 24
1000
0000
0000
0000
,  // measure 25
0100
0100
0000
0000
,  // measure 26
0010
0010
0000
0000
,  // measure 27
0100
0000
0010
0000
,  // measure 28
0100
0000
0000
0000
,  // measure 29
1000
0000
0100
0000
,  // measure 30
0010
0000
0001
0000
,  // measure 31
0010
0010
0010
0000
,  // measure 32
0100
0100
0100
0000
,  // measure 33
1000
0000
0001
0000
,  // measure 34
1000
0000
0000
0000
,  // measure 35
0100
0100
0100
0000
,  // measure 36
0010
0010
0010
0000
,  // measure 37
0001
0000
1000
0000
,  // measure 38
0001
0000
0000
0000
,  // measure 39
1000
1000
0000
0000
,  // measure 40
0010
0010
0000
0000
,  // measure 41
0100
0100
0000
0000
,  // measure 42
0001
0001
0000
0000
,  // measure 43
1000
1000
0000
0000
,  // measure 44
0001
0001
0000
0000
,  // measure 45
0010
0000
0100
0000
,  // measure 46
0010
0000
0000
0000
,  // measure 47
0001
0001
0000
0000
,  // measure 48
1000
1000
0000
0000
,  // measure 49
0100
0000
0010
0000
,  // measure 50
0100
0000
0000
0000
,  // measure 51
0001
0000
0010
0000
,  // measure 52
0100
0000
1000
0000
,  // measure 53
0010
0010
0010
0000
,  // measure 54
1000
1000
1000
0000
,  // measure 55
0001
0000
0100
0000
,  // measure 56
0001
0000
0000
0000
,  // measure 57
0100
0100
0100
0000
,  // measure 58
0001
0001
0001
0000
,  // measure 59
1000
0000
0010
0000
,  // measure 60
1000
0000
0000
0000
,  // measure 61
1001
0000
0000
0000
;

//---------------dance-single - ----------------
#NOTEDATA:;
#CHARTNAME:;
#STEPSTYPE:dance-single;
#DESCRIPTION:;
#CHARTSTYLE:;
#DIFFICULTY:Easy;
#METER:6;
#RADARVALUES:0.250677,0.330076,0.185523,0.000000,0.000000,227.000000,203.000000,24.000000,0.000000,0.000000,0.000000,0.000000,0.000000,0.000000,0.250677,0.330076,0.185523,0.000000,0.000000,227.000000,203.000000,24.000000,0.000000,0.000000,0.000000,0.000000,0.000000,0.000000;
#CREDIT:;
#NOTES:
0000
0000
0000
0000
,
0000
0000
0000
0000
,
0000
0000
0000
0000
,
0000
0000
0000
0000
,
0000
0000
0000
0000
,
1001
1001
0110
0110
,
0100
0010
1000
0100
,
0011
0001
0100
0001
,
1000
0001
0010
0001
,
1000
1000
0010
0010
,
0100
0100
0000
0000
0010
0000
1001
0000
,
0100
1000
0100
0000
,
0010
0001
0010
0000
,
0001
0100
0010
0100
,
0010
0010
0000
0100
,
1001
1000
0100
0000
,
0010
0001
0100
0000
,
0001
0100
0010
1000
,
0100
0100
0000
0010
,
1001
0110
0110
1001
,
0001
0010
0100
1000
,
0010
0100
0010
0000
,
0100
0010
0100
0000
,
0001
1000
0100
0010
,
0001
0001
1000
0000
,
0010
1000
0100
0000
,
0010
0001
0100
0000
,
0001
1000
0100
0010
,
0100
1000
0001
0000
,
0110
1001
1100
0011
,
0001
0010
0100
1000
,
0010
0100
0001
0100
,
0010
0100
0001
0010
,
0100
0010
0001
0100
,
0010
0010
0000
0000
0100
0000
1001
0000
,
0100
0010
1000
0100
,
0010
0100
1000
0010
,
0100
0100
0010
0010
,
1000
1000
0000
0000
0001
0000
1001
0000
,
1000
1000
1000
0000
,
0100
0100
0100
0000
,
0010
0010
0010
0000
,
0001
0001
0001
0001
,
0100
0001
0010
0000
,
0100
1000
0010
0000
,
1000
1000
0001
0001
,
0010
0010
0000
0000
,
0100
0010
0100
0000
,
1000
0010
1000
0000
,
0001
0001
1000
1000
,
0010
0010
0000
0100
,
0110
0011
1100
0110
,
0100
1000
0001
0100
,
0010
1000
0001
0010
,
0100
1000
0001
0100
,
0010
1000
0010
0100
,
0001
0001
0000
0000
0010
0000
0110
0000
,
0100
1000
0010
0100
,
0001
0010
0001
1000
,
0010
0100
0001
1000
,
0100
0100
0000
0000
0010
0000
0110
0000
,
1001
0000
0000
0000
;

//---------------dance-single - ----------------
#NOTEDATA:;
#CHARTNAME:;
#STEPSTYPE:dance-single;
#DESCRIPTION:;
#CHARTSTYLE:;
#DIFFICULTY:Medium;
#METER:9;
#RADARVALUES:0.386506,0.400807,0.255094,0.000000,0.000000,350.000000,317.000000,33.000000,0.000000,0.000000,0.000000,0.000000,0.000000,0.000000,0.386506,0.400807,0.255094,0.000000,0.000000,350.000000,317.000000,33.000000,0.000000,0.000000,0.000000,0.000000,0.000000,0.000000;
#CREDIT:;
#NOTES:
0000
0000
0000
0000
,
0000
0000
0000
0000
,
0000
0000
0000
0000
,
0000
0000
0000
0000
,
0000
0000
0000
0000
,
1001
0110
1100
0011
,
0100
0010
0100
1000
0001
0000
0100
0000
,
1010
0000
0001
0010
0000
0010
0100
1000
,
0001
0000
1000
0010
0000
0010
0100
0001
,
1000
0001
1000
0001
0100
0000
0010
1000
,
0001
1001
0000
0000
0001
0010
0100
0010
,
0001
0000
1000
0100
0000
0100
0001
0100
,
1000
0000
1000
0010
0000
0010
0100
0001
,
0100
0010
1000
0010
0100
0001
0010
0000
,
0100
0100
1000
0000
0001
0000
0011
0000
,
0001
0000
1000
0010
0000
0010
1000
0010
,
0100
0000
0001
0100
0000
0100
0010
1000
,
0000
0010
1000
0001
0010
0001
0010
0100
,
0010
0010
0000
0000
0100
0100
1001
0000
,
1100
0011
1010
0101
,
0010
1000
0001
0010
0100
0000
1001
0000
,
0100
0000
0010
0001
0000
0010
0100
0000
,
1000
0000
0010
0100
0000
0001
1000
0000
,
0001
1000
0100
1000
0001
0010
0100
1000
,
0010
0010
0000
0000
0100
0000
1001
0000
,
0100
0000
1000
0001
0000
1000
0100
0000
,
1000
0000
0001
0010
0000
0001
0100
0000
,
0010
1000
0010
0100
0001
1000
0100
0010
,
0100
0100
1000
0000
0001
0000
0011
0000
,
0101
1010
1100
0011
,
1000
0100
0001
0100
1000
0000
0001
0000
,
1001
0000
1000
0100
0000
0010
0001
1000
,
0100
0000
0010
0100
0000
1000
0001
0100
,
0010
0100
0010
0100
0001
0000
0100
0010
,
1000
1000
0000
0000
0001
0000
1001
0000
,
0010
0000
0100
0001
0000
0010
0100
1000
,
0001
0000
0100
0010
0000
1000
0010
0100
,
0001
0100
1000
0100
0001
0000
1000
0001
,
0010
0100
0000
0000
0100
0010
1001
0000
,
0010
1000
0100
0000
0100
0000
1000
0000
,
0100
0010
0001
0000
0001
0000
0100
0000
,
0010
0100
0001
0000
0001
0000
0100
0000
,
0010
1000
0001
0000
1000
0000
0110
0000
,
0001
0000
1000
0100
0000
1000
0010
0000
,
0100
0000
0001
0010
0000
0001
0100
0000
,
0001
1000
0001
1000
0100
0010
0100
0000
,
0010
0001
0010
0000
0100
0000
1100
0000
,
1000
0000
0010
0100
0000
0001
0100
0000
,
0010
0000
1000
0001
0000
0010
0100
0000
,
0010
0100
0010
0100
1000
0001
1000
0001
,
0100
0010
0000
0000
1000
0000
0110
0000
,
1001
0110
1100
0011
,
0010
0001
0010
1000
0010
0000
0100
0000
,
1001
0000
0001
0100
0000
0010
1000
0001
,
0010
0000
0100
1000
0000
0001
0100
0001
,
1000
0010
1000
0010
0100
0000
0001
0100
,
0010
0010
0000
0000
1000
1000
0001
0000
,
1001
0000
0100
1000
0000
0001
0100
0010
,
1000
0000
0010
0100
0000
0001
0010
0001
,
1000
0100
0010
0100
1000
0000
0001
0100
,
0010
0010
0000
0000
1000
0000
1001
0000
,
0110
0000
0000
0000
;

//---------------dance-single - ----------------
#NOTEDATA:;
#CHARTNAME:;
#STEPSTYPE:dance-single;
#DESCRIPTION:;
#CHARTSTYLE:;
#DIFFICULTY:Hard;
#METER:12;
#RADARVALUES:0.480372,0.471538,0.371046,0.000000,0.057976,435.000000,387.000000,48.000000,0.000000,0.000000,0.000000,0.000000,0.000000,0.000000,0.480372,0.471538,0.371046,0.000000,0.057976,435.000000,387.000000,48.000000,0.000000,0.000000,0.000000,0.000000,0.000000,0.000000;
#CREDIT:;
#NOTES:
0000
0000
0000
0000
,
0000
0000
0000
0000
,
0000
0000
0000
0000
,
0000
0000
0000
0000
,
0000
0000
0000
0000
,
1010
0101
0011
1100
,
0001
0100
0000
0001
0100
0000
0010
0000
1001
0000
0000
0000
0110
0000
0000
0000
,
1010
0100
0001
0010
0000
0100
0010
0001
,
0010
0100
1000
0001
0000
1000
0010
0100
,
0001
0001
1000
1000
0100
0100
0010
0010
,
1001
0110
0010
0000
0100
0000
0001
0100
,
0010
1000
0001
0010
0000
0100
1000
0001
,
0100
0001
1000
0100
0000
0010
0001
0010
,
0100
1000
0100
1000
0001
0100
0001
0100
,
0010
1000
0001
0000
0010
0001
1000
0000
,
0100
1000
0010
0100
0000
0001
0100
0010
,
0100
0001
0010
0100
0000
0010
0001
1000
,
0010
1000
0010
1000
0001
0100
0001
0100
,
0001
1000
0100
0100
0001
1000
1000
0000
,
1010
0101
0011
1100
,
0001
0010
0000
0100
1000
0000
0100
0000
1001
0000
0000
0000
0110
0000
0000
0000
,
0011
0100
1000
0001
0000
0100
0010
1000
,
0010
0100
0001
1000
0000
0001
0010
0100
,
1000
0100
1000
0100
0001
0100
0001
0100
,
1000
0010
0010
0000
0001
0010
0010
0000
,
1000
0010
1000
0100
0000
0010
0001
1000
,
0001
0100
0010
1000
0000
0001
0100
1000
,
0100
1000
0100
0001
0100
0001
0010
0100
,
1000
1000
0001
0000
0001
0001
0100
0100
,
1001
0110
1100
0011
,
0100
1000
0000
0001
0100
0000
0010
0000
1001
0000
0000
0000
0110
0000
0000
0000
,
1001
0100
1000
0100
0000
1000
0001
0010
,
1000
0010
0001
0100
0000
0010
1000
0001
,
0100
0001
0100
0010
1000
0010
1000
0001
,
1001
0110
0010
0000
0100
1001
0110
0000
,
0011
0100
1000
0001
0000
1000
0010
0100
,
0001
0100
1000
0100
0000
0001
1000
0100
,
0010
0010
0001
0001
1000
1000
0010
0010
,
0101
0101
0010
0000
0100
1100
1001
0000
,
1000
0000
0100
0000
1000
0000
0000
0100
0000
1000
0100
0000
0010
0000
0100
0000
,
0010
0000
0001
0000
0010
0000
0000
0001
0000
0100
0001
0000
0100
0000
0010
0000
,
1000
0000
0010
0000
0100
0000
0000
0010
0000
1000
0100
0000
0010
0000
0100
0000
,
0010
0000
0001
0000
0100
0000
0000
0001
1000
0000
0100
0000
0010
0000
0001
0000
,
1000
0001
0100
0010
0000
0100
0010
1000
,
0001
0010
0100
1000
0000
0001
0100
0010
,
1000
0001
0010
0100
1000
0001
0100
0010
,
1000
1000
0100
0000
0001
0001
0010
0000
,
0100
1000
0001
0100
0000
0010
1000
0001
,
0010
0100
0010
0001
0000
0010
0100
1000
,
0001
0010
0001
0010
1000
0010
1000
0010
,
0001
0100
0100
0000
1000
0010
0010
0000
,
0011
0110
1100
0110
,
0010
1000
0000
0001
0010
0000
0100
0000
1001
0000
0000
0000
0110
0000
0000
0000
,
1001
0100
1000
0010
0000
0100
0001
1000
,
0100
0010
0001
1000
0000
0010
1000
0001
,
0100
0010
0100
0010
1000
0001
1000
0001
,
1001
0110
0010
0000
0100
0110
1001
0000
,
0001
0100
1000
0100
0000
0001
1000
0100
,
0001
0100
1000
0010
0000
0001
0010
1000
,
0010
0010
0100
0100
0001
0001
1000
1000
,
1100
1010
0001
0000
0010
0011
0101
0000
,
1001
0000
0000
0000
;
