#VERSION:0.83;
#TITLE:Reaching for the Stars;
#SUBTITLE:;
#ARTIST:serena;
#TITLETRANSLIT:;
#SUBTITLETRANSLIT:;
#ARTISTTRANSLIT:;
#GENRE:;
#ORIGIN:;
#CREDIT:;
#BANNER:Reaching for the Stars.png;
#BACKGROUND:Reaching for the Stars-bg.png;
#PREVIEWVID:;
#JACKET:Reaching for the Stars-jacket.png;
#CDIMAGE:;
#DISCIMAGE:;
#LYRICSPATH:;
#CDTITLE:;
#MUSIC:Reaching for the Stars.ogg;
#OFFSET:0.424000;
#SAMPLESTART:92.915001;
#SAMPLELENGTH:15.000000;
#SELECTABLE:YES;
#BPMS:0.000=188.000;
#STOPS:;
#DELAYS:;
#WARPS:;
#TIMESIGNATURES:0.000=4=4;
#TICKCOUNTS:0.000=4;
#COMBOS:0.000=1;
#SPEEDS:0.000=1.000=0.000=0;
#SCROLLS:0.000=1.000;
#FAKES:;
#LABELS:0.000=Song Start;
#BGCHANGES:;
#KEYSOUNDS:;
#ATTACKS:
;

//---------------dance-single - ----------------
#NOTEDATA:;
#CHARTNAME:;
#STEPSTYPE:dance-single;
#DESCRIPTION:;
#CHARTSTYLE:;
#DIFFICULTY:Beginner;
#METER:4;
#RADARVALUES:0.123637,0.178406,0.000000,0.129060,0.000000,114.000000,114.000000,0.000000,17.000000,0.000000,0.000000,0.000000,0.000000,0.000000,0.123637,0.178406,0.000000,0.129060,0.000000,114.000000,114.000000,0.000000,17.000000,0.000000,0.000000,0.000000,0.000000,0.000000;
#CREDIT:;
#NOTES:
0000
0000
0000
0000
,
0000
0000
0000
0000
,
0001
0000
0000
0000
,
0001
0000
0010
0000
,
0001
0000
0000
0000
,
1000
0000
0100
0000
,
1000
0000
0000
0000
,
0010
0000
1000
0000
,
0010
0000
0000
0000
,
0100
0000
0001
0000
,
0200
0000
0000
0000
,
0000
0000
0300
0000
,
0002
0000
0000
0000
,
0000
0000
0003
0000
,
0020
0000
0000
0000
,
0000
0000
0030
0000
,
2000
0000
0000
0000
,
0000
0000
3000
0000
,
0001
0000
0100
0000
,
0001
0000
0010
0000
,
0100
0000
0000
0000
,
0010
0000
0001
0000
,
1000
0000
0010
0000
,
0100
0000
0010
0000
,
1000
0000
0000
0000
,
1000
0000
0000
0000
,
0100
0000
0001
0000
,
0002
0000
0003
0000
,
0010
0000
1000
0000
,
2000
0000
3000
0000
,
0100
0000
0010
0000
,
0020
0000
0030
0000
,
0001
0000
0100
0000
,
0200
0000
0300
0000
,
0020
0000
0000
0000
,
0030
0000
1000
0000
,
2000
0000
0000
0000
,
3000
0000
0001
0000
,
0002
0000
0000
0000
,
0003
0000
0100
0000
,
0200
0000
0000
0000
,
0000
0000
0300
0000
,
0010
0000
0000
0000
,
0100
0000
0000
0000
,
0001
0000
0100
0000
,
0010
0000
0000
0000
,
1000
0000
0100
0000
,
0010
0000
0100
0000
,
1000
0000
0010
0000
,
0100
0000
0001
0000
,
0010
0000
0000
0000
,
0001
0000
0010
0000
,
1000
0000
0000
0000
,
1000
0000
0010
0000
,
0001
0000
0000
0000
,
0001
0000
0100
0000
,
1000
0000
0000
0000
,
1000
0000
0100
0000
,
0001
0000
0000
0000
,
0010
0000
0100
0000
,
0020
0000
0000
0000
,
0000
0000
0030
0000
,
1000
0000
0000
0000
,
0100
0000
0010
0000
,
0200
0000
0000
0000
,
0000
0000
0300
0000
,
0010
0000
0000
0000
,
0001
0000
1000
0000
,
0002
0000
0000
0000
,
0000
0000
0003
0000
,
0100
0000
0000
0000
,
1000
0000
0001
0000
,
2000
0000
0000
0000
,
3000
0000
0000
0000
,
0010
0000
1000
0000
,
0010
0000
0100
0000
,
0010
0000
0000
0000
,
0001
0000
0000
0000
,
0100
0000
0001
0000
,
0100
0000
0010
0000
,
0100
0000
0000
0000
,
1000
0000
0000
0000
,
0010
0000
1000
0000
,
0010
0000
0100
0000
,
0001
0000
0000
0000
,
1000
0000
0000
0000
,
1000
0000
0001
0000
,
0010
0000
0100
0000
,
1000
0000
0000
0000
,
0001
0000
0000
0000
,
2000
0000
0000
0000
,
0000
0000
0000
0000
,
0000
0000
0000
0000
,
0000
0000
0000
0000
,
3000
0000
0000
0000
;

//---------------dance-single - ----------------
#NOTEDATA:;
#CHARTNAME:;
#STEPSTYPE:dance-single;
#DESCRIPTION:;
#CHARTSTYLE:;
#DIFFICULTY:Easy;
#METER:7;
#RADARVALUES:0.271134,0.341629,0.030367,0.258119,0.000000,250.000000,246.000000,4.000000,34.000000,0.000000,0.000000,0.000000,0.000000,0.000000,0.271134,0.341629,0.030367,0.258119,0.000000,250.000000,246.000000,4.000000,34.000000,0.000000,0.000000,0.000000,0.000000,0.000000;
#CREDIT:;
#NOTES:
0000
0000
0000
0000
,
0000
0000
0000
0000
,
1000
0000
0000
0000
,
1000
0000
0100
1000
,
0010
0000
0000
0000
,
0010
0000
0010
0100
,
0001
0000
0000
0000
,
0001
0000
0001
0010
,
0100
0000
0000
0000
,
0100
0000
0100
0010
,
0002
0000
0000
0000
,
0010
0000
0100
0000
,
2003
0000
0000
0000
,
0001
0000
0100
0000
,
3020
0000
0000
0000
,
1000
0000
0001
0000
,
0230
0000
0000
0000
,
0010
0000
0001
0301
,
1000
0010
0100
0001
,
0100
0010
1000
1000
,
0001
0010
0100
1000
,
0100
0010
0001
0001
,
0100
0001
0100
0010
,
1000
0001
0100
0100
,
0010
1000
0001
0100
,
0010
1000
0010
0010
,
0100
0000
0000
1000
0000
0000
2200
0000
,
0000
0000
0000
3300
,
0010
0000
0000
0001
0000
0000
0022
0000
,
0000
0000
0000
0033
,
0100
0000
0000
0001
0000
0000
0202
0000
,
0000
0000
0000
0303
,
0010
0000
0000
1000
0000
1000
0000
0001
,
0000
0001
0000
0010
0000
0100
0000
0010
,
0000
0010
0001
0100
,
0010
1000
0100
1000
,
0002
0000
0000
0000
,
0013
0000
0010
0001
,
2000
0000
0000
0000
,
3100
0000
0100
1000
,
0002
0000
0000
0000
,
1000
0000
0103
0000
,
0010
0000
0100
0000
,
0010
0010
0010
0000
,
0100
0000
0010
0000
,
1000
1000
1000
0000
,
0100
1000
0100
1000
,
0001
0100
0001
0100
,
0010
1000
0010
1000
,
0001
0010
0001
0010
,
0200
0000
0001
0000
,
1000
0000
0010
0301
,
0020
0000
0001
0000
,
1000
0000
0100
0130
,
0000
0010
0000
0010
0000
0000
0000
0000
,
1000
1000
0001
0001
,
0100
0100
0010
0010
,
0100
0100
0010
0010
,
1000
0100
2000
0000
,
0010
0010
0100
0010
,
0002
0000
0000
0000
,
0000
0000
0000
3003
,
0002
0000
0100
0000
,
0010
0010
1000
0100
,
2000
0000
0000
0000
,
0000
0000
0000
3003
,
0020
0000
0100
0000
,
0001
0001
1000
0000
,
0200
0000
0000
0000
,
0000
0000
0000
0330
,
0200
0000
0010
0000
,
1000
1000
0001
0001
,
0020
0000
0000
0000
,
0330
0000
0000
0000
,
0001
0100
0010
1000
,
0100
0010
0100
1000
,
0200
0000
1000
0000
,
0010
0000
0310
0000
,
0100
1000
0010
0100
,
0001
0100
0010
1000
,
0020
0000
1000
0000
,
0001
0000
1030
0000
,
1000
0001
0010
0001
,
0100
0010
1000
0100
,
2000
0000
0001
0000
,
0100
0000
0010
0000
,
3010
1000
0010
0100
,
0001
1000
0100
0010
,
0002
0000
0000
1000
0000
1000
0000
2000
,
0000
0000
0000
3003
,
2000
0000
3100
0000
,
0002
0000
0013
0000
,
1000
0010
0100
0001
,
0010
0100
1000
0100
,
2000
0000
3010
0000
,
0002
0000
0013
0000
,
0100
0010
0001
0100
,
1000
0010
0100
0000
,
0220
0000
0000
0000
,
0000
0000
0000
0000
,
0330
0000
0000
0000
;

//---------------dance-single - ----------------
#NOTEDATA:;
#CHARTNAME:;
#STEPSTYPE:dance-single;
#DESCRIPTION:;
#CHARTSTYLE:;
#DIFFICULTY:Medium;
#METER:11;
#RADARVALUES:0.456589,0.569381,0.212569,0.220161,0.000000,421.000000,393.000000,28.000000,29.000000,0.000000,0.000000,0.000000,0.000000,0.000000,0.456589,0.569381,0.212569,0.220161,0.000000,421.000000,393.000000,28.000000,29.000000,0.000000,0.000000,0.000000,0.000000,0.000000;
#CREDIT:;
#NOTES:
0000
0000
0000
0000
,
0000
0000
0000
0000
,
1000
0000
0000
0100
1000
0100
0000
0010
,
0000
0000
0000
0000
0001
0100
0010
0100
,
0001
0000
0000
1000
0010
1000
0000
0001
,
0000
0000
0010
0000
0010
0000
0001
1000
,
0100
0000
0000
1000
0100
0010
0100
1000
,
0010
0000
0000
1000
1000
0000
0001
0010
,
0001
0000
0000
0100
0100
0000
0000
0001
,
0001
0000
0010
0010
0100
0000
0110
0000
,
1002
0000
0010
0000
,
0103
0000
0100
0000
0010
0010
0000
1000
,
2000
0000
0001
0000
,
0100
0000
0000
0000
3010
1000
0001
0100
,
0020
0000
1000
0000
,
0001
0000
0100
0100
,
0230
0000
0010
0000
,
1000
0000
0001
0301
,
1000
0100
0010
0100
0010
0001
0010
0100
,
0000
0100
1000
0000
0010
1000
0001
0000
,
0100
0010
1000
0010
1000
0010
0100
0001
,
0000
0001
0010
0000
0011
0000
1100
0000
,
0100
0000
1000
0010
0000
0010
1000
0010
,
0100
0001
0010
0100
,
0220
0000
0000
0000
,
0000
0330
0110
1001
,
0100
1000
0100
1000
0000
0010
0020
0000
,
0000
0000
0000
0030
,
0100
0001
0100
0001
0000
1000
2000
0000
,
0000
0000
0000
3000
,
0001
0010
0001
0010
0000
0100
0200
0000
,
0000
0000
0000
0300
,
0010
0100
0000
0010
0000
0001
0000
0100
,
0000
1010
0000
1000
0000
0011
0000
1001
,
0000
0000
0001
0010
0000
0001
0100
0010
,
0000
1000
0100
1000
0001
0010
0100
2000
,
0000
0000
0010
0000
,
0100
0000
0000
0000
3001
1000
0010
0100
,
0002
0000
1000
0000
,
0100
0000
0013
0010
,
0210
0000
0010
0000
,
0010
0000
0001
0301
,
0011
0000
0000
0010
0000
0001
0000
0010
,
0000
0000
0000
0100
0000
1000
0000
0100
,
0000
0000
0000
1000
0000
0010
0000
1000
,
0000
0010
1000
0010
1000
0010
0100
0001
,
0010
0001
0100
0000
0010
1000
0100
0000
,
1000
0010
0100
0000
0001
0010
0100
0000
,
0010
0001
1000
0000
0100
1000
0001
0000
,
1000
0001
0100
0010
0000
0110
0000
0000
,
0100
0010
0100
0001
0100
0000
0010
1000
,
0010
0000
1000
0001
0010
0001
0100
0010
,
1000
0000
0000
0100
0010
0100
0010
0001
,
0000
1000
0000
0011
0000
1100
0000
0000
,
0000
0110
0000
2002
0000
0000
3003
0000
,
1000
0100
1000
0100
0001
0100
0001
0100
,
1000
0010
1000
0000
0001
0010
0001
0000
,
1000
0100
1000
0001
0100
0001
1000
0010
,
0000
0000
0010
0010
1000
0000
0000
0100
,
0000
0001
0000
1100
0000
0010
0000
0022
,
0000
0000
0000
0000
,
0000
0000
0000
0000
,
0033
0000
1000
1000
0010
0000
0000
1000
,
0000
0001
0000
0101
0000
0001
0000
2200
,
0000
0000
0000
0000
,
0000
0000
0000
0000
,
3300
0000
0100
0100
1000
0000
1000
0001
,
0000
0010
0000
0100
0000
1000
0000
2002
,
0000
0000
0000
0000
,
0000
0000
0000
0000
,
3003
0000
0001
0100
0001
0000
1000
0010
,
0100
0001
0000
0110
0000
0010
0000
2002
,
0000
0000
0000
3003
,
0000
0100
0000
0010
0000
0010
0000
0010
,
1000
0000
0100
1000
0010
0000
0100
0001
,
0010
0000
0100
1000
0001
0200
0000
0010
,
0000
1000
0000
0001
0000
0010
0000
0310
,
0000
0100
0000
0100
0000
0100
0000
0100
,
0001
0000
1000
0100
0010
0000
0001
0100
,
0010
0000
1000
0001
0010
0020
0000
0000
,
0100
0100
0000
1000
0000
0001
0000
1030
,
0000
0001
0000
0001
0000
0001
0000
0001
,
0100
0000
0010
1000
0001
0000
0010
0001
,
1000
0000
0100
1000
0001
2000
0000
0010
,
0000
0100
0000
0001
0000
0100
0000
3010
,
0000
0100
1000
1000
0000
1000
0000
1000
,
0010
0000
0100
0001
1000
0000
0100
1000
,
0001
0000
0010
0100
1000
1000
0001
0000
,
0100
0010
0000
1001
0000
0110
0000
2002
,
0000
0000
0000
3003
,
0100
0000
0000
0010
0000
0000
0010
0000
,
0000
0010
0100
0000
0100
0010
0000
0000
,
1000
0100
0000
1000
0000
0001
0000
0010
,
0000
0001
0000
1000
0000
1000
0000
0000
,
0010
0000
0010
0100
0000
0000
0100
0000
,
0000
0001
0000
0000
0100
0000
0000
0000
,
0100
0000
0100
0001
0000
0001
0010
1000
,
0000
1000
0010
0001
0100
0010
1000
0000
,
2002
0000
0000
0000
,
0000
0000
0000
0000
,
3003
0000
0000
0000
;

//---------------dance-single - ----------------
#NOTEDATA:;
#CHARTNAME:;
#STEPSTYPE:dance-single;
#DESCRIPTION:;
#CHARTSTYLE:;
#DIFFICULTY:Hard;
#METER:13;
#RADARVALUES:0.572635,0.645298,0.204977,0.197385,0.000000,528.000000,501.000000,27.000000,26.000000,0.000000,0.000000,0.000000,0.000000,0.000000,0.572635,0.645298,0.204977,0.197385,0.000000,528.000000,501.000000,27.000000,26.000000,0.000000,0.000000,0.000000,0.000000,0.000000;
#CREDIT:;
#NOTES:
// measure 0
0000
0000
0000
0000
,  // measure 1
0000
0000
0000
0000
,  // measure 2
1000
0000
0000
1000
0100
1000
0010
1000
,  // measure 3
0001
0000
0000
0001
0010
0001
1000
0001
,  // measure 4
0100
0000
0000
0100
1000
0100
0001
0100
,  // measure 5
0010
0000
0000
0010
1000
0010
0001
0010
,  // measure 6
1000
0000
0000
1000
0001
1000
0010
1000
,  // measure 7
0100
0000
0000
0100
1000
0100
0001
0100
,  // measure 8
0010
0000
0000
0010
1000
0010
0100
0010
,  // measure 9
0001
0000
0001
0000
0100
0010
1000
0000
,  // measure 10
0012
1000
0100
0000
,  // measure 11
0100
0000
0103
0000
1000
0001
0000
0010
,  // measure 12
2100
0010
0001
0000
,  // measure 13
0001
0000
3001
0000
0010
0001
1000
0100
,  // measure 14
0020
1000
1000
0000
,  // measure 15
0100
0000
0130
0000
0001
1000
0000
0010
,  // measure 16
0200
1000
1000
0000
,  // measure 17
0010
0000
0301
0001
,  // measure 18
0010
0001
0010
0001
0100
0010
0100
0010
,  // measure 19
1000
0100
1000
0100
0010
0001
1000
0000
,  // measure 20
0010
1000
0010
1000
0010
0100
0010
0100
,  // measure 21
0001
0100
0001
0010
0100
1000
0001
0000
,  // measure 22
0100
0001
0100
0010
1000
0100
1000
0010
,  // measure 23
0100
0001
0010
0100
0010
0001
1000
0000
,  // measure 24
0010
1000
0010
0100
0001
1000
0100
0010
,  // measure 25
0100
1000
0001
0010
0100
1000
0001
0000
,  // measure 26
1000
1000
0001
0010
0000
0100
2200
0000
,  // measure 27
0000
0000
0000
3300
,  // measure 28
0100
0100
1000
1000
0000
0001
0022
0000
,  // measure 29
0000
0000
0000
0033
,  // measure 30
0010
0010
0001
0001
0000
1000
2020
0000
,  // measure 31
0000
0000
0000
3030
,  // measure 32
0010
0010
1000
0001
0000
0010
0000
0011
,  // measure 33
0000
1000
1000
0010
0000
0100
0000
0110
,  // measure 34
0100
0000
0100
0001
0010
0100
0010
0001
,  // measure 35
0000
0100
0010
1000
0100
0010
0100
1000
,  // measure 36
0002
0000
1000
0000
1000
0000
0000
0100
,  // measure 37
0000
0100
0000
0103
0001
0100
0010
0010
,  // measure 38
2000
0000
0001
0000
0001
0000
0000
0010
,  // measure 39
0000
0010
0000
3010
0100
0010
0100
0000
,  // measure 40
0200
0000
0010
0000
0010
0000
0000
1000
,  // measure 41
0000
0001
0000
0001
0300
0000
0001
0000
,  // measure 42
1001
0000
0000
0100
0000
0001
0000
0001
,  // measure 43
0000
0000
0000
0010
0000
1000
0000
1000
,  // measure 44
0000
0000
0000
0010
0000
0001
0000
0001
,  // measure 45
0000
0001
0010
0001
0100
0010
0100
0010
,  // measure 46
1000
0100
1000
0100
0010
0001
0010
0001
,  // measure 47
1000
0010
1000
0010
0100
0001
0100
0001
,  // measure 48
0100
0010
0100
0001
0010
0001
0100
0010
,  // measure 49
1000
0100
0010
0100
1000
0010
0100
0000
,  // measure 50
1001
0000
0010
0001
0010
0000
0100
1000
,  // measure 51
0100
0000
1000
0010
0100
0001
0010
0100
,  // measure 52
1000
0000
0100
0010
0001
1000
0000
0001
,  // measure 53
0000
0011
0000
0100
0000
1001
0000
0000
,  // measure 54
0000
1000
0100
2000
0000
0000
0000
0000
,  // measure 55
3010
1000
0010
1000
0001
0100
0001
0100
,  // measure 56
0010
1000
0100
0000
0010
0001
0100
0000
,  // measure 57
0010
1000
0001
0000
0010
0001
1000
0000
,  // measure 58
1001
0000
0010
0001
0100
0000
0100
0010
,  // measure 59
0000
0010
1000
0100
0000
0010
0000
0002
,  // measure 60
0000
0000
1000
0000
0100
0000
0010
0010
,  // measure 61
0000
1000
0000
0010
0000
0100
0000
1003
,  // measure 62
0000
0000
0001
1000
0100
0000
1000
0010
,  // measure 63
0100
0000
0001
0100
0010
1000
0000
2000
,  // measure 64
0000
0000
0010
0000
0100
0000
0001
0001
,  // measure 65
0000
0010
0000
0100
0000
3010
0000
0000
,  // measure 66
1000
0000
0010
0100
0001
0000
0100
0010
,  // measure 67
1000
0000
0100
0010
0001
1000
0100
0020
,  // measure 68
0000
0000
0001
0000
1000
0000
0100
0100
,  // measure 69
0000
1000
0000
0100
0000
0031
0000
0000
,  // measure 70
1001
0000
1000
0100
0001
0000
1000
0010
,  // measure 71
0001
0000
1000
0010
0100
0001
0000
2002
,  // measure 72
0000
0000
0000
0000
,  // measure 73
3003
0100
0000
0010
0000
1100
0000
0102
,  // measure 74
0000
0000
0100
0100
0000
0010
0010
0013
,  // measure 75
0000
0000
0001
0010
0001
0100
0010
1000
,  // measure 76
0000
1001
0000
0100
0000
0011
0000
0010
,  // measure 77
0000
0100
1000
0010
0000
0100
0001
1000
,  // measure 78
2000
0000
0001
0001
0000
0010
0010
3010
,  // measure 79
0000
0000
0100
1000
0001
1000
0010
0000
,  // measure 80
1000
0010
0100
0001
0000
1100
0000
0101
,  // measure 81
0000
0100
0010
0100
0000
0001
0000
0120
,  // measure 82
0000
0000
0001
0001
0000
0100
0100
0130
,  // measure 83
0000
0000
0010
1000
0010
0100
0001
0010
,  // measure 84
0000
1010
0000
0100
0000
1001
0000
0010
,  // measure 85
0000
1000
0100
0010
0000
0100
0010
0200
,  // measure 86
0000
0000
0001
0001
0000
1000
0000
0010
,  // measure 87
0000
0000
0310
0100
0010
0100
0010
0000
,  // measure 88
0100
0110
0000
1100
0000
0101
0000
2002
,  // measure 89
0000
0000
0000
3003
,  // measure 90
1000
0000
1000
0100
0000
0100
1000
0010
,  // measure 91
0000
0010
1000
0010
0100
0001
0010
0000
,  // measure 92
0010
0001
0000
0001
0000
0010
0001
0010
,  // measure 93
0000
0001
0010
0001
0100
0010
0100
0000
,  // measure 94
0001
0000
0001
0100
0000
0100
0001
0010
,  // measure 95
0000
0010
0001
0010
0100
1000
0010
0000
,  // measure 96
0010
1000
0001
1000
0000
0010
1000
0010
,  // measure 97
0000
1000
0001
0010
0100
1000
0010
0000
,  // measure 98
0200
0000
0000
0000
,  // measure 99
0000
0000
0000
0000
,  // measure 100
0300
0000
0000
0000
;
