#VERSION:0.83;
#TITLE:RHYTHM & POLICE (HYPER K MIX);
#SUBTITLE:;
#ARTIST:CJ Crew feat. Christian D;
#TITLETRANSLIT:;
#SUBTITLETRANSLIT:;
#ARTISTTRANSLIT:;
#GENRE:;
#ORIGIN:;
#TAGS:;
#CREDIT:;
#BANNER:RHYTHM AND POLICE (Hyper K Mix).png;
#BACKGROUND:RHYTHM AND POLICE (Hyper K Mix)-bg.png;
#PREVIEWVID:;
#JACKET:RHYTHM AND POLICE (Hyper K Mix)-jacket.png;
#CDIMAGE:;
#DISCIMAGE:;
#LYRICSPATH:;
#CDTITLE:;
#MUSIC:RHYTHM & POLICE (HYPER K MIX).ogg;
#OFFSET:0.000000;
#SAMPLESTART:13.923000;
#SAMPLELENGTH:15.000000;
#SELECTABLE:YES;
#BPMS:0.000000=155.000000
;
#STOPS:;
#DELAYS:;
#WARPS:;
#TIMESIGNATURES:0.000000=4=4
;
#TICKCOUNTS:0.000000=4
;
#COMBOS:0.000000=1
;
#SPEEDS:0.000000=1.000000=0.000000=0
;
#SCROLLS:0.000000=1.000000
;
#LABELS:0.000000=Song Start
;
#BGCHANGES:;
#KEYSOUNDS:;
#ATTACKS:
;

//---------------dance-single - ----------------
#NOTEDATA:;
#CHARTNAME:;
#CHARTHASH:688813261;
#STEPSTYPE:dance-single;
#BANNER:;
#DESCRIPTION:;
#CHARTSTYLE:;
#DIFFICULTY:Beginner;
#METER:4;
#METERF:0.000000;
#LASTSECONDHINT:75.870972;
#RADARVALUES:0.145591,0.246606,0.176147,0.000000,0.000000,81.000000,67.000000,14.000000,0.000000,0.000000,0.000000,0.000000,0.000000,0.000000,0.145591,0.246606,0.176147,0.000000,0.000000,81.000000,67.000000,14.000000,0.000000,0.000000,0.000000,0.000000,0.000000,0.000000;
#CREDIT:;
#NOTES:
0000
0000
0000
0000
,
0000
0000
0000
0000
,
0000
0000
0000
0000
,
0000
0000
0000
0000
,
0000
0000
0000
0000
,
1000
0000
0000
0000
,
0100
0000
0000
0000
,
0010
0000
0000
0000
,
0001
0000
0000
0000
,
1001
0000
0000
0000
,
1000
0000
0000
0000
,
1001
0000
0000
0000
,
0001
0000
0000
0000
,
0110
0000
0000
0000
,
0010
0000
0000
0000
,
0110
0000
0000
0000
,
0100
0100
0100
0000
,
0001
0000
0001
0000
,
0001
0000
0001
0000
,
0001
0000
0001
0000
,
0001
0000
0000
0000
,
1000
0000
1000
0000
,
1000
0000
1000
0000
,
1000
0000
1000
0000
,
1000
0000
0000
0000
,
1001
0000
0000
0000
,
1001
0000
0000
0000
,
0110
0000
0000
0000
,
0110
0000
0000
0000
,
1001
0000
0110
0000
,
1001
0000
0000
0000
,
0110
0000
1001
0000
,
0110
0000
0000
0000
,
0010
0000
0100
0000
,
0010
0000
0000
0000
,
0100
0000
0010
0000
,
0100
0000
0000
0000
,
0001
0000
1000
0000
,
0001
0000
0000
0000
,
1000
0000
0001
0000
,
1000
0000
0000
0000
,
0001
0001
0000
0000
,
0010
0010
0000
0000
,
0100
0100
0000
0000
,
1000
1000
0000
0000
,
1000
1000
0000
0000
,
0100
0100
0000
0000
,
0010
0010
0000
0000
,
0001
0000
0001
0000
,
1000
0000
0000
0000
;

//---------------dance-single - ----------------
#NOTEDATA:;
#CHARTNAME:;
#CHARTHASH:3816404467;
#STEPSTYPE:dance-single;
#BANNER:;
#DESCRIPTION:;
#CHARTSTYLE:;
#DIFFICULTY:Easy;
#METER:7;
#METERF:0.000000;
#LASTSECONDHINT:75.870972;
#RADARVALUES:0.296574,0.308258,0.213893,0.000000,0.000000,165.000000,148.000000,17.000000,0.000000,0.000000,0.000000,0.000000,0.000000,0.000000,0.296574,0.308258,0.213893,0.000000,0.000000,165.000000,148.000000,17.000000,0.000000,0.000000,0.000000,0.000000,0.000000,0.000000;
#CREDIT:;
#NOTES:
0000
0000
0000
0000
,
0000
0000
0000
0000
,
0000
0000
0000
0000
,
0000
0000
0000
0000
,
0000
0000
0000
0000
,
0010
0000
0010
0000
0100
0001
0000
0000
,
0000
0001
0000
0001
1000
0000
0001
0000
,
0000
1000
0000
0000
0001
0000
0100
0000
,
0010
0000
0000
0100
0000
0010
0000
0000
,
0100
0100
0100
0100
,
0001
0001
0001
0001
,
1000
1000
1000
1000
,
0010
0010
0010
0010
,
1000
1000
1000
1000
,
0001
0001
0001
0001
,
0010
0010
0010
0010
,
0100
0000
0100
0000
0100
0100
0000
0000
,
0010
0001
0010
0001
,
0100
0001
0100
0001
,
1000
0100
1000
0100
,
1000
1000
0001
0000
,
1000
0010
1000
0010
,
0100
0001
0100
0001
,
0100
0010
0100
0010
,
1000
1000
0001
0001
,
1001
0000
0000
0000
,
0110
0000
0000
0000
,
1010
0000
0000
0000
,
0101
0000
0000
0000
,
0110
0000
0000
0110
0000
0110
0000
0000
,
1001
0000
0000
0000
,
1001
0000
0000
1001
0000
1001
0000
0000
,
0110
0000
0000
0000
,
0011
0010
1000
0100
,
0010
0010
0010
0000
,
1100
0010
0001
0010
,
0100
0100
0100
0000
,
0101
0010
1000
0001
,
0100
0100
0100
0000
,
1010
1000
0001
1000
,
0010
0010
0010
0000
,
1000
0000
0100
0000
1000
0100
0000
0000
,
0000
0010
0000
0000
0001
0010
0001
0000
,
0010
0000
0010
0000
0001
0010
0000
0000
,
0001
0000
0001
0000
0001
0100
0000
0000
,
0010
0000
1000
0000
0001
0010
0000
0000
,
0000
0100
0000
0000
0010
0001
0010
0000
,
0000
0001
0000
0000
1000
0000
0100
0000
,
1000
0000
0000
0001
0000
0000
0100
0000
,
0110
0000
0000
0000
;

//---------------dance-single - ----------------
#NOTEDATA:;
#CHARTNAME:;
#CHARTHASH:1561440801;
#STEPSTYPE:dance-single;
#BANNER:;
#DESCRIPTION:;
#CHARTSTYLE:;
#DIFFICULTY:Medium;
#METER:10;
#METERF:0.000000;
#LASTSECONDHINT:75.870972;
#RADARVALUES:0.469127,0.524038,0.327130,0.000000,0.094365,261.000000,235.000000,26.000000,0.000000,0.000000,0.000000,0.000000,0.000000,0.000000,0.469127,0.524038,0.327130,0.000000,0.094365,261.000000,235.000000,26.000000,0.000000,0.000000,0.000000,0.000000,0.000000,0.000000;
#CREDIT:;
#NOTES:
0000
0000
0000
0000
,
0000
0000
0000
0000
,
0000
0000
0000
0000
,
0000
0000
0000
0000
,
0000
0000
0000
0000
,
0001
1000
0100
0000
0100
0010
0000
0000
,
0010
0001
0000
0001
1000
1000
0001
0000
,
0001
0000
1000
0000
0000
1000
0000
0000
0010
0000
0000
0100
0000
0000
0010
0000
,
0100
0100
0000
0110
0000
1001
0000
0001
,
1000
0100
1000
0100
1000
0100
1000
0000
,
0100
0010
0100
0010
0100
0010
0100
0000
,
0010
0001
0010
0001
0010
0001
0010
0000
,
0001
1000
0001
1000
0001
1000
0001
0000
,
1000
0010
1000
0010
0100
0010
0100
0000
,
0001
0100
0001
0100
0001
0010
0001
0000
,
0010
0100
0010
0100
1000
0001
1000
0000
,
0001
0000
0001
0000
0001
0000
0000
1000
0000
0000
1001
0000
0000
0000
0000
0000
,
0100
1000
0100
1000
0100
1000
0010
1000
,
0001
0100
0001
0100
0001
0100
0001
0010
,
0001
1000
0001
1000
0001
1000
0001
1000
,
0010
0000
0000
0010
0000
0000
0010
0000
0100
0000
0000
0000
0001
0000
0000
0000
,
0100
0010
0100
0010
0100
0010
1000
0001
,
0010
0001
0010
0001
0010
0001
1000
0010
,
0100
0010
0100
0010
0100
0010
0100
0001
,
1000
0000
0000
1000
0000
0000
1000
0000
0001
0000
0000
0000
0010
0000
0000
0000
,
0110
0000
0000
0000
,
1001
0000
0000
0000
,
1001
0000
0000
0000
,
0110
0000
0000
0000
,
1001
0000
0000
0101
0000
1010
0000
1000
,
0001
0000
0000
0000
,
1001
0000
0000
0101
0000
1100
0000
0010
,
0001
0000
0000
0000
,
0110
0000
0000
0101
0000
1010
0000
0001
,
1000
0000
0000
1000
0100
0000
0000
0100
0010
0000
0001
0000
1000
0000
0000
0000
,
0110
0000
0000
0101
0000
1010
0000
0001
,
1000
0000
0000
1000
0001
0000
0000
0001
0100
0000
0100
0000
0010
0000
0000
0000
,
0110
0000
0000
1010
0000
0101
0000
1000
,
0001
0000
0000
0001
0100
0000
0000
0100
0001
0000
1000
0000
0001
0000
0000
0000
,
0110
0000
0000
0011
0000
1010
0000
0100
,
0001
0000
0000
0010
0001
0000
0000
1000
0010
0000
0100
0000
0001
0000
0000
0000
,
1000
0001
1000
0000
0100
0100
0000
0000
,
0010
0001
0000
0001
0100
0100
0010
0000
,
1000
0001
0010
0000
0100
0100
0000
0000
,
0010
0001
0010
0000
0100
0100
0000
0000
,
1000
1000
1000
0000
0001
0100
0000
0000
,
0010
1000
0000
1000
0100
0010
0001
0000
,
0000
0000
0001
0000
0000
0100
0000
0000
1000
0000
0000
0010
0000
0000
0001
0000
,
1000
1000
0000
0001
0000
0100
0000
0010
,
1001
0000
0000
0000
;

//---------------dance-single - ----------------
#NOTEDATA:;
#CHARTNAME:;
#CHARTHASH:4069368794;
#STEPSTYPE:dance-single;
#BANNER:;
#DESCRIPTION:;
#CHARTSTYLE:;
#DIFFICULTY:Hard;
#METER:13;
#METERF:0.000000;
#LASTSECONDHINT:75.870972;
#RADARVALUES:0.695602,0.708992,0.452950,0.000000,0.484405,387.000000,351.000000,36.000000,0.000000,0.000000,0.000000,0.000000,0.000000,0.000000,0.695602,0.708992,0.452950,0.000000,0.484405,387.000000,351.000000,36.000000,0.000000,0.000000,0.000000,0.000000,0.000000,0.000000;
#CREDIT:;
#NOTES:
// measure 0
0000
0000
0000
0000
,  // measure 1
0000
0000
0000
0000
,  // measure 2
0000
0000
0000
0000
,  // measure 3
0000
0000
0000
0000
,  // measure 4
0000
0000
0000
0000
,  // measure 5
0001
1000
0001
0000
0100
0010
0000
0000
1000
0100
1000
0100
0000
0000
0000
0000
,  // measure 6
0010
0000
0001
1000
0000
1000
0000
0010
0100
0010
0100
0000
0001
0000
1000
0000
,  // measure 7
0100
0000
0100
0000
0010
0100
0000
1000
0010
0100
0000
0001
0000
1000
0010
0000
,  // measure 8
1000
1000
0000
0101
0000
1100
0000
0110
,  // measure 9
0001
0010
0001
0010
0001
0010
0001
0100
,  // measure 10
0010
1000
0010
1000
0010
1000
0001
1000
,  // measure 11
0100
0010
0100
0010
0100
0010
0100
1000
,  // measure 12
0001
0100
0001
0100
0001
1000
0100
0100
,  // measure 13
1000
0010
1000
0010
1000
0010
1000
0001
,  // measure 14
0100
0001
0100
0001
0100
0001
0010
0100
,  // measure 15
1000
0010
1000
0010
0100
0001
0100
0001
,  // measure 16
1000
0000
1000
0000
1001
0000
0001
0010
0000
0010
1000
0000
0000
0000
0000
0000
,  // measure 17
0010
0100
0001
0100
0010
0100
0001
0100
,  // measure 18
0010
1000
0100
1000
0010
1000
0100
1000
,  // measure 19
0001
0100
0010
0100
0001
0100
0010
0100
,  // measure 20
0001
0000
0000
0001
0000
0000
1000
0000
0100
0000
0010
0000
0001
0000
0000
0000
,  // measure 21
1000
0100
0010
0100
1000
0100
0010
0100
,  // measure 22
1000
0001
0100
0001
1000
0001
0100
0010
,  // measure 23
1000
0010
0100
0010
1000
0010
0100
0001
,  // measure 24
0010
0000
0000
0010
0000
0000
0100
0000
0010
0000
0001
0000
1000
0000
0000
0000
,  // measure 25
1001
0000
0001
1000
0100
0010
0001
0000
0000
1000
0010
0100
,  // measure 26
0001
0000
1000
0001
0010
0100
1000
0000
0000
1000
0100
0010
,  // measure 27
0001
0000
1000
0001
0100
0010
1000
0000
0000
0001
1000
0100
,  // measure 28
0010
0000
0010
0001
0010
0100
1000
0000
1000
0001
0000
0000
,  // measure 29
0110
0000
0100
0011
0000
1100
0000
0011
,  // measure 30
1001
0001
0001
0001
,  // measure 31
0110
0000
0100
0101
0000
1010
0000
0101
,  // measure 32
1001
1000
1000
1000
,  // measure 33
1010
1000
0001
0011
0100
1000
0110
0000
,  // measure 34
1001
0000
0100
1000
0010
0000
0010
1000
0100
0000
0100
1000
0010
0000
0000
0000
,  // measure 35
0101
0001
1000
1100
0010
0100
1001
0000
,  // measure 36
0110
0000
0100
0001
0010
0000
0010
0001
0100
0000
0100
0001
0010
0000
0000
0000
,  // measure 37
0101
0001
1000
1010
0001
0010
0110
0000
,  // measure 38
1001
0000
0010
0001
0100
0000
0010
1000
0100
0000
0010
0001
1000
0000
0000
0000
,  // measure 39
0110
0100
0001
0011
0100
1000
0101
0000
,  // measure 40
1001
0000
1000
0010
0100
0000
0010
1000
0100
0000
0010
0100
1000
0000
0000
0000
,  // measure 41
0001
0010
0001
0000
1000
0010
0000
0000
0100
0001
0100
0001
0000
0000
0000
0000
,  // measure 42
1000
0000
0001
0100
0000
0100
0000
0010
1000
0010
1000
0000
0001
0000
0010
0000
,  // measure 43
0100
0010
0100
0000
1000
0010
0000
0000
0100
0001
0100
0001
0000
0000
1000
0000
,  // measure 44
0001
0100
0001
0000
1000
0100
0000
0000
0010
0001
1000
0001
0000
0000
0000
0000
,  // measure 45
1000
0010
0100
0000
0001
0100
0000
0000
0010
1000
0001
0010
0000
0000
0000
0000
,  // measure 46
0100
0000
0010
0001
0000
0001
0000
1000
0010
1000
0001
0000
0100
0000
0010
0000
,  // measure 47
1000
0000
0100
0000
1000
0001
0000
0001
1000
0010
0000
0100
0000
0100
0001
0000
,  // measure 48
0010
0110
0000
1001
0000
0110
0000
1010
,  // measure 49
0101
0000
0000
0000
;
