#TITLE:Programmed Sun;
#SUBTITLE:;
#ARTIST:kors k;
#TITLETRANSLIT:;
#SUBTITLETRANSLIT:;
#ARTISTTRANSLIT:;
#GENRE:;
#CREDIT:;
#BANNER:Programmed Sun.png;
#BACKGROUND:Programmed Sun-bg.png;
#LYRICSPATH:;
#CDTITLE:;
#MUSIC:Programmed Sun.ogg;
#OFFSET:1.297000;
#SAMPLESTART:82.018997;
#SAMPLELENGTH:15.000000;
#LASTBEATHINT:0.712800;
#SELECTABLE:YES;
#BPMS:0.000000=144.000000
;
#STOPS:
;
#BGCHANGES:;
#KEYSOUNDS:;
#ATTACKS:;

//---------------dance-single - ----------------
#NOTES:
     dance-single:
     :
     Beginner:
     4:
     0.120961,0.172453,0.023304,0.147595,0.000000,109.000000,106.000000,3.000000,19.000000,0.000000,0.000000,0.120961,0.172453,0.023304,0.147595,0.000000,109.000000,106.000000,3.000000,19.000000,0.000000,0.000000:
0000
0000
0000
0000
,
0000
0000
0000
0000
,
0000
0000
0000
0000
,
0000
0000
0000
0000
,
0000
0000
0000
0000
,
0000
0000
0000
0000
,
0100
0000
0000
0000
,
0001
0000
0000
0000
,
1000
0000
0100
0000
,
0020
0000
0030
0000
,
0001
0000
0001
0000
,
0001
0000
0000
0000
,
1000
0000
1000
0000
,
1000
0000
0000
0000
,
0010
0000
0100
0000
,
0010
0000
0000
0000
,
0100
0000
0010
0000
,
0200
0000
0000
0300
,
0000
0001
0000
0010
,
0000
0001
0000
0010
,
0000
0100
0000
1000
,
0000
0100
0000
1000
,
0000
0001
0000
0001
,
0000
1000
0000
1000
,
0000
0100
0000
0010
,
0020
0000
0030
0000
,
1001
0000
0000
0000
,
0000
0000
0000
0000
,
0000
0000
0000
0000
,
0000
0000
0000
0000
,
2000
0000
0000
0000
,
3000
0000
0000
0000
,
0002
0000
0000
0000
,
0003
0000
0000
0000
,
0010
0000
0001
0000
,
2000
0000
3000
0000
,
0100
0000
1000
0000
,
0002
0000
0003
0000
,
0100
0000
0010
0000
,
2000
0000
3000
0000
,
0010
0000
0100
0000
,
0002
0000
0003
0000
,
0020
0000
0030
0000
,
0002
0000
0003
0000
,
2000
0000
3000
0000
,
0200
0000
0300
0000
,
1000
0000
0010
0000
,
0100
0000
0001
0000
,
0100
0000
0010
0000
,
2002
0000
3003
0000
,
1000
1000
0000
0000
,
0100
0100
0000
0000
,
1000
0000
0010
0000
,
0100
0000
0001
0000
,
0010
0010
0000
0000
,
0001
0001
0000
0000
,
0100
0000
0001
0000
,
1000
0000
0100
0000
,
0010
0010
0010
0000
,
0002
0000
0003
0000
,
0100
0100
0100
0000
,
2000
0000
3000
0000
,
0010
0010
0010
0000
,
2000
0000
3000
0000
,
0001
0001
0001
0000
,
0200
0000
0300
0000
,
0010
0010
0010
0000
,
0001
0000
0000
0000
,
0100
0100
0100
0000
,
1000
0000
0000
0000
,
0001
0000
0010
0000
,
0100
0000
1000
0000
,
0100
0000
0010
0000
,
0001
0000
0000
0000
,
1001
0000
0000
0000
;

//---------------dance-single - ----------------
#NOTES:
     dance-single:
     :
     Easy:
     7:
     0.231934,0.287421,0.054377,0.186435,0.000000,209.000000,202.000000,7.000000,24.000000,0.000000,0.000000,0.231934,0.287421,0.054377,0.186435,0.000000,209.000000,202.000000,7.000000,24.000000,0.000000,0.000000:
0000
0000
0000
0000
,
0000
0000
0000
0000
,
0000
0000
0000
0000
,
0000
0000
0000
0000
,
0000
0000
0000
0000
,
0000
0000
0000
0000
,
0001
0001
0100
0000
,
0010
0010
1000
0000
,
1000
0100
0010
0001
,
2002
0000
0000
3003
,
0100
0001
0100
0010
,
0100
1000
0100
0010
,
0100
0001
0100
1000
,
0100
0010
0100
0000
,
0010
1000
0010
0001
,
0010
0100
0010
0001
,
0010
1000
0010
0100
,
0010
0010
1000
0000
,
1000
0100
0010
0010
,
0001
1000
0001
0100
,
0010
1000
0100
0100
,
0010
0001
1000
0000
,
0001
0001
0100
0000
,
1000
1000
0010
0000
,
1000
0010
0100
0001
,
2002
0000
0000
0003
,
3020
0000
0000
0000
,
0000
0000
0000
0000
,
0230
0000
0000
0000
,
0000
0000
0000
0000
,
0302
0000
0000
0000
,
0000
0000
0000
0000
,
2003
0000
0000
0000
,
3200
0000
0000
0000
,
0310
0000
0010
0000
0001
0000
0000
2000
,
0000
0000
0000
0000
,
3100
0000
0100
0000
1000
0000
0000
0002
,
0000
0000
0000
0000
,
0103
0000
0100
0000
0010
0000
0000
2000
,
0000
0000
0000
0001
,
3002
0000
0000
0000
0000
0000
0000
0203
,
0000
0000
0000
0000
,
0310
0010
0010
0010
,
1000
1000
1000
1000
,
0100
0100
0100
0100
,
0001
0001
0001
0001
,
1000
1000
0100
0100
,
0010
0010
0001
0001
,
1000
0010
0100
0001
,
2002
0000
0000
3003
,
0100
0001
0001
0100
,
0001
1000
1000
0010
,
1000
0100
0100
0010
,
0001
1000
1001
0000
,
0010
0001
0001
0010
,
0100
1000
1000
0001
,
1000
0010
0100
0001
,
0210
0000
0001
0300
,
0010
0000
0010
0000
0100
0000
0010
2000
,
0000
0000
0001
3001
,
1000
0000
1000
0000
0100
0000
0010
0002
,
0000
0000
0100
0103
,
0001
0000
0001
0000
1000
0000
0010
0200
,
0000
0000
0010
0001
,
0302
0000
0000
0000
0100
0000
0000
2003
,
0000
0000
0010
3010
,
1010
0000
0100
0000
0001
0000
0100
0020
,
0000
0000
1000
1030
,
0001
0000
0010
0000
0001
0000
1000
0200
,
0000
0000
0010
0310
,
0001
0010
1000
0010
,
0001
0100
1000
0100
,
0001
0100
0010
1000
,
0100
0010
0001
1000
,
1001
0000
0000
0000
;

//---------------dance-single - ----------------
#NOTES:
     dance-single:
     :
     Medium:
     11:
     0.377310,0.488616,0.093218,0.225276,0.073797,340.000000,328.000000,12.000000,29.000000,0.000000,0.000000,0.377310,0.488616,0.093218,0.225276,0.073797,340.000000,328.000000,12.000000,29.000000,0.000000,0.000000:
// measure 0
0000
0000
0000
0000
,  // measure 1
0000
0000
0000
0000
,  // measure 2
0000
0000
0000
0000
,  // measure 3
0000
0000
0000
0000
,  // measure 4
0000
0000
0000
0000
,  // measure 5
0000
0000
0000
0000
,  // measure 6
1000
0100
1000
0100
0000
0100
0000
0000
,  // measure 7
0001
0010
0001
0010
0000
0010
0000
0000
,  // measure 8
0001
1000
0001
1000
0000
1000
0010
0000
,  // measure 9
0200
0000
0000
0000
,  // measure 10
0310
0100
0010
0000
0010
1000
0010
0000
,  // measure 11
1000
0100
1000
0000
1000
0001
1000
0000
,  // measure 12
0100
0001
0100
0000
0100
1000
0100
0000
,  // measure 13
0001
0010
0001
0000
0001
1000
0001
0000
,  // measure 14
0010
1000
0010
0000
0010
0100
0010
0000
,  // measure 15
1000
0001
1000
0000
1000
0100
1000
0000
,  // measure 16
0001
0010
0001
0000
0001
1000
0001
1000
,  // measure 17
0100
0000
0100
0000
0100
0000
0000
0010
0000
0000
0010
0000
0110
0000
0000
0000
,  // measure 18
0100
1000
0100
0010
0100
1000
0010
0000
,  // measure 19
0100
0001
0010
0001
0100
0010
1000
0000
,  // measure 20
0010
1000
0001
0100
0001
1000
0100
0000
,  // measure 21
1000
0100
0010
0001
1000
0001
0100
0100
,  // measure 22
0010
0000
1000
0000
0010
0000
0000
1010
0000
0000
1000
0000
0001
0000
0000
0011
,  // measure 23
0000
0000
0001
0000
0100
0000
0000
1100
0000
0000
1000
0000
0100
0000
0010
0000
,  // measure 24
0001
0000
1000
0000
0001
0001
0010
0010
,  // measure 25
0200
0000
0000
0000
0000
0310
0110
0000
,  // measure 26
0002
0000
0000
0000
,  // measure 27
0023
0000
0000
0000
,  // measure 28
0230
0000
0000
0000
,  // measure 29
2300
0000
0000
0000
,  // measure 30
3002
0000
0000
0000
,  // measure 31
0203
0000
0000
0000
,  // measure 32
0320
0000
0000
0000
,  // measure 33
2030
0000
3002
0000
,  // measure 34
1003
0010
0100
0001
0000
0001
0000
2000
,  // measure 35
0000
0000
0000
0000
,  // measure 36
3001
0010
0100
1000
0000
1000
0000
0002
,  // measure 37
0000
0000
0000
0000
,  // measure 38
0103
0010
1000
0200
0000
0010
0000
0320
,  // measure 39
0000
0000
0000
0001
,  // measure 40
0032
0000
0000
0000
1000
0000
0000
2003
,  // measure 41
0000
0000
0000
0000
,  // measure 42
3010
0000
1000
0000
0100
0000
0000
0000
1000
0000
0000
1000
0000
0000
1000
0000
,  // measure 43
0100
0000
0010
0000
0001
0000
0000
0000
0010
0000
0000
0010
0000
0000
0010
0000
,  // measure 44
0001
0000
1000
0000
0010
0000
0000
0000
0100
0000
0000
0100
0000
0000
0100
0000
,  // measure 45
0010
0000
1000
0000
0001
0000
0000
0000
0001
0000
0000
0001
0000
0000
0010
0000
,  // measure 46
0100
0010
0100
0000
0010
0001
0010
0000
,  // measure 47
0001
0100
0001
0000
1000
0100
1000
0000
,  // measure 48
0010
1000
0100
0010
0001
0100
0010
0000
,  // measure 49
0220
0000
0000
0330
,  // measure 50
0100
0000
0001
0000
1000
0000
0000
1000
0000
0000
0001
0000
1000
0000
0000
0000
,  // measure 51
0010
0000
0100
0000
0010
0000
0000
0010
0000
0000
0100
0000
0001
0000
0000
0001
,  // measure 52
0000
0000
0010
0000
1000
0000
0000
1000
0000
0000
0010
0000
0001
0000
0000
0100
,  // measure 53
0000
0000
0100
0000
0010
0000
0000
0010
0000
0000
1000
0000
1001
0000
0000
0000
,  // measure 54
0010
0000
1000
0000
0001
0000
0000
0001
0000
0000
0010
0000
0100
0000
0000
0000
,  // measure 55
0100
0000
1000
0000
0001
0000
0000
0001
0000
0000
1000
0000
0010
0000
0000
0010
,  // measure 56
0000
0000
0100
0000
0001
0000
0000
0001
0000
0000
1000
0000
0100
0000
0000
0000
,  // measure 57
0110
0000
1000
0000
1000
0000
0000
0100
0000
0000
0010
0000
1001
0000
0000
0000
,  // measure 58
0010
0001
0100
0010
1000
0001
0010
0200
,  // measure 59
0000
1000
0001
1300
,  // measure 60
0100
1000
0001
0100
0010
1000
0010
0200
,  // measure 61
0000
0001
0010
0301
,  // measure 62
0010
0001
0010
0001
1000
0010
1000
0200
,  // measure 63
0000
0010
0010
0301
,  // measure 64
2100
0000
0010
0000
0100
0000
0001
0002
,  // measure 65
3000
0000
0010
0000
1000
0000
1000
0003
,  // measure 66
0010
1000
0001
0100
0001
0010
0100
2000
,  // measure 67
0010
0010
0100
3001
,  // measure 68
0100
1000
0100
1000
0010
1000
0001
0002
,  // measure 69
0010
0100
0010
1003
,  // measure 70
1000
0001
0010
0001
1000
0010
0100
0020
,  // measure 71
1000
1000
0001
1030
,  // measure 72
0012
0000
1000
0000
0100
0000
1000
1000
,  // measure 73
2003
0000
0100
0000
0010
0010
3010
0000
,  // measure 74
0110
0000
0000
0000
;

//---------------dance-single - ----------------
#NOTES:
     dance-single:
     :
     Hard:
     14:
     0.494941,0.661068,0.116522,0.295189,0.252464,446.000000,431.000000,15.000000,38.000000,0.000000,0.000000,0.494941,0.661068,0.116522,0.295189,0.252464,446.000000,431.000000,15.000000,38.000000,0.000000,0.000000:
// measure 0
0000
0000
0000
0000
,  // measure 1
0000
0000
0000
0000
,  // measure 2
0000
0000
0000
0000
,  // measure 3
0000
0000
0000
0000
,  // measure 4
0000
0000
0000
0000
,  // measure 5
0000
0000
0000
0000
,  // measure 6
1000
0100
1000
0100
0000
1000
1000
0000
,  // measure 7
0001
0100
0001
0100
0000
0001
0001
0000
,  // measure 8
0010
0001
0010
0001
1000
0100
1000
0100
,  // measure 9
2002
0000
0000
3003
,  // measure 10
0100
0001
0100
1000
0100
0010
0100
0010
,  // measure 11
1000
0001
1000
0010
1000
0100
1000
0100
,  // measure 12
0010
1000
0010
0100
0010
0001
0010
0001
,  // measure 13
0100
0001
0100
1000
0100
0010
0100
0100
,  // measure 14
0001
0010
0001
1000
0001
0100
0001
0100
,  // measure 15
0010
0100
0010
0001
0010
1000
0010
1000
,  // measure 16
0100
0001
0100
1000
0100
0010
0100
0010
,  // measure 17
0002
0000
0000
0000
0000
1003
1001
0000
,  // measure 18
0010
0000
1000
0100
1000
0000
0001
0000
0100
0000
0010
0000
0100
0000
0001
0000
,  // measure 19
1000
0000
0100
1000
0100
0000
0010
0000
0001
0000
0010
0000
0100
0000
0000
0000
,  // measure 20
1000
0000
0001
0010
0001
0000
1000
0000
0010
0000
0100
0000
0001
0000
0100
0000
,  // measure 21
0010
0000
1000
0010
1000
0000
0001
0000
0010
0000
0010
0000
0100
0000
0010
0000
,  // measure 22
0001
0000
0011
0000
0001
0000
0001
0100
0000
0000
0100
0000
1001
0000
1000
0100
,  // measure 23
0000
0000
0010
0000
1001
0000
0001
0010
0000
0000
0100
0000
1001
0000
1000
0010
,  // measure 24
0100
0000
0011
0000
1010
1000
0101
0001
,  // measure 25
2002
0000
0000
0000
0000
0000
0000
3003
,  // measure 26
0200
0000
0000
0000
,  // measure 27
0310
0000
0000
0000
,  // measure 28
0020
0000
0000
0000
,  // measure 29
1030
0000
0000
0000
,  // measure 30
2000
0000
0000
0000
,  // measure 31
3001
0000
0000
0000
,  // measure 32
0002
0000
0000
0000
,  // measure 33
0013
0000
0000
0000
,  // measure 34
0020
0230
2300
3002
0000
1000
0000
2000
,  // measure 35
0000
0000
0000
3003
,  // measure 36
0200
2300
3020
0230
0000
0001
0000
0002
,  // measure 37
0000
0000
0000
0303
,  // measure 38
0200
0302
2003
3200
0000
0010
0000
0020
,  // measure 39
0000
0000
0000
0000
0330
0000
0022
0033
,  // measure 40
2200
0000
0000
0000
0000
0000
0300
3002
,  // measure 41
0000
0010
0010
0013
,  // measure 42
0001
0000
0100
0000
0001
0100
0000
0001
0100
0000
0001
0100
0000
0001
0100
0000
,  // measure 43
0000
0000
0010
0000
0010
1000
0000
0010
1000
0000
0010
1000
0000
0010
1000
0000
,  // measure 44
1000
0000
0100
0000
1000
0100
0000
1000
0100
0000
1000
0100
0000
1000
0100
0000
,  // measure 45
0100
0000
0010
0000
0010
0001
0000
0010
0001
0000
0010
0000
0001
0000
0010
0001
,  // measure 46
1000
0001
1000
0001
0100
0001
0100
0001
,  // measure 47
1000
0010
1000
0010
0100
0001
0100
0001
,  // measure 48
0010
0001
0100
0000
0010
1000
0100
0000
1000
0010
0100
0000
0001
0010
0100
0000
,  // measure 49
2000
0000
0000
3001
,  // measure 50
0001
0100
0000
0100
0010
0000
0010
1000
0000
1000
0001
0000
0001
0000
1000
0000
,  // measure 51
1000
0100
0000
0100
0010
0000
0010
0001
0000
0001
0100
0000
0010
0000
0010
1000
,  // measure 52
0000
0000
1000
0000
0100
0000
1000
0100
0000
0000
0010
0000
0001
0010
0000
0010
,  // measure 53
0000
0001
0100
0000
0010
0000
0010
1000
0000
0000
1000
0000
0010
0000
0100
0000
,  // measure 54
0001
0100
0000
0100
0010
0000
0010
1000
0000
1000
0100
0000
0010
0000
0010
0000
,  // measure 55
0001
1000
0000
1000
0100
0000
0100
0010
0000
0010
0001
0000
1000
0000
1000
0100
,  // measure 56
0000
0100
1000
0000
0010
0000
0100
0001
0000
0001
0010
0000
0100
0000
0010
0000
,  // measure 57
2002
0000
3003
0110
,  // measure 58
1000
0001
0010
0001
0100
0010
1000
0200
,  // measure 59
0001
0000
0001
0000
1000
0000
0301
0001
,  // measure 60
0100
1000
0001
0100
0010
1000
0001
0020
,  // measure 61
0100
0000
1000
0000
1000
0000
0031
0001
,  // measure 62
0001
0100
0010
1000
0010
1000
0100
0010
,  // measure 63
0002
0000
1000
0000
0010
0000
0013
0010
,  // measure 64
0010
0001
0010
0001
0100
0010
0100
0010
,  // measure 65
2000
0000
0001
0000
0100
0000
3010
0010
,  // measure 66
1000
0000
0100
1000
0100
0000
1000
0000
0001
0000
0100
0000
0010
0000
2000
0000
,  // measure 67
0001
0000
0001
0000
0010
0000
3100
0100
,  // measure 68
1000
0000
0010
1000
0010
0000
0100
0000
0001
0000
1000
0000
0100
0000
0020
0000
,  // measure 69
0001
0000
1000
0000
0001
0000
0130
0100
,  // measure 70
0010
0001
0010
0000
0001
0000
0001
0000
1000
0010
1000
0000
0010
0000
0010
0000
,  // measure 71
0100
0001
0100
0000
0001
0000
0001
0000
1000
0100
1000
0000
0001
0000
0001
0000
,  // measure 72
1000
0010
0100
0000
0001
0010
0100
0000
1000
0100
0001
0000
1000
0010
0001
0000
,  // measure 73
0010
0000
0010
0000
0100
1000
0000
1000
0010
0000
0100
0000
0001
0000
0100
0000
,  // measure 74
0110
0000
0000
0000
;
