#VERSION:0.83;
#TITLE:Programmed Sun (xac Antarctic Ocean mix);
#SUBTITLE:;
#ARTIST:kors k;
#TITLETRANSLIT:;
#SUBTITLETRANSLIT:;
#ARTISTTRANSLIT:;
#GENRE:;
#ORIGIN:;
#CREDIT:;
#BANNER:Programmed Sun (xac Antarctic Ocean mix).png;
#BACKGROUND:Programmed Sun (xac Antarctic Ocean mix)-bg.png;
#PREVIEWVID:;
#JACKET:Programmed Sun (xac Antarctic Ocean mix)-jacket.png;
#CDIMAGE:;
#DISCIMAGE:;
#LYRICSPATH:;
#CDTITLE:;
#MUSIC:Programmed Sun (xac Antarctic Ocean mix).ogg;
#OFFSET:0.000000;
#SAMPLESTART:92.544998;
#SAMPLELENGTH:15.000000;
#SELECTABLE:YES;
#BPMS:0.000=140.000;
#STOPS:;
#DELAYS:;
#WARPS:;
#TIMESIGNATURES:0.000=4=4;
#TICKCOUNTS:0.000=4;
#COMBOS:0.000=1;
#SPEEDS:0.000=1.000=0.000=0;
#SCROLLS:0.000=1.000;
#FAKES:;
#LABELS:0.000=Song Start;
#BGCHANGES:;
#KEYSOUNDS:;
#ATTACKS:
;

//---------------dance-single - ----------------
#NOTEDATA:;
#CHARTNAME:;
#STEPSTYPE:dance-single;
#DESCRIPTION:;
#CHARTSTYLE:;
#DIFFICULTY:Beginner;
#METER:3;
#RADARVALUES:0.101167,0.171871,0.000000,0.206881,0.000000,89.000000,89.000000,0.000000,26.000000,0.000000,0.000000,0.000000,0.000000,0.000000,0.101167,0.171871,0.000000,0.206881,0.000000,89.000000,89.000000,0.000000,26.000000,0.000000,0.000000,0.000000,0.000000,0.000000;
#CREDIT:;
#NOTES:
0000
0000
0000
0000
,
0000
0000
0000
0000
,
0000
0000
0000
0000
,
0000
0000
0000
0000
,
0000
0000
0000
0000
,
0000
0000
0000
0000
,
0002
0000
0000
0000
,
0003
0000
0000
0000
,
2000
0000
0000
0000
,
3000
0000
0000
0000
,
0010
0000
0100
0000
,
0020
0000
0030
0000
,
0200
0000
0300
0000
,
0020
0000
0030
0000
,
1000
0000
0001
0000
,
2000
0000
3000
0000
,
0002
0000
0003
0000
,
2000
0000
3000
0000
,
0010
0000
0100
0000
,
0020
0000
0030
0000
,
0200
0000
0300
0000
,
0020
0000
0030
0000
,
1000
0000
0100
0000
,
0010
0000
0001
0000
,
0010
0000
0100
0000
,
1000
0000
0001
0000
,
0200
0000
0000
0000
,
0000
0000
0000
0000
,
0300
0000
0000
0000
,
0000
0000
0000
0000
,
0020
0000
0000
0030
,
0010
0000
0000
0000
,
0200
0000
0000
0300
,
0100
0000
0000
0000
,
2000
0000
0000
3000
,
1000
0000
0000
0000
,
0002
0000
0000
0003
,
0001
0000
0000
0000
,
0100
0000
0010
0000
,
2000
0000
3000
0000
,
0010
0000
0100
0000
,
0002
0000
0003
0000
,
0010
0000
0100
0000
,
2000
0000
3000
0000
,
0010
0000
0100
0000
,
0002
0000
0003
0000
,
1000
0000
0000
0000
,
0000
0000
0000
0000
,
0001
0000
0000
0000
,
0000
0000
0000
0000
,
0010
0000
0010
0000
,
0100
0000
0100
0000
,
0010
0000
0001
0000
,
2000
0000
3000
0000
,
0001
0001
0000
1000
,
0000
0001
0000
0100
,
0000
0010
0000
1000
,
0000
0010
0000
0100
,
0100
0000
0010
0000
,
0100
0000
0001
0000
,
0010
0000
0001
0000
,
1000
0000
0100
0000
,
1000
1000
1000
0000
,
0002
0000
0003
0000
,
0001
0001
0001
0000
,
2000
0000
3000
0000
,
0010
0010
0010
0000
,
0200
0000
0300
0000
,
0100
0100
0100
0000
,
0020
0000
0030
0000
,
0002
0000
0000
0000
,
0000
0000
0000
0000
,
0003
0000
0000
0000
;

//---------------dance-single - ----------------
#NOTEDATA:;
#CHARTNAME:;
#STEPSTYPE:dance-single;
#DESCRIPTION:;
#CHARTSTYLE:;
#DIFFICULTY:Easy;
#METER:6;
#RADARVALUES:0.208018,0.257806,0.000000,0.469461,0.000000,183.000000,183.000000,0.000000,59.000000,0.000000,0.000000,0.000000,0.000000,0.000000,0.208018,0.257806,0.000000,0.469461,0.000000,183.000000,183.000000,0.000000,59.000000,0.000000,0.000000,0.000000,0.000000,0.000000;
#CREDIT:;
#NOTES:
0000
0000
0000
0000
,
0000
0000
0000
0000
,
0000
0000
0000
0000
,
0000
0000
0000
0000
,
0000
0000
0000
0000
,
0000
0000
0000
0000
,
1000
1000
0100
0000
,
0001
0001
0010
0000
,
0100
0100
0010
0001
,
0100
0010
2000
0000
,
3001
1000
0010
1000
,
0100
1000
0100
0000
,
1000
0001
0010
0001
,
0100
0001
0100
0000
,
0010
0100
0001
0100
,
0010
0100
0010
0000
,
0100
0010
1000
0010
,
0100
0010
0100
0000
,
0100
1000
0010
0100
,
0001
0010
0001
0010
,
0001
0100
0010
1000
,
0100
1000
0100
0010
,
0001
0001
1000
1000
,
0010
0010
0100
0100
,
0001
0100
0010
1000
,
0010
0100
0001
2000
,
0002
0000
0000
0000
,
0000
0000
0000
0000
,
0000
0000
0000
0000
,
3003
0000
0000
0000
,
0200
0000
0320
0000
2030
0000
0000
0002
,
0000
0000
0000
3003
,
0020
0000
0032
0000
2003
0000
0000
0020
,
0000
0000
0000
3030
,
0200
0000
0302
0000
2003
0000
0000
3020
,
0000
0000
0000
0100
,
0230
0000
0000
0000
0000
0000
0000
0002
,
0000
0000
0000
0303
,
0002
0000
2003
0000
3200
0000
0000
0020
,
0000
0000
0000
0330
,
0200
0000
2300
0000
3020
0000
0000
0230
,
0000
0000
0000
0300
,
0020
0000
2030
0000
3002
0000
0000
0203
,
0000
0000
0000
0010
,
0320
0000
0000
0000
0000
0000
0000
2000
,
0000
0000
0000
0030
,
3001
1000
0000
1000
,
0000
0001
0000
0001
,
0100
0010
0000
0010
,
0000
1000
0000
1000
,
0100
1000
0001
0100
,
0010
1000
0001
0010
,
0100
0100
0010
0010
,
0001
1000
0100
0010
,
0200
1000
0000
2300
,
3002
0203
0000
0320
,
1000
2030
0001
3002
,
0013
0100
0010
0100
,
0020
0001
0000
0032
,
2003
0010
0000
3020
,
0130
0200
0301
0002
,
1003
0010
0100
0001
,
0020
0000
0230
0000
2300
0000
0000
0002
,
0000
0000
0000
3003
,
0200
0000
0302
0000
2003
0000
0000
0020
,
0000
0000
0000
0030
,
3010
0010
0100
0100
,
0001
0010
0100
1000
,
0002
0100
0203
0010
,
0320
2030
3002
0023
,
0200
0000
0000
0000
,
0000
0000
0000
0000
,
0330
0000
0000
0000
;

//---------------dance-single - ----------------
#NOTEDATA:;
#CHARTNAME:;
#STEPSTYPE:dance-single;
#DESCRIPTION:;
#CHARTSTYLE:;
#DIFFICULTY:Medium;
#METER:9;
#RADARVALUES:0.338740,0.486966,0.000000,0.556988,0.047742,298.000000,298.000000,0.000000,70.000000,0.000000,0.000000,0.000000,0.000000,0.000000,0.338740,0.486966,0.000000,0.556988,0.047742,298.000000,298.000000,0.000000,70.000000,0.000000,0.000000,0.000000,0.000000,0.000000;
#CREDIT:;
#NOTES:
0000
0000
0000
0000
,
0000
0000
0000
0000
,
0000
0000
0000
0000
,
0000
0000
0000
0000
,
0000
0000
0000
0000
,
0000
0000
0000
0000
,
0010
0000
0010
0000
0010
1000
0100
0000
,
0100
0000
0100
0000
0100
1000
0001
1000
,
0001
0000
0001
0000
1000
0000
0001
0100
,
0010
1000
0010
0100
0001
0000
1000
0001
,
0020
0000
0000
0000
0100
0000
0000
0000
0001
0000
0000
0001
0000
0000
0001
0000
,
0032
0000
0000
0000
0100
0000
0000
0000
1000
0000
0000
1000
0000
0000
1000
0000
,
2003
0000
0000
0000
0001
0000
0000
0000
0010
0000
0000
0010
0000
0000
0010
0000
,
3020
0000
0000
0000
1000
0000
0000
0000
0100
0000
0000
0100
0000
0000
0100
0000
,
0230
0000
0000
0000
1000
0000
0000
0000
0001
0000
0000
0001
0000
0000
0001
0000
,
0302
0000
0000
0000
1000
0000
0000
0000
0010
0000
0000
0010
0000
0000
0010
0000
,
0023
0000
0000
0000
0001
0000
0000
0000
0100
0000
0000
0100
0000
0000
0100
0000
,
0130
1000
0010
0100
0001
0000
0100
0010
,
1000
0000
0001
0000
0010
0000
0200
0000
1000
0000
0000
1000
0000
0000
1300
0000
,
0001
0000
0010
0000
1000
0000
0020
0000
0001
0000
0000
0001
0000
0000
0031
0000
,
0100
0000
0010
0000
1000
0000
0002
0000
1000
0000
0000
1000
0000
0000
1003
0000
,
0010
0000
0100
0000
0001
0000
2000
0000
0010
0000
0000
0010
0000
0000
3010
0000
,
0100
0010
1000
0100
0010
0002
0200
0303
,
0001
1000
0100
0010
0001
0200
0020
0330
,
1000
0010
1000
0010
0100
0001
0100
0001
,
0100
0010
1000
0001
0010
0100
1000
0002
,
0200
0000
0000
0000
,
0000
0000
0000
0000
,
0000
0000
0000
0000
,
0303
0000
0000
0000
,
0002
0203
0302
0203
0000
0000
0000
0020
,
0000
0000
0000
0330
,
2000
3200
2300
3200
0000
0000
0000
0020
,
0000
0000
0000
0330
,
0002
0203
0302
2003
0000
0000
0000
3020
,
0000
0000
0000
0100
,
0230
0000
0000
0000
0000
0000
0000
0002
,
0000
0000
0000
0303
,
2000
3020
0230
0302
0000
1000
0000
2000
,
0000
0000
0000
3003
,
0002
0203
0320
2030
0000
0001
0000
0002
,
0000
0000
0000
3003
,
0020
0230
2300
3002
0000
0100
0000
0200
,
0000
0000
0003
0010
,
0320
0000
0000
0000
0000
0000
0000
2000
,
0000
0000
0000
0030
,
3002
0000
0000
0000
,
0023
0000
0000
0000
,
0230
0000
0000
0000
,
2300
0000
0000
0000
,
3001
0001
1000
1000
,
0010
0010
0100
0100
,
0001
0100
0001
0100
0010
1000
0010
1000
,
0100
0010
0001
1000
0010
0100
0001
0000
,
1000
0100
2000
0000
3020
0000
0130
0001
,
0010
0001
0200
0000
0320
0000
1030
0001
,
0010
0100
2000
0000
3100
0010
0001
1000
,
0010
0100
0002
0000
2003
0000
3010
1000
,
0100
1000
0001
0100
0002
0000
0023
0000
,
0130
0010
0001
0100
0020
0000
2030
0000
,
3001
1000
0100
0000
1000
0001
0100
0000
,
0010
1000
0001
0010
0100
1000
0100
0010
,
0001
0100
0010
0100
0001
1000
0100
0020
,
0001
0000
0001
0000
0100
0000
0001
0031
,
1000
0001
0100
0010
0100
0001
0010
0200
,
1000
0000
1000
0000
0001
0000
1000
1300
,
0010
1000
0010
1000
0001
0010
0001
0010
,
0100
1000
0100
1000
0001
0100
0001
0100
,
0010
0010
0010
0010
1000
1000
1000
1000
,
0010
0000
0000
0010
0000
0000
1000
0000
0001
0000
0010
0000
0200
0000
0000
0000
,
2000
0000
0000
0000
,
0000
0000
0000
0000
,
3300
0000
0000
0000
;

//---------------dance-single - ----------------
#NOTEDATA:;
#CHARTNAME:;
#STEPSTYPE:dance-single;
#DESCRIPTION:;
#CHARTSTYLE:;
#DIFFICULTY:Hard;
#METER:13;
#RADARVALUES:0.462641,0.658837,0.000000,0.596773,0.322257,407.000000,407.000000,0.000000,75.000000,0.000000,0.000000,0.000000,0.000000,0.000000,0.462641,0.658837,0.000000,0.596773,0.322257,407.000000,407.000000,0.000000,75.000000,0.000000,0.000000,0.000000,0.000000,0.000000;
#CREDIT:;
#NOTES:
// measure 0
0000
0000
0000
0000
,  // measure 1
0000
0000
0000
0000
,  // measure 2
0000
0000
0000
0000
,  // measure 3
0000
0000
0000
0000
,  // measure 4
0000
0000
0000
0000
,  // measure 5
0000
0000
0000
0000
,  // measure 6
1000
0100
1000
0000
0010
0000
0100
0000
,  // measure 7
0001
0010
0001
0000
0010
0100
0010
0000
,  // measure 8
0100
0000
0000
0100
0000
0000
0100
0000
1000
0000
0001
0000
1000
0000
0001
0000
,  // measure 9
1000
0000
0010
0000
1000
0000
0010
0000
0100
0000
0000
0000
0001
0010
0100
1000
,  // measure 10
0010
0000
0010
0000
0100
0000
0100
0000
0001
0000
0000
0001
0100
0000
0010
0000
,  // measure 11
1000
0000
1000
0000
0100
0000
0100
0000
0010
0000
0000
0010
0001
0000
1000
0000
,  // measure 12
0001
0000
0001
0000
1000
0000
1000
0000
0010
0000
0000
0010
0100
0000
0001
0000
,  // measure 13
0100
0000
0100
0000
0010
0000
0010
0000
1000
0000
0000
1000
0010
0000
1000
0000
,  // measure 14
0100
0000
0100
0000
0010
0000
0010
0000
0001
0000
0000
0001
1000
0000
0001
0000
,  // measure 15
1000
0000
1000
0000
0010
0000
0010
0000
0100
0000
0000
0100
0001
0000
1000
0000
,  // measure 16
0010
0000
1000
0000
0001
0000
0100
0000
0010
0000
0000
0100
0010
0000
1000
0000
,  // measure 17
0100
0000
0010
0000
0001
0000
1000
0000
0100
0000
0000
0000
1000
0001
0100
0010
,  // measure 18
1000
0000
0010
0000
0001
0000
0010
0000
1000
0000
0000
1000
0010
0000
0100
0000
,  // measure 19
0001
0000
0100
0000
1000
0000
0100
0000
0001
0000
0000
0001
0100
0000
1000
0000
,  // measure 20
0100
0000
0001
0000
0010
0000
0100
0000
1000
0000
0000
1000
0010
0000
0001
0000
,  // measure 21
0010
0000
1000
0000
0001
0000
0010
0000
0100
0000
0000
0100
0010
0000
0100
0000
,  // measure 22
1000
0010
1000
0010
0100
0001
0100
0001
,  // measure 23
1000
0100
1000
0001
0010
0001
1000
0010
,  // measure 24
0100
0100
0100
0100
0010
0010
0010
0010
,  // measure 25
1000
0000
0010
0000
0100
0000
0001
0000
1000
0000
0000
0000
0001
1000
0100
0010
,  // measure 26
0002
0000
0000
0000
,  // measure 27
0000
0000
0000
0000
,  // measure 28
0000
0000
0000
0000
,  // measure 29
0003
0000
0000
0000
,  // measure 30
0020
0032
0203
0320
0000
2000
3000
2030
,  // measure 31
0000
0000
0000
0000
,  // measure 32
3200
2300
3002
0203
0000
0020
0030
0320
,  // measure 33
0000
0000
0000
0000
,  // measure 34
2030
3020
0230
0302
0000
0200
0300
0203
,  // measure 35
0000
0000
0000
0000
0000
0000
0020
0030
,  // measure 36
0320
0000
0000
0000
0000
0000
0000
2000
,  // measure 37
0000
0000
0000
3030
,  // measure 38
0200
0000
0320
0000
0130
1000
0200
0000
1000
0000
0000
2300
0000
0000
0002
0000
,  // measure 39
0000
0000
0000
3003
,  // measure 40
0200
0000
0302
0000
0013
0001
0020
0000
0001
0000
0000
0032
0000
0000
2000
0000
,  // measure 41
0000
0000
0000
3003
,  // measure 42
0020
0000
2030
0000
3010
0100
0020
0000
0100
0000
0000
0230
0000
0000
0002
0000
,  // measure 43
0000
0000
0300
1000
,  // measure 44
2003
0000
0000
0000
3200
0000
0000
0020
,  // measure 45
0000
0000
0000
0330
,  // measure 46
0020
0001
0000
0000
0001
0000
0000
0100
0000
0000
0031
0000
0100
0000
0010
0000
,  // measure 47
2000
0100
0000
0000
0010
0000
0000
0010
0000
0000
3010
0000
1000
0000
1000
0010
,  // measure 48
0000
0200
0000
0000
0001
0000
0000
0302
0000
0000
1003
0000
0100
0010
0000
0002
,  // measure 49
0000
1000
0000
0000
2003
0000
0000
0010
0000
0000
3010
0000
0100
0000
0001
0100
,  // measure 50
0002
0013
0002
0103
0020
1030
0200
1300
,  // measure 51
0020
0000
0130
0000
0002
0000
1003
0000
0200
0000
0310
0000
0002
0000
2003
0010
,  // measure 52
0000
3010
0000
0000
0100
0000
0200
0001
0000
0301
0100
0000
0010
0000
1000
0100
,  // measure 53
1000
0000
2000
0000
3100
0000
0020
0031
0000
0002
1003
0000
0010
0000
0100
0000
,  // measure 54
0001
0020
0000
0000
0001
0000
0000
0130
0000
0100
0010
0000
0001
0000
0100
0000
,  // measure 55
0010
2000
0000
0000
0100
0000
0000
3010
0000
0010
0100
0000
0001
0000
1000
0020
,  // measure 56
0000
1000
0000
0000
0130
0000
0100
0001
0000
0000
0100
0000
0010
2000
0000
0001
,  // measure 57
0000
3001
0020
0000
0230
0000
0000
0320
0000
0000
0001
0000
0031
0000
0100
0001
,  // measure 58
1000
0020
0000
0000
1000
0000
0000
0130
0000
0100
0010
0000
1000
0000
0001
0200
,  // measure 59
0000
0010
0000
0000
0310
0000
0010
2000
0000
0000
3001
0000
0010
0000
0100
0010
,  // measure 60
0000
0010
0200
0000
2300
0000
0000
3002
0000
0103
0010
0000
0100
0000
0100
0010
,  // measure 61
1000
0010
0100
0000
0001
0010
0100
0000
1000
0100
0010
0000
0001
0100
0010
0000
,  // measure 62
1000
0010
0001
0010
1000
0100
0010
0002
,  // measure 63
1000
0000
0010
0000
0100
0000
0010
0010
,  // measure 64
0013
0100
1000
0010
0100
0001
0010
0200
,  // measure 65
1000
0000
0001
0000
0001
0000
1300
1000
,  // measure 66
0010
1000
0010
1000
0001
0100
0001
0100
,  // measure 67
0001
0010
0001
0010
1000
0010
1000
0010
,  // measure 68
0001
0100
0001
0000
1000
0100
1000
0000
0010
0100
0010
0000
1000
0001
1000
0000
,  // measure 69
0010
0000
0100
0001
0000
0001
0000
1000
0000
1000
0100
0000
0010
0000
0001
1000
,  // measure 70
0020
0000
0000
0000
,  // measure 71
0000
0000
0000
0000
,  // measure 72
0030
0000
0000
0000
;
