#TITLE:Poseidon;
#SUBTITLE:;
#ARTIST:Massive New Krew;
#TITLETRANSLIT:;
#SUBTITLETRANSLIT:;
#ARTISTTRANSLIT:;
#GENRE:;
#CREDIT:;
#MUSIC:Poseidon.ogg;
#BANNER:Poseidon.png;
#BACKGROUND:Poseidon-bg.png;
#CDTITLE:;
#SAMPLESTART:92.879;
#SAMPLELENGTH:15.000;
#SELECTABLE:YES;
#OFFSET:0.000;
#BPMS:0.000=155.000;
#STOPS:;
#BGCHANGES:;
#FGCHANGES:;

//--------------- dance-single - ----------------
#NOTES:
     dance-single:
     :
     Beginner:
     6:
     0,0,0,0,0:
0000
0000
0000
0000
,
0000
0000
0000
0000
,
0000
0000
0000
0000
,
0000
0000
0000
0000
,
0000
0000
0000
0000
,
0000
0000
0000
0000
,
0010
0000
0100
0000
,
0001
0000
0000
0000
,
0010
0000
0100
0000
,
1000
0000
0000
0000
,
0001
0001
0000
0000
,
1000
1000
0000
0000
,
0001
0001
0000
0000
,
1000
1000
0000
0000
,
0010
0000
0010
0000
,
0100
0000
0100
0000
,
0020
0000
0000
0030
,
0110
0000
0000
0000
,
0100
0100
0100
0000
,
0001
0000
0001
0000
,
0001
0001
0001
0000
,
0010
0000
0010
0000
,
0010
0010
0010
0000
,
1000
0000
1000
0000
,
1000
1000
1000
0000
,
0100
0000
0100
0000
,
1000
1000
1000
0000
,
0001
0001
0001
0000
,
1000
1000
1000
0000
,
0001
0001
0001
0000
,
0100
0100
0100
0000
,
0010
0010
0010
0000
,
0100
0100
0100
0000
,
0010
0010
0010
0000
,
0220
0000
0000
0000
,
0330
0000
0000
0000
,
0010
0000
0100
0000
,
0001
0000
0000
0000
,
0010
0000
0100
0000
,
1000
0000
0000
0000
,
0100
0000
0010
0000
,
0001
0000
0000
0000
,
0100
0000
0010
0000
,
1000
0000
0000
0000
,
0001
0000
1000
0000
,
0100
0100
0100
0000
,
1000
0000
0001
0000
,
0010
0010
0010
0000
,
0001
0000
0100
0000
,
0010
0010
0010
0000
,
1000
0000
0010
0000
,
0100
0000
0100
0000
,
0010
0010
0000
0000
,
0010
0010
0000
0000
,
0100
0100
0000
0000
,
0100
0100
0000
0000
,
0001
0000
1000
0000
,
0100
0000
0010
0000
,
0100
0000
1000
0000
,
2002
0000
3003
0000
,
1000
1000
1000
0000
,
0001
0000
0001
0000
,
0001
0001
0001
0000
,
1000
0000
1000
0000
,
0100
0100
0100
0000
,
0010
0000
0010
0000
,
0010
0010
0010
0000
,
0100
0000
0100
0000
,
0000
1000
1000
0000
,
0002
0000
0000
0003
,
0001
0001
0001
0000
,
1000
0000
1000
0000
,
1000
1000
1000
0000
,
0010
0000
0010
0000
,
0010
0010
0010
0000
,
0100
0000
0100
0000
,
0220
0000
0330
0000
,
2002
0000
3003
0000
,
0220
0000
0330
0000
,
2002
0000
3003
0000
,
1000
0000
0010
0000
,
0100
0000
0001
0000
,
0001
0000
0100
0000
,
0020
0000
0030
0000
,
1001
0000
0000
0000
;

//--------------- dance-single - ----------------
#NOTES:
     dance-single:
     :
     Easy:
     10:
     0,0,0,0,0:
0000
0000
0000
0000
,
0000
0000
0000
0000
,
0000
0000
0000
0000
,
0000
0000
0000
0000
,
0000
0000
0000
0000
,
0000
0000
0000
0000
,
0010
0000
0010
0000
0100
0000
0000
1000
,
0000
1000
0001
0000
0100
0000
0000
0000
,
0001
0000
0001
0000
1000
0000
0000
0010
,
0000
0010
0100
0000
0001
0000
0000
0000
,
0010
0010
0020
0000
0000
0000
0000
0000
,
0130
0100
0200
0000
0000
0000
0000
0000
,
1300
1000
2000
0000
0000
0000
0000
0000
,
3001
0001
0002
0000
0000
0000
0000
0000
,
1003
0010
1000
0000
0010
0000
1000
0000
,
0001
0100
0001
0000
0100
0000
0001
0000
,
0010
0000
0100
0000
0010
0100
0010
0100
,
0020
0000
0030
0110
,
1100
1100
1100
0010
,
0100
0100
0100
0000
1001
0000
0000
0000
,
0011
0011
0011
0100
,
0001
0001
1000
0000
1001
0000
0000
0000
,
1010
1010
0101
0001
,
1000
0100
1000
0000
0011
0000
0000
0000
,
0101
0101
0101
0010
,
1000
0001
0100
0000
1100
0000
0000
0000
,
0110
0000
0100
0000
0010
0000
0000
0100
,
1000
0100
1000
0001
0100
0000
0000
0000
,
0110
0000
0010
0000
0100
0000
0000
0001
,
0100
0001
0100
0010
1000
0000
0001
0000
,
1001
0000
1000
0000
0100
0000
0000
1000
,
0100
1000
0100
1000
0010
0000
0000
0000
,
1000
0001
1001
1001
,
0020
0000
0230
0000
,
0310
0000
0000
0000
,
0000
0000
0000
0000
,
0200
1000
0010
0000
,
2000
0000
0300
0000
,
3002
1000
0010
0000
,
0200
0000
0000
0303
,
2000
0100
0001
0000
,
0020
0000
0000
3000
,
1000
0100
0001
0000
,
2030
0000
0002
3003
,
1001
0000
0001
0000
0010
0000
0000
0001
,
0000
1000
0010
0000
0100
0000
0000
0000
,
0010
0000
0100
0000
0001
0000
0000
0010
,
0000
0010
0100
0000
1000
0000
0000
0000
,
0101
0000
1000
0000
0100
0000
0000
1000
,
0000
1000
0010
0000
0100
0000
0000
0000
,
0001
0000
0001
0000
1000
0000
0000
0100
,
0000
0100
0010
0000
0001
0000
0100
0000
,
0010
0010
0020
0000
0100
0000
0100
0000
,
0130
0100
0200
0000
0001
0000
0001
0000
,
0001
0001
0302
0000
1000
0000
1000
0000
,
1000
1000
2003
0000
0100
0000
3100
0000
,
0010
0001
0010
0000
0001
0000
0100
0000
,
0010
1000
0010
0000
1000
0000
0100
0000
,
0010
0000
0010
0000
0001
1000
0001
1000
,
0002
0000
0000
1003
,
1001
0110
1001
0100
,
0010
1000
0010
1000
0001
0000
0000
0000
,
1100
0011
1100
0011
,
0010
0100
0010
0100
1000
0000
0000
0000
,
1001
0101
0101
0010
,
0100
0010
0100
0010
1000
0000
0000
0000
,
1010
1010
0011
0100
,
0010
0001
0010
0001
1000
0000
0010
0000
,
0000
0000
0100
0000
0200
0000
0000
0320
,
0000
1000
1000
0130
,
1001
1001
0010
0100
,
0001
0100
0001
0100
0010
0000
1000
0000
,
0110
0110
0001
0100
,
0010
1000
0100
1000
0010
0000
0100
0000
,
0000
0001
0001
0000
0010
0000
0100
0000
,
1000
0100
1000
0000
0001
0000
0100
0000
,
0010
0000
0000
0010
0000
0000
0020
0000
0000
0000
0000
0000
1030
0000
0000
0000
,
1000
0000
0000
1000
0000
0000
2000
0000
0000
0000
0000
0000
3001
0000
0000
0000
,
0001
0000
0000
0001
0000
0000
0002
0000
0000
0000
0000
0000
0103
0000
0000
0000
,
0100
0000
0000
0100
0000
0000
0200
0000
0000
0000
0000
0000
0310
0000
0000
0000
,
1000
1000
0001
0001
,
0010
0010
0100
0100
,
1000
0000
0100
0000
0010
0001
0010
0100
,
2000
0000
0000
3001
,
1001
0000
0000
0000
;

//--------------- dance-single - ----------------
#NOTES:
     dance-single:
     :
     Medium:
     13:
     0,0,0,0,0:
0000
0000
0000
0000
,
0000
0000
0000
0000
,
0000
0000
0000
0000
,
0000
0000
0000
0000
,
0000
0000
0000
0000
,
0000
0000
0000
0000
,
1000
1000
0010
0000
0100
0001
1000
0100
,
0000
0010
0001
0010
0200
0000
0300
0000
,
0100
0100
0010
0000
0001
1000
0010
0100
,
0000
0001
1000
0001
0010
0000
0100
0000
,
1000
0100
1000
0000
1100
0000
1010
0000
,
0100
0001
0100
0000
0011
0000
0101
0000
,
0100
0010
0100
0000
0011
0000
1010
0000
,
0001
1000
0001
0000
1100
0000
0101
0000
,
1000
0010
1000
0010
0100
0001
0100
0001
,
1000
0100
0010
0001
0010
0100
1000
0001
,
1000
0000
1000
0000
0001
0000
0001
0000
1000
0100
1000
0000
0001
0010
0001
0000
,
0100
0100
0010
0100
0001
1000
1001
0000
,
0202
0303
0202
0303
0202
0303
0010
1000
,
0001
0000
0001
0000
1001
0000
0000
1000
0100
0000
0000
0000
0010
0000
0100
0000
,
2200
3300
2200
3300
2200
3300
0001
0100
,
0010
0000
0010
0000
1000
0001
0000
0001
1000
0000
0100
0000
0010
0000
0001
0000
,
0220
0330
0220
0330
0220
0330
0100
0010
,
1000
0000
1000
0000
0001
0000
0001
0000
0010
0000
0000
0100
0010
0000
0001
0000
,
2002
3003
2002
3003
2002
3003
0010
1000
,
0100
0100
0100
0100
0010
0001
1000
0010
,
1001
0000
0000
0000
1010
0000
0100
0000
0001
0000
0000
0001
0010
0000
0000
0000
,
0001
0000
0000
1000
0100
0000
0010
0000
0001
0000
0000
0001
1000
0000
0001
0000
,
1001
0000
0000
0000
1010
0000
0001
0000
0010
0000
0000
0100
0010
0000
0100
0000
,
0010
0001
1000
1000
0010
1000
0001
0100
,
0110
0000
0000
0000
1001
0000
0100
0000
0010
0000
0000
0001
0010
0000
0000
0000
,
0100
0000
0100
0000
1000
0000
0010
0000
1000
0000
0000
0001
0100
0000
0010
0000
,
1000
1000
0001
0001
0010
0100
0010
0001
,
0200
0000
0000
0000
0310
1000
0001
0100
,
2002
0000
0000
0000
,
3003
0000
0000
0000
,
0001
0100
0001
0000
1000
0010
0100
0001
,
0000
0100
0010
1000
0200
0000
0000
0000
,
0310
0100
0010
0000
0100
1000
0010
0100
,
0000
0001
0100
0010
2000
0000
0000
0000
,
3001
1000
0001
0000
1000
0100
0001
0100
,
0000
1000
0001
0100
0020
0000
0000
0000
,
1030
0010
1000
0000
0010
1000
0001
0100
,
0000
0010
0100
0001
0020
0000
0230
0300
,
0110
1000
0001
0000
1000
0001
0100
0010
,
0000
1000
0100
0010
0002
0000
0010
0000
,
0013
0100
1000
0000
0001
0100
0001
1000
,
0000
1000
0010
0100
0002
0000
2003
0000
,
3100
0010
0100
0000
0010
0001
1000
0010
,
0000
0100
0001
1000
0200
0000
2300
0000
,
3001
1000
0001
0000
1000
0010
0100
0001
,
0000
0001
1000
0001
2000
0000
3001
0000
,
2001
0001
3001
0000
0010
0000
0100
0000
,
0102
0100
0103
0000
0010
0000
1000
0000
,
2001
0001
3001
0000
0010
0000
0100
0000
,
0120
0100
0130
0000
0001
0000
0100
0000
,
1010
1000
0010
1000
0001
0100
0001
0100
,
0001
0010
0001
0010
0100
1000
0100
1000
,
0001
0000
0001
0000
1000
0000
1000
0000
0010
0100
0010
0000
0100
0010
0100
0000
,
0001
0010
0001
1000
0010
0100
0001
0000
,
1100
1000
0010
0000
0100
0001
0010
1000
,
0010
0001
1000
0010
0100
0000
0001
0000
,
1001
0001
0100
0000
0010
1000
0100
0010
,
0001
0010
0100
1000
0001
0000
1000
0000
,
0110
1000
0001
0000
0100
0001
0100
1000
,
0100
0001
0010
0100
1000
0000
0001
0000
,
1010
1000
0001
0000
0010
0001
0010
0100
,
1000
0010
0001
0010
1000
0000
0100
0010
,
0000
0001
0001
0001
0010
0001
1000
0010
,
0000
1000
0010
0100
0001
0000
0100
0010
,
1001
1000
0100
0000
0010
0001
0010
1000
,
0010
0001
0100
0100
0010
0000
1000
0001
,
0101
0010
0100
0000
0010
0001
1000
0010
,
0100
0001
0100
1000
0100
0000
0010
0000
,
1001
1000
0100
0000
1000
0100
0010
0001
,
0010
0100
1000
0001
0001
0000
0100
0010
,
1000
0000
0000
1010
0000
0000
1010
0000
0010
0000
0100
0000
0010
0000
0100
0000
,
0001
0000
0000
0011
0000
0000
0011
0000
0100
0000
0010
0000
0100
0000
0010
0000
,
0001
0000
0000
0101
0000
0000
0101
0000
0010
0000
1000
0000
0010
0000
1000
0000
,
0010
0000
0000
1100
0000
0000
1100
0000
1000
0000
0100
0000
0010
0000
0001
0000
,
1000
0001
1000
0001
0100
0010
0100
0010
,
1000
0010
1000
0010
0100
0001
0100
0001
,
0010
0000
0010
0000
0100
0000
0100
0000
1000
0100
1000
0000
0001
0100
0001
0000
,
2000
0000
0000
0000
3001
0100
0010
1000
,
1001
0000
0000
0000
;

//--------------- dance-single - ----------------
#NOTES:
     dance-single:
     :
     Hard:
     16:
     0,0,0,0,0:
0000
0000
0000
0000
,
0000
0000
0000
0000
,
0000
0000
0000
0000
,
0000
0000
0000
0000
,
0000
0000
0000
0000
,
0000
0000
0000
0000
,
0110
0010
0110
0000
0101
0100
0010
1000
,
0000
0001
1000
0100
0010
0000
0000
0000
,
0110
0100
0110
0000
1100
1000
0001
0100
,
0000
0010
1000
0010
1000
0001
1000
0000
,
1001
0001
1001
0000
0010
0100
0010
0000
,
1001
1000
1001
0000
0010
0100
0010
0000
,
0101
0001
1001
0000
0010
1000
0010
0000
,
1100
1000
1001
0000
0010
0001
0010
0000
,
0110
0010
0001
0100
1010
0100
0001
1000
,
0011
0001
1000
0100
0110
1000
0001
0100
,
0010
1000
0010
1000
0001
0010
0001
0010
0100
1000
0100
1000
0001
0100
0001
0100
,
0010
0010
0100
0010
0100
0001
1000
0100
,
0110
0100
1100
0100
0110
0001
1000
0000
,
0101
0000
0100
0000
0110
0000
0100
0001
0100
0000
0001
0000
1000
0000
0000
0000
,
0011
0001
1010
1000
0101
0100
0010
0000
,
1001
0000
0100
0010
1000
0100
0000
0010
0001
0010
0000
0100
1000
0000
0001
0000
,
1010
0000
1000
0000
0110
0000
0001
0000
0011
0000
0100
0000
1000
0001
1000
0001
,
0100
0000
0010
0000
0110
0000
1000
0000
1010
0000
0000
0001
1000
0000
0100
0000
,
0011
0000
0001
0010
1000
0000
1000
0010
0001
0000
0100
0000
0010
0000
0000
0000
,
1100
0000
0000
0000
0101
0000
0100
0000
0110
0000
0010
0000
1000
0001
1000
0000
,
1001
0000
1000
0000
0101
0000
0010
0000
1000
0000
0100
0010
0001
0000
0000
0000
,
0100
0000
0010
0000
1100
0000
1100
0000
0101
0000
0010
1000
0001
0000
1000
0000
,
0101
0000
0001
0000
0101
0000
0010
0000
1001
0000
1000
0010
0001
0000
0000
0000
,
0010
1000
0100
0000
0110
0000
0110
0000
0011
0000
1000
0000
0010
0100
0001
0000
,
1001
0000
0000
0000
1001
0000
0001
0000
0101
0000
0010
1000
0001
0000
0000
0000
,
0100
0000
0100
0000
1100
0000
1100
0000
1001
0000
0001
0100
0010
0000
1000
0000
,
0101
0000
0001
0010
0100
0000
0100
0010
0001
0000
1000
0010
0100
0000
0001
0000
,
2000
0000
0000
0000
3010
1000
0100
0010
,
2002
0000
0000
0000
,
3003
0000
0000
0000
,
1002
0100
0100
0000
0010
0010
1000
1000
,
0000
0100
1000
1000
0200
0000
0303
0000
,
2010
0010
0100
0000
0001
0001
0100
0100
,
0000
0010
0010
0001
0002
0000
3003
0000
,
1020
1000
1000
0000
0100
0100
1000
1000
,
0000
0001
0001
0001
0002
0000
0033
0000
,
0201
0001
0001
0000
1000
1000
0010
0010
,
0000
1000
1000
1000
2000
0000
3300
0000
,
1020
0100
2030
0000
3002
0023
0230
2300
,
0000
3002
0023
0230
0320
0000
0030
0000
,
0201
0010
0301
0000
2000
3002
0203
0320
,
0000
0230
0302
2003
3100
0000
0110
0000
,
2010
0010
3002
0000
0203
0302
2003
3200
,
0000
0320
0032
2003
3010
0000
1001
0000
,
0102
0100
2003
0000
3200
2300
3002
0023
,
0000
0230
0320
0032
1003
0000
1001
0000
,
0201
0301
0101
0000
0010
1000
0010
0000
,
1020
1030
1010
0000
1000
0100
1000
0000
,
0120
0130
0110
0000
0010
0001
1000
0000
,
0210
0310
0110
0000
0010
1000
0001
0000
,
1000
0010
1000
0010
1000
0001
1000
0001
,
0010
0001
0010
0001
0010
0100
0010
0100
,
1000
0100
1000
0100
0010
0001
0010
0001
1000
0001
0100
0010
1000
0001
0010
0100
,
1000
0000
1000
0000
0001
0000
0100
0010
1000
0000
0001
0000
0010
0000
0100
0000
,
0011
0000
0001
0000
0101
0000
0010
0000
1000
0100
0010
0000
0001
0000
0100
0010
,
1000
0001
1000
0100
0110
1000
0001
0000
,
1001
0000
1000
0000
1010
0000
0010
0000
0100
0001
1000
0000
0100
0000
0010
0100
,
1000
0001
0100
0010
0110
1000
0001
1000
,
0011
0000
0001
0000
1001
0000
0001
0000
0010
0100
0010
0000
0001
0000
1000
0010
,
1000
0010
0100
0001
1100
1000
0001
0000
,
0101
0000
0100
0000
0110
0000
0010
0000
1000
0010
0100
0000
0010
0000
1000
0001
,
0010
0000
0010
0000
0100
0000
0100
0000
0110
0000
0001
0000
1000
0100
0010
0002
,
0000
0010
0010
0010
1000
1000
0100
0203
,
0000
0000
0010
0000
0010
0000
0010
0000
0301
0000
0000
0000
1000
0010
0100
0001
,
1000
0000
1000
0000
0110
0000
0001
0000
0010
0100
1000
0000
0001
0000
1000
0001
,
0100
0100
0010
0010
1000
0010
0101
0001
,
1001
0000
1001
0000
0110
0000
0010
0000
0100
0010
1000
0000
0001
0000
0010
0100
,
1000
0000
0001
0000
1000
0001
0100
0000
0110
0000
0001
0000
1000
0000
1000
0000
,
0000
0000
1010
0000
0101
0000
0010
0000
0100
0001
0010
0000
0100
0000
0010
0100
,
1000
0000
0001
0000
1000
0000
0001
0000
0100
0000
0000
0000
0010
0100
0010
0100
,
0001
0000
0000
0011
0000
0000
0011
0000
0001
0000
1000
0001
1000
0000
0001
0100
,
0010
0000
0000
1010
0000
0000
1010
0000
0010
0000
0010
0000
0100
0001
0100
0001
,
1000
0000
0000
1100
0000
0000
1100
0000
1000
0000
0001
1000
0001
0000
1000
0010
,
0100
0000
0000
0101
0000
0000
0101
0000
0010
0000
1000
0000
0100
0010
0100
0010
,
0001
1000
0001
1000
0010
1000
0010
1000
,
0001
0100
0010
1000
0001
0010
0100
1000
,
0001
0010
0001
0010
0001
1000
0001
1000
0001
0100
0010
1000
0001
0010
0100
1000
,
0002
0000
0000
0000
1003
0010
0110
0100
,
1001
0000
0000
0000
;
