#TITLE:PARANOiA Jazzy Groove + TRIP MACHINE CLIMAX + DEAD END;
#SUBTITLE:;
#ARTIST:Non Stop Mix Special;
#TITLETRANSLIT:;
#SUBTITLETRANSLIT:;
#ARTISTTRANSLIT:;
#GENRE:;
#CREDIT:;
#MUSIC:PARANOiA jazzy groove + TRIP MACHINE CLIMAX + DEAD END.ogg;
#BANNER:PARANOiA jazzy groove + TRIP MACHINE CLIMAX + DEAD END.png;
#BACKGROUND:PARANOiA jazzy groove + TRIP MACHINE CLIMAX + DEAD END-bg.png;
#CDTITLE:;
#SAMPLESTART:3.791;
#SAMPLELENGTH:15.000;
#SELECTABLE:YES;
#OFFSET:0.000;
#BPMS:0.000=189.922
,143.000=190.000
,179.500=116.000
,180.000=190.000
,208.000=184.000
,214.500=190.000
,284.500=200.280
;
#STOPS:;
#DISPLAYBPM:190.000:200.000;
#BGCHANGES:;
#FGCHANGES:;

//--------------- dance-single - ----------------
#NOTES:
     dance-single:
     :
     Beginner:
     6:
     0,0,0,0,0:
0000
0000
0000
0000
,
0000
0000
0000
0000
,
0000
0000
0000
0000
,
0000
0010
0010
0000
,
0000
0000
0000
0000
,
0000
0100
0100
0000
,
0000
0000
0000
0000
,
0000
1000
1000
0000
,
0000
0000
0000
0000
,
0000
0001
0001
0000
,
0000
0000
0000
0000
,
0010
0000
0010
0000
,
0100
0000
0010
0000
,
0001
0000
1000
0000
,
0010
0000
0010
0000
,
1000
0000
0010
0000
,
0100
0000
0100
0000
,
0001
0000
1000
0000
,
0001
0000
0010
0000
,
0100
0100
0100
0000
,
0010
0010
0010
0000
,
0001
0000
0010
0000
,
0001
0000
1000
0000
,
0100
0100
0100
0000
,
1000
1000
1000
0000
,
0001
0000
1000
0000
,
0010
0000
0100
0000
,
0010
0010
0010
0000
,
0000
0000
0000
0000
,
0100
0100
0100
0000
,
0000
0000
0000
0000
,
0001
0001
0001
0000
,
0000
0000
0000
0000
,
1000
0000
1000
0000
,
0001
0000
1000
0000
,
1001
0000
0000
1000
,
0000
0001
0000
1000
,
0000
0010
0010
0100
,
0000
0010
0000
0100
,
0000
0001
0001
0010
,
0000
0100
0000
1000
,
0000
0001
0001
1000
,
0000
0010
0000
1000
,
0000
0001
0001
0000
,
0000
0000
0000
0000
,
0100
0100
0100
0000
,
0000
0000
0000
0000
,
1000
1000
1000
0000
,
0001
0001
0001
0000
,
0110
0000
0010
0000
,
0000
0000
0000
0000
,
0110
0000
0100
0000
,
1000
0000
0001
0000
,
1000
0000
0000
0000
0000
0001
0000
1001
,
0000
0000
0000
1000
0000
0000
0000
0010
,
0000
0000
0000
0100
0000
0000
0000
0010
,
0000
0000
0000
0100
0000
0000
0000
0010
,
0000
0010
0000
1000
0000
0000
0000
0001
,
0000
0000
0000
0001
0000
0000
0000
1000
,
0000
0000
0000
0100
0000
0000
0000
0010
,
0000
0000
0000
0001
0000
0000
0000
0010
,
0000
0010
0000
0000
0000
0100
0000
0100
,
0000
0100
0000
0100
0000
0100
0000
0100
,
0000
0100
0000
0000
0000
0010
0000
0010
,
0000
0010
0000
0010
0000
0010
0000
0010
,
0000
0010
0000
0000
0000
0001
0000
0001
,
0000
0001
0000
0001
0000
0001
0000
0001
,
0000
0001
0000
0000
0000
1000
0000
1000
,
0000
1000
0000
1000
0000
1000
0000
1000
,
0000
1000
0000
0000
0000
0001
0000
0000
,
0000
1000
0000
1000
0000
1000
0000
1000
,
0000
0001
0000
0000
0000
0000
0000
0000
,
0000
0100
0000
0000
0000
0010
0000
0000
,
0000
0010
0000
0000
0000
0100
0000
0000
,
0000
0001
0000
0000
0000
0001
0000
0000
,
0000
1000
0000
0000
0000
0010
0000
0000
,
0000
0100
0000
0000
0000
0100
0000
0000
,
0000
0010
0000
0000
0000
0100
0000
0000
,
0000
0001
0000
0000
0000
1000
0000
0000
,
0000
0001
0000
0000
0000
1000
0000
0000
,
0010
0000
0000
0100
0000
0000
0001
0000
,
0000
1000
0000
0000
0100
0000
0000
0010
,
0000
0000
0000
0000
,
0000
0001
0000
0001
,
0000
1000
0000
0000
,
0000
1000
0000
1000
,
0000
0001
0000
0000
,
0000
1000
0000
0010
,
0000
0100
0000
0001
,
0000
0100
0000
0010
,
0000
1000
0000
0001
,
0000
1000
1000
1000
,
0000
0001
0000
1001
;

//--------------- dance-single - ----------------
#NOTES:
     dance-single:
     :
     Easy:
     10:
     0,0,0,0,0:
0000
0000
0000
0000
,
0000
0000
0000
0000
,
0000
0000
0000
0000
,
1001
0100
0100
0000
,
0000
0100
0010
0000
0010
0000
0000
0000
,
1001
0010
0010
0000
,
0000
0010
0100
0000
0100
0000
1000
0000
,
0000
1000
0100
0000
0010
0000
0001
0000
,
0000
0001
0000
0001
0000
0001
0000
0000
,
0000
0001
0100
0000
0010
0000
1000
0000
,
0000
1000
0001
0000
1000
0000
1000
0000
,
0001
0100
0010
1000
,
0100
0010
0100
1000
,
0001
0010
0001
1000
,
0010
1000
0010
0110
,
0100
0100
0001
0010
,
0001
0001
1000
0010
,
1000
0010
0000
1000
0000
1000
0000
0000
,
1000
1000
0001
0001
,
0010
0100
0010
0001
,
0100
0000
0010
0000
1000
0000
0010
1000
,
0001
1000
0100
0010
,
0001
0000
0100
0000
0010
0000
0100
0001
,
0010
0010
0100
0100
,
1000
0000
0100
0000
0010
0000
0010
0001
,
1000
1000
0001
0001
,
1000
0010
0100
0110
,
0010
0100
0000
0001
0000
0000
0000
0000
,
0000
0001
0100
0000
0000
0000
0100
0000
,
0010
1000
0000
1000
0000
0000
0001
0000
,
0000
0001
1000
0000
0100
0000
0010
0000
,
0001
1000
0000
1000
0000
0000
0010
0000
,
0000
0100
0000
0100
0000
0100
0000
0000
,
0101
0000
1100
0000
,
1000
0100
0010
0001
,
1000
0000
0000
0001
,
0001
0000
1000
0000
1000
0000
0010
0100
,
0010
0100
0100
0001
,
0001
0000
1000
0000
0010
0000
0000
1000
,
0000
1000
0000
0001
0000
0010
0000
0100
,
0010
0000
0010
0000
0100
0000
0010
0001
,
0010
0001
0001
1000
,
1000
0010
0010
0100
,
0100
0000
0000
0001
0000
0001
0000
1000
,
0000
1000
0000
0001
0000
1000
0000
0000
,
0001
0000
0000
1000
0000
0000
0010
0000
,
0000
0100
0000
0000
0010
0000
0100
0000
,
0010
0000
0000
0010
0000
0000
1000
0000
,
1001
0110
1001
0000
,
0010
0000
0000
0100
0000
0000
0010
0000
,
0100
0100
1000
0001
,
1000
1000
0010
0000
,
0100
0000
0001
0000
,
1000
0000
0000
0000
0100
0010
0000
0010
,
0000
0000
0100
0000
0000
0010
0000
0001
,
0000
0001
0000
1000
0000
1000
0000
0010
,
0000
0010
0000
0100
0000
0000
0100
0001
,
0000
1000
0000
1001
0000
0000
0000
0001
,
0000
0000
0000
1000
0000
0000
0000
1000
,
0000
0000
0000
0001
0000
0000
0000
0010
,
0000
0000
0000
0100
0000
0000
0000
0010
,
0000
0010
0000
0010
0000
0000
0100
0000
,
0100
0000
0100
0000
0100
0100
0000
0100
,
0000
0100
0000
0100
0000
0000
1000
0000
,
1000
0000
1000
0000
1000
1000
0000
1000
,
0000
1000
0000
1000
0000
0000
0010
0000
,
0010
0000
0010
0000
0010
0010
0000
0010
,
0000
0010
0000
0010
0000
0000
0001
0000
,
0001
0001
0001
0001
,
0001
0001
0000
0000
0000
1000
0000
0000
,
0000
0001
0000
0010
0000
0100
0000
1000
,
0000
0001
0000
0000
0000
0000
0000
0000
,
0000
0100
0000
0100
0000
0010
0000
0010
,
0000
1000
0010
1000
0000
0010
0000
0100
,
0000
0001
0000
0001
0000
0010
0000
0010
,
0000
0100
0010
0100
0000
0010
0000
0010
,
0000
0001
0000
0001
0000
1000
0000
1000
,
0000
0010
1000
0010
0000
1000
0000
0001
,
0000
1000
0100
1000
0000
0010
0000
0100
,
0000
0001
0010
0001
0000
0110
0000
0000
,
0000
0000
0000
1000
0000
0000
0000
0000
,
0000
0001
0000
0000
0000
0000
0000
1000
,
0000
0000
0000
0000
,
0000
1000
0000
1000
,
0000
0001
0000
0001
,
0000
1000
0000
1000
,
0000
0001
0000
0001
,
0000
1000
0010
0100
,
0001
1000
0010
0100
,
0001
0100
0010
1000
,
0001
0000
0100
0010
1000
0001
0100
0010
,
1000
0001
0001
0010
,
0100
1000
0001
1001
;

//--------------- dance-single - ----------------
#NOTES:
     dance-single:
     :
     Medium:
     12:
     0,0,0,0,0:
0000
0000
0000
0000
,
0000
0000
0000
0000
,
0000
0000
0000
0000
,
0100
0010
0000
0110
0000
0010
0000
0000
,
0000
0010
0100
0000
0100
0000
0001
0000
,
0001
1000
0000
1001
0000
1000
0000
0000
,
0000
1000
0100
0010
0001
0000
0100
0000
,
0000
0100
0010
0000
0010
1000
0000
1000
,
0001
0010
0000
0011
0000
0011
0000
0000
,
0001
0010
0000
1100
0000
0100
0000
0000
,
0000
0100
1000
0100
0010
0100
0010
0000
,
0001
0100
0010
0000
1000
0000
0010
0000
,
1000
0001
0100
0000
0001
0010
0100
0000
,
0010
0100
1000
0000
0100
0000
1000
0000
,
0001
1000
0010
0000
1000
0001
0100
0000
,
0010
0100
0001
0000
0100
0000
0010
0000
,
0100
0010
1000
0000
0010
0000
1000
0000
,
0001
1000
0010
0000
1000
0001
0010
0000
,
0100
0010
0100
0010
0100
0010
0100
0000
,
0011
1100
1010
0101
,
1000
0010
1000
0001
0100
0001
0010
0000
,
0110
0011
0110
1100
,
0100
1000
0010
0100
0001
0010
0100
0000
,
0010
0001
0010
0000
0100
0000
0010
0000
,
0100
1000
0100
0000
1000
0000
0010
0000
,
1000
0001
0100
0000
0001
1000
0100
0000
,
0010
0100
1000
0100
0010
0001
0100
0000
,
0010
0010
0000
1010
0000
1000
0000
0000
,
0001
0100
0000
0100
0000
0010
0000
0000
,
0100
0001
0000
0011
0000
0010
0000
0000
,
0010
0100
0010
0000
0100
0000
0100
0000
,
0100
1000
0000
1001
0000
0001
0000
0000
,
0000
0100
0000
0100
0000
0100
0000
0000
,
0010
1000
0000
1000
0100
0010
0000
0000
,
0010
0001
0000
0001
0100
0010
1000
0000
,
0001
0000
0000
1000
,
0010
0000
1000
0010
0100
0000
0001
0100
,
0010
1001
1001
0010
,
0100
0000
0010
1000
0100
0000
0010
0001
,
0000
0001
0000
1000
0000
1000
0000
0001
,
0100
0000
0001
1000
0001
0000
1000
0100
,
0010
0011
1100
0001
,
0001
1000
1000
0100
,
0100
0000
0010
0100
0010
0100
0000
0100
,
0000
0010
0000
0100
0010
0000
0100
0000
,
1000
0100
0000
1000
0000
1000
0000
0000
,
0010
1000
0010
0000
0100
0000
0100
0000
,
0001
1000
0000
0010
0000
0010
0000
0000
,
0101
1010
0101
0000
,
0010
0100
0000
0100
0000
0010
0000
0000
,
1000
0100
1000
0000
0001
0100
0001
0000
,
1000
0001
0010
0000
0100
0000
0010
0000
,
0001
0000
0010
0000
0011
0000
1000
0000
0100
0000
1100
0000
,
1000
0000
0000
0000
0001
0000
0000
0000
0101
0000
0000
0000
0001
0000
0000
1000
0000
0000
0000
0000
0000
1010
0000
0000
,
0000
0010
0100
0000
0100
0000
0001
0000
,
0010
0000
0100
0010
0001
0000
0001
0000
,
1000
0000
1000
0000
0010
0000
1000
0010
,
0100
0001
0000
1001
0000
1000
0100
0000
,
0100
1000
0010
0000
0010
0100
0001
0000
,
0001
0010
0100
0000
1000
0100
0010
0000
,
0010
0001
1000
0000
0001
0000
1000
1000
,
1000
0010
0000
0110
0000
0100
0001
0001
,
0001
0001
0001
0001
0001
0001
0001
0001
,
0001
0001
0000
0010
0000
0100
1000
1000
,
1000
1000
1000
1000
1000
1000
1000
1000
,
1000
1000
0000
0001
0000
1000
0010
0010
,
0010
0010
0010
0010
0010
0010
0010
0010
,
0010
0010
0000
0100
0000
0001
0100
0100
,
0100
0100
0100
0100
0100
0100
0100
0100
,
0100
0010
0000
0000
0000
0100
0000
0000
,
0000
1010
0000
0101
0000
0011
0000
1100
,
0000
1001
0000
0000
0000
0000
0000
0000
,
0000
0001
0100
0010
0000
0100
0000
0010
,
0000
0100
0010
1000
0000
0010
1000
0000
,
1000
0001
0010
0100
0000
0010
0000
0100
,
0000
0010
0001
0100
0000
0010
1000
0000
,
0100
1000
0010
1000
0000
0001
0000
0100
,
0000
0001
0100
0010
0000
0100
0000
0010
,
0000
1000
0001
1000
0000
0001
0000
1000
,
0000
0100
0010
0001
0000
0110
0000
0000
,
1100
0000
0000
0110
0000
0000
0101
0000
,
0000
1010
0000
0000
0101
0000
0000
1001
,
0000
0000
0000
0000
,
0000
0000
1000
0000
1000
0100
0000
0100
,
0010
0000
0001
0000
0001
0100
0000
0100
,
0010
0000
0100
0000
0010
1000
0000
1000
,
0010
0100
0001
0000
0001
1000
0001
0000
,
1001
0000
1000
0100
1000
0000
0001
0100
,
0001
0000
1000
0010
0100
0000
0001
0100
,
0010
0000
0100
0001
0010
0100
1000
0010
,
0001
0010
1000
0100
0010
0001
0010
0100
,
1000
0000
0000
0000
1001
0000
0000
1001
0000
0000
1001
0000
0000
0000
0001
0000
,
0100
0000
0010
0000
0110
0000
0000
0110
0000
0000
1000
0000
0001
0000
0000
0000
;

//--------------- dance-single - ----------------
#NOTES:
     dance-single:
     :
     Hard:
     15:
     0,0,0,0,0:
0000
0000
0000
0000
,
0000
0000
0000
0000
,
0000
0000
0000
0000
,
1000
0010
0000
0110
0000
0110
0000
0000
,
0001
0100
0010
1000
0010
0100
0001
0000
,
0010
0001
0000
0011
0000
0011
0000
0000
,
0100
1000
0100
0001
0100
1000
0010
0100
,
0001
0001
0100
0010
1000
1000
0001
0000
,
1000
0010
0000
1001
0000
1010
0000
0000
,
1000
1000
0010
0100
0001
1000
0001
0000
,
0010
0100
0010
0000
1100
0000
0011
0000
,
0100
1000
0010
0100
0001
0100
0010
1000
,
0001
0010
0001
0010
0100
1000
0001
1000
,
0010
1000
0001
0010
0001
1000
0100
1000
,
0010
0100
0001
0010
0001
1000
0010
0010
,
0100
0001
0010
0001
1000
0100
0010
0100
,
1000
0100
1000
0001
0100
0001
0100
0010
,
1000
0001
1000
0001
0010
0010
0100
0100
,
1000
0100
0010
0001
0010
0100
1001
0000
,
0010
1000
0001
0010
1000
0010
0001
1000
,
0010
0100
0010
0100
0001
0100
0001
0100
,
1000
0100
0001
1000
0100
0010
0001
1000
,
0100
0010
0100
0010
0100
1000
0100
1000
,
0001
0100
0010
1000
0010
0100
0001
1000
,
0100
0010
0001
1000
0010
1000
0001
0100
,
0001
1000
0001
1000
0100
0010
0100
0010
,
0001
0010
0100
1000
0100
0010
0001
1000
,
0001
0101
0000
0100
0000
0100
0000
0000
,
0010
0100
0010
0100
0010
0100
0010
0000
,
1000
1010
0000
0010
0000
0010
0000
0000
,
1000
0001
1000
0001
1000
0001
0010
0000
,
0100
0011
0000
0001
0000
1000
0000
0000
,
0001
1100
0000
1000
0000
0001
0000
0000
,
1010
0010
0000
0100
0101
0100
0000
0001
,
1001
1000
0100
0010
0011
0001
1000
0000
,
1001
0000
0000
0000
0000
0000
0010
1000
,
0010
0000
0100
0000
0001
0010
0001
0000
0100
0000
0010
0000
1000
0000
0100
0000
,
0010
0001
1100
0000
0101
0000
1000
0010
,
0100
0000
0001
0000
1000
0100
1000
0000
0001
0000
0100
0000
0010
0000
0101
0000
,
0000
1010
0000
0011
0000
1100
0000
0010
,
0010
0000
0000
0000
0100
0010
0100
0000
0010
0000
0100
0000
1000
0000
1000
0000
,
0001
0001
0101
0000
1100
0000
0001
0010
,
0001
0000
0100
0000
0010
1000
0010
0000
0100
0000
0001
0000
1000
0000
0001
0000
,
0010
0100
1000
0010
0100
0010
0000
0010
,
0000
0000
0010
0000
1000
0010
0000
0010
0000
0010
0100
0000
0001
0100
0010
0000
,
1000
0010
0100
0001
0000
0001
1000
0000
,
0001
0010
0001
0010
0100
1000
0100
1000
,
0001
1000
0010
0100
0000
0100
0001
0000
,
0001
0001
1000
1000
1001
0000
0110
0000
,
0010
0001
0010
0100
0000
0100
1000
0000
,
0001
1000
0001
1000
0010
0100
0001
1000
,
0100
0001
0100
0001
0100
1000
0001
0000
,
1010
0000
0101
0000
1100
0000
0011
0000
1010
0000
0101
0000
,
1100
0000
0000
0000
0110
0000
0000
0000
1001
0000
0000
0000
1010
0000
0000
0101
0000
0000
0000
0000
0000
0110
0000
0000
,
0000
0100
0010
1000
0001
0010
0001
0010
,
0001
1000
0010
1000
0001
0010
0100
0010
,
0100
1000
0001
1000
0001
1000
1000
0010
,
0010
0110
0000
1001
0000
0001
0100
0001
,
1000
0100
0010
0100
1000
0001
0010
0001
,
1000
0010
1000
0001
0100
0010
0100
0001
,
0100
0010
1000
0010
0100
0001
0001
1000
,
1000
1001
0000
0110
0000
0010
0010
0010
,
0010
0010
0010
0010
0010
0010
0010
0010
,
0010
0010
0010
0000
0010
0100
0100
0100
,
0100
0100
0100
0100
0100
0100
0100
0100
,
0100
0100
0100
0000
0100
0001
0001
0001
,
0001
0001
0001
0001
0001
0001
0001
0001
,
0001
0001
0001
0000
0001
1000
1000
1000
,
1000
1000
1000
1000
1000
1000
1000
1000
,
1000
0010
1000
0010
0000
0100
0001
0100
,
0000
0011
0000
1100
0000
1010
0000
0101
,
0000
1001
0000
0000
0000
0000
0000
0000
,
0000
1000
0100
0010
0100
0010
0001
0100
,
0000
0001
0100
0010
1000
0010
1000
0001
,
0000
1000
0001
0010
0001
0100
0001
0010
,
0000
0001
0010
0001
0100
0010
1000
0100
,
0010
0100
1000
0010
0000
0100
0001
0010
,
0000
0001
1000
0010
0000
1000
0010
0100
,
0001
0100
0010
1000
0000
0001
0010
0100
,
0000
1000
0100
0010
0000
0001
0010
0100
,
0001
0100
0010
1000
0100
0010
1000
0010
,
0100
1000
0100
0001
1000
0010
0001
0010
,
1000
0100
0010
0001
0100
0010
1000
0000
,
1000
0000
0001
0010
0100
1000
0000
1001
,
0000
0001
1000
0010
0100
0001
0000
1001
,
0000
0100
0010
1000
0100
0010
0000
0110
,
0000
0010
0001
1000
0010
0100
0000
0101
,
0000
0001
0100
0010
0100
1000
0100
0001
,
0010
1000
0010
0001
0010
0100
1000
0100
,
0010
0001
1000
0010
1000
0010
0100
0001
,
0100
0001
1000
0010
0100
0001
0100
0010
,
1000
0000
0001
0000
1001
0000
0000
1001
0000
0000
0110
0000
0000
0000
0010
0000
,
1000
0000
0100
0000
0011
0000
0000
1100
0000
0000
0101
0000
1001
0000
0000
0000
;
