#TITLE:One Love;
#SUBTITLE:;
#ARTIST:Blue;
#TITLETRANSLIT:;
#SUBTITLETRANSLIT:;
#ARTISTTRANSLIT:;
#GENRE:;
#CREDIT:;
#BANNER:One Love.png;
#BACKGROUND:One Love-bg.png;
#LYRICSPATH:;
#CDTITLE:ZIPMania DX.png;
#MUSIC:One Love.ogg;
#OFFSET:0.000000;
#SAMPLESTART:52.710999;
#SAMPLELENGTH:15.000000;
#SELECTABLE:YES;
#BPMS:0.000000=95.000000
;
#STOPS:
;
#BGCHANGES:0.000=One Love.mp4=1.000=0=0=1=====,
99999=-nosongbg-=1.000=0=0=0 // don't automatically add -songbackground-
;
#KEYSOUNDS:;
#ATTACKS:;

//---------------dance-single - ----------------
#NOTES:
     dance-single:
     :
     Beginner:
     1:
     0.082216,0.117054,0.029263,0.019509,0.000000,59.000000,56.000000,3.000000,2.000000,0.000000,0.000000,0.082216,0.117054,0.029263,0.019509,0.000000,59.000000,56.000000,3.000000,2.000000,0.000000,0.000000:
0000
0000
0000
0000
,
0000
0000
0000
0000
,
0000
0000
0000
0000
,
0000
0000
0000
0000
,
0000
0000
0000
0000
,
0100
0100
0000
0000
,
0001
0000
0000
0000
,
1000
1000
0000
0000
,
0010
0000
0000
0000
,
0001
0001
0000
0000
,
0010
0000
0000
0000
,
1000
1000
0000
0000
,
0100
0000
0000
0000
,
0010
0000
0010
0000
,
0001
0000
0001
0000
,
1000
0000
0000
0000
,
0100
0000
0100
0000
,
1000
0000
1000
0000
,
0001
0000
0000
0000
,
0100
0000
0010
0000
,
1000
0000
0000
0000
,
1001
0000
0000
0001
,
0001
0000
0000
1000
,
1000
0000
0000
0100
,
0100
0000
0010
0000
,
0110
0000
0000
1000
,
1000
0000
0000
0001
,
0001
0000
0000
0000
,
0010
0000
0100
0000
,
0010
0000
0100
0000
,
0010
0000
0000
0000
,
1000
0000
1000
0000
,
1000
0000
0000
0000
,
0001
0000
0001
0000
,
0001
0000
0000
0000
,
0100
0000
0100
0000
,
0100
0000
0000
0000
,
0010
0000
0010
0000
,
0010
0000
0000
0000
,
2002
0000
0000
0000
,
3003
0000
0000
0000
;

//---------------dance-single - ----------------
#NOTES:
     dance-single:
     :
     Easy:
     3:
     0.136563,0.195090,0.078036,0.068281,0.000000,98.000000,90.000000,8.000000,7.000000,0.000000,0.000000,0.136563,0.195090,0.078036,0.068281,0.000000,98.000000,90.000000,8.000000,7.000000,0.000000,0.000000:
0000
0000
0000
0000
,
0000
0000
0000
0000
,
0000
0000
0000
0000
,
0000
0000
0000
0000
,
0000
0000
0000
0000
,
0100
1000
0010
0000
,
0001
0000
0000
0000
,
0010
0001
0100
0000
,
1000
0000
0000
0000
,
0001
1000
0100
0000
,
0010
0000
0000
0000
,
1000
0001
0010
0000
,
0100
0000
0000
0000
,
1000
1000
0010
0000
,
0010
0010
0100
0000
,
0100
0100
0001
0000
,
1000
0000
0000
0000
,
0001
0001
0010
0000
,
0010
0010
0100
0000
,
0100
1000
1000
0000
,
0001
0000
0000
0000
,
2001
0000
3010
0010
,
0200
0000
0001
0301
,
0020
0000
0100
0130
,
0010
0000
0001
1000
,
1002
0000
0100
0103
,
0020
0000
1000
1030
,
0200
0000
0010
0310
,
0000
0001
0001
0100
,
0010
0000
0010
0000
,
1000
0010
0100
0001
,
1100
0001
1000
0000
,
0101
1000
0001
0000
,
1010
0001
0010
0000
,
0100
0000
0010
0000
,
1010
0001
0100
0000
,
0011
1000
0100
0000
,
1100
0001
0100
0000
,
0010
0000
0100
0100
,
0002
0000
0000
0000
,
0003
0000
0000
0000
;

//---------------dance-single - ----------------
#NOTES:
     dance-single:
     :
     Medium:
     6:
     0.214599,0.253616,0.029263,0.048772,0.043895,154.000000,151.000000,3.000000,5.000000,0.000000,0.000000,0.214599,0.253616,0.029263,0.048772,0.043895,154.000000,151.000000,3.000000,5.000000,0.000000,0.000000:
// measure 0
0000
0000
0000
0000
,  // measure 1
0000
0000
0000
0000
,  // measure 2
0000
0000
0000
0000
,  // measure 3
0000
0000
0000
0000
,  // measure 4
0000
0000
0000
0000
,  // measure 5
0010
0001
0010
0000
0100
0000
1000
0000
,  // measure 6
0001
0000
0000
0100
,  // measure 7
0010
1000
0010
0000
1000
0000
0001
0000
,  // measure 8
0100
0000
0000
0001
,  // measure 9
1000
0100
1000
0000
0100
0000
1000
0001
,  // measure 10
0010
0000
0000
0001
,  // measure 11
0100
0010
1000
0000
0000
1000
0010
0100
,  // measure 12
0001
0000
0000
0000
0010
0000
0100
0010
,  // measure 13
0001
0000
0000
0001
0100
0000
0010
0000
,  // measure 14
1000
0000
0000
1000
0100
0000
0010
0000
,  // measure 15
0001
0000
0000
0000
0000
0000
0000
0000
1000
0000
0000
1000
0000
0000
1000
0000
,  // measure 16
0010
0100
0100
0000
,  // measure 17
0001
0000
0001
1000
0100
0000
0000
0100
,  // measure 18
1000
0000
1000
0001
0100
0000
0000
0100
,  // measure 19
0010
0000
0000
0000
0000
0000
0000
0000
0100
0000
0000
0100
0000
0000
0100
0000
,  // measure 20
0001
0000
0001
0000
1000
0000
0000
0010
,  // measure 21
0220
0000
0330
1000
0100
1000
0100
0000
,  // measure 22
0010
0000
0000
0001
0100
0001
0100
0000
,  // measure 23
0010
0000
0000
1000
0001
1000
0001
0000
,  // measure 24
0010
0000
0000
0000
0100
0100
0100
0000
,  // measure 25
2002
0000
3003
1000
0010
1000
0010
0000
,  // measure 26
0100
0000
0000
0001
0010
0001
0010
0000
,  // measure 27
0100
0000
0000
1000
0001
0100
0010
0000
,  // measure 28
0000
0010
0010
0000
0100
0100
0010
0000
,  // measure 29
1001
0000
0000
0100
0001
0000
0000
1000
,  // measure 30
0001
0000
0000
0001
0000
0000
0001
0000
0010
0000
0000
0000
0100
0000
0000
0000
,  // measure 31
1000
0000
0000
1000
0000
0000
0100
0000
1000
0000
0000
0000
0000
0000
0000
0000
,  // measure 32
0100
0000
0000
0100
0000
0000
1000
0000
0100
0000
0000
0000
0000
0000
0000
0000
,  // measure 33
1000
0000
0000
1000
0000
0000
0010
0000
1000
0000
0000
0000
0001
0000
0000
0000
,  // measure 34
0100
0000
0000
0100
0010
0000
0100
0000
,  // measure 35
0001
0000
0000
0001
0000
0000
0010
0000
0001
0000
0000
0000
0000
0000
0000
0000
,  // measure 36
0010
0000
0000
0010
0000
0000
0001
0000
0010
0000
0000
0000
0000
0000
0000
0000
,  // measure 37
0001
0000
0000
0001
0000
0000
0100
0000
0001
0000
0000
0000
0100
0000
0000
0000
,  // measure 38
0010
0000
1000
0010
0100
0001
0010
0100
,  // measure 39
2000
0000
0000
0000
,  // measure 40
3000
0000
0000
0000
;

//---------------dance-single - ----------------
#NOTES:
     dance-single:
     :
     Hard:
     9:
     0.330259,0.370670,0.068281,0.009754,0.175581,237.000000,230.000000,7.000000,1.000000,0.000000,0.000000,0.330259,0.370670,0.068281,0.009754,0.175581,237.000000,230.000000,7.000000,1.000000,0.000000,0.000000:
// measure 0
0000
0000
0000
0000
,  // measure 1
0000
0000
0000
0000
,  // measure 2
0000
0000
0000
0000
,  // measure 3
0000
0000
0000
0000
,  // measure 4
0000
0000
0000
0000
,  // measure 5
1000
0010
1000
0000
0100
0010
0001
1000
,  // measure 6
0010
0000
0100
0000
0000
0001
0001
0100
,  // measure 7
0010
0000
0000
1000
0000
0000
0010
0000
0000
0000
0000
0000
1000
0000
0000
0001
0000
0000
0010
0000
0010
0100
0000
0000
,  // measure 8
0010
0000
0001
0000
0000
1000
0100
0010
,  // measure 9
0100
0100
1000
0000
0001
1000
0100
0010
,  // measure 10
0001
0000
1000
0000
0000
1000
0001
0001
,  // measure 11
0010
0000
0000
0010
0000
0000
0100
0000
0000
0000
0000
0000
0010
0000
0000
0100
0000
0100
1000
0000
0000
0001
0000
0000
,  // measure 12
0100
0000
0010
0000
0000
1000
0001
1000
,  // measure 13
0010
0000
0000
0010
0000
0000
0010
0000
0100
0000
0000
0000
0001
0000
1000
0000
,  // measure 14
0100
0000
0000
0100
0000
0000
0100
0000
0010
0000
0001
0000
0000
0000
0001
0000
,  // measure 15
1000
0000
0000
0000
0010
0000
0000
0000
0100
0000
0100
0010
0000
0010
1000
0000
,  // measure 16
0001
0000
0001
1000
0100
0100
0010
0001
,  // measure 17
1000
0000
0000
1000
0000
0000
1000
0000
0100
0000
0000
0000
1000
0000
0001
0000
,  // measure 18
0100
0000
0000
0100
0000
0000
0100
0000
0010
0000
1000
0000
0000
0000
1000
0000
,  // measure 19
0001
0000
0000
0000
0001
0000
0000
0000
0010
0000
0010
0100
0000
0100
0010
0000
,  // measure 20
0001
0000
0000
0001
0100
0100
0010
1000
,  // measure 21
1001
0000
0000
0000
0000
0000
1000
0000
0001
1000
0000
1000
0100
0000
0010
0000
,  // measure 22
1001
0000
0000
0000
0000
0000
0100
0000
0010
1000
0000
1000
0001
0000
0100
0000
,  // measure 23
1001
0000
0000
0000
0000
0000
0010
0001
0010
0000
0100
1000
0000
0000
0001
0000
,  // measure 24
0000
0000
0001
0000
0000
0000
1000
0000
0010
0000
0010
0100
0000
0000
0001
0000
,  // measure 25
1001
0000
0000
0000
0000
0000
0100
0000
0001
0010
0000
0010
0100
0000
0010
0000
,  // measure 26
1001
0000
0000
0000
0000
0000
0001
0000
1000
0010
0000
0010
0100
0000
0001
0000
,  // measure 27
1001
0000
0000
0000
0000
0000
0100
1000
0100
0000
0010
0001
0000
0000
0010
0000
,  // measure 28
0000
0001
0001
0001
0100
0010
1001
0000
,  // measure 29
1000
0000
0000
1000
0100
0000
0000
1000
,  // measure 30
0001
0000
0000
0001
0000
0000
0001
0000
0100
0000
0000
0000
0010
0000
0010
0000
,  // measure 31
1000
0000
0001
0100
0000
0100
0001
0000
1000
0000
0100
0000
1000
0000
0000
0000
,  // measure 32
0001
0000
1000
0010
0000
0010
1000
0000
0010
0000
0010
0000
0100
0000
0100
0000
,  // measure 33
0001
0000
1000
0001
0000
1000
0100
0000
0010
0000
0010
0000
0100
0000
0100
0000
,  // measure 34
1000
0000
0000
1000
0001
0000
0001
0001
,  // measure 35
0100
0000
0100
0001
0000
0100
0010
0000
1000
0000
0100
0000
1000
0000
0000
0000
,  // measure 36
0010
0000
0010
0100
0000
0010
1000
0000
0001
0000
0100
0000
0010
0000
1000
0000
,  // measure 37
0001
0000
0010
0100
0000
1000
0001
0000
0100
0000
0010
0000
0100
0000
0010
0000
,  // measure 38
1000
0000
0001
0100
0010
0010
1000
0001
,  // measure 39
0020
0000
0000
0000
,  // measure 40
0030
0000
0000
0000
;
