#VERSION:0.83;
#TITLE:Nigra Ludia -ゲット&プレー宣伝用唱歌版-;
#SUBTITLE:;
#ARTIST:Akhuta rejected by Akhuta;
#TITLETRANSLIT:;
#SUBTITLETRANSLIT:;
#ARTISTTRANSLIT:;
#GENRE:;
#ORIGIN:;
#CREDIT:;
#BANNER:Nigra Ludia -Try to Sing Ver-.png;
#BACKGROUND:Nigra Ludia -Try to Sing Ver--bg.png;
#PREVIEWVID:;
#JACKET:Nigra Ludia -Try to Sing Ver--jacket.png;
#CDIMAGE:;
#DISCIMAGE:;
#LYRICSPATH:;
#CDTITLE:;
#MUSIC:Nigra Ludia -Try to Sing Ver-.ogg;
#OFFSET:0.000000;
#SAMPLESTART:63.035000;
#SAMPLELENGTH:15.000000;
#SELECTABLE:YES;
#BPMS:0.000=177.000;
#STOPS:;
#DELAYS:;
#WARPS:;
#TIMESIGNATURES:0.000=4=4;
#TICKCOUNTS:0.000=4;
#COMBOS:0.000=1;
#SPEEDS:0.000=1.000=0.000=0;
#SCROLLS:0.000=1.000;
#FAKES:;
#LABELS:0.000=Song Start;
#BGCHANGES:;
#KEYSOUNDS:;
#ATTACKS:
;

//---------------dance-single - ----------------
#NOTEDATA:;
#CHARTNAME:;
#STEPSTYPE:dance-single;
#DESCRIPTION:;
#CHARTSTYLE:;
#DIFFICULTY:Beginner;
#METER:6;
#RADARVALUES:0.237037,0.325556,0.138272,0.207407,0.000000,168.000000,154.000000,14.000000,21.000000,0.000000,0.000000,0.000000,0.000000,0.000000,0.237037,0.325556,0.138272,0.207407,0.000000,168.000000,154.000000,14.000000,21.000000,0.000000,0.000000,0.000000,0.000000,0.000000;
#CREDIT:;
#NOTES:
0000
0000
0000
0000
,
0000
0000
0000
0000
,
0000
0000
0000
0000
,
0000
0000
0000
0000
,
0002
0003
0000
2000
,
3000
0000
0020
0030
,
0000
0220
0000
0000
,
0330
0000
0001
0000
,
0001
0000
1000
0000
,
1000
0000
0010
0000
,
0010
0000
0100
0100
,
0100
0000
0010
0000
,
0010
0000
1000
0000
,
1000
0000
0001
0000
,
0001
0000
0010
0000
,
0020
0000
0000
0030
,
0010
0010
0010
0000
,
0001
0000
1000
0000
,
0010
0000
1000
0000
,
0100
0100
0100
0000
,
0010
0000
0100
0100
,
0100
0000
1000
1000
,
1000
0000
0001
0001
,
0001
0000
0100
0100
,
0100
0000
0010
0000
,
1000
0000
0001
0000
,
1001
0000
0001
0001
,
0001
0000
1000
0000
,
0001
0000
1000
1000
,
1000
0000
0010
0000
,
0100
0000
0010
0010
,
0010
0000
0100
0100
,
0100
0000
0010
0000
,
1000
0000
0001
0000
,
0100
0000
0110
0000
,
0110
0000
0010
0010
,
0010
0000
1001
0000
,
1001
0000
0001
0001
,
0001
0000
1001
0000
,
0110
0000
0100
0100
,
0100
0000
0110
0000
,
1001
0000
1000
1000
,
1000
0000
0002
0000
,
0000
0000
0003
0000
,
0000
0000
0010
0000
,
0100
0000
0010
0010
,
0010
0000
0100
0000
,
1000
0000
0100
0100
,
0100
0000
1000
0000
,
0001
0000
1000
1000
,
1000
0000
0001
0000
,
1000
0000
0001
0001
,
0001
0000
0100
0000
,
0010
0000
1000
1000
,
1000
0000
0001
0000
,
1000
0000
0010
0000
,
0010
0000
1000
0000
,
0001
0000
0010
0000
,
0100
0000
0001
0001
,
0001
0000
1000
1000
,
1000
0000
0010
0000
,
0100
0000
0110
0110
,
0110
0000
2000
3000
,
2000
3000
2000
0000
,
3000
0000
0002
0003
,
0002
0003
0002
0000
,
0003
0000
0020
0030
,
0020
0030
0020
0000
,
0030
0000
0200
0300
,
0200
0300
0100
0100
,
0200
0300
0100
0000
,
0010
0000
1000
0000
,
0001
0000
1000
0001
,
2002
3003
0000
0000
;

//---------------dance-single - ----------------
#NOTEDATA:;
#CHARTNAME:;
#STEPSTYPE:dance-single;
#DESCRIPTION:;
#CHARTSTYLE:;
#DIFFICULTY:Easy;
#METER:11;
#RADARVALUES:0.506526,0.651111,0.641975,0.217284,0.024691,359.000000,294.000000,65.000000,22.000000,0.000000,0.000000,0.000000,0.000000,0.000000,0.506526,0.651111,0.641975,0.217284,0.024691,359.000000,294.000000,65.000000,22.000000,0.000000,0.000000,0.000000,0.000000,0.000000;
#CREDIT:;
#NOTES:
0000
0000
0000
0000
,
0000
0000
0000
0000
,
0000
0000
0000
0000
,
0000
0000
0000
0000
,
0001
0001
0001
1000
,
1000
0000
1000
0000
1001
0000
0000
0110
,
0000
2002
0000
0000
,
0000
0000
3003
0000
1000
0000
1000
0010
,
1000
0000
1000
0000
0001
0000
0001
0100
,
0001
0001
0010
0010
,
0100
0010
0100
0000
1000
0100
0010
0001
,
1000
1000
0010
0010
,
0100
0001
0100
0000
0010
0000
0010
0000
,
1000
0100
1000
0000
0011
0000
0000
1100
,
0000
0000
1010
0000
0000
0101
0000
0000
,
0220
0000
0000
0030
,
0001
0301
0010
0100
,
0010
0001
0100
0000
0010
1000
0100
0000
,
1000
0001
0100
0000
0010
0000
0010
0000
,
1000
0010
0001
0000
0001
0010
1000
0010
,
1000
1100
1010
1010
,
1100
0011
0101
0101
,
0110
0000
1001
0000
1000
0100
1000
0000
,
0001
0010
0001
0000
0010
0000
0100
0000
,
0010
0010
0100
0000
2100
0000
3020
0000
,
0230
0302
2003
0100
,
0010
3100
0010
0100
,
0010
0001
0100
0000
0010
0100
0001
0000
,
0100
0010
1000
0000
0001
0000
1000
0000
,
0100
1000
0010
0000
1000
0010
0100
0000
,
0001
0100
0010
0000
1000
0000
1000
0100
,
0000
0100
1000
0000
0001
0000
0001
0010
,
0000
0010
0001
0000
0010
0000
0010
0000
,
0100
0010
0100
0000
0100
0000
1000
0000
,
0001
0101
0110
1010
,
1001
0000
0000
1001
0000
0000
0011
0000
,
1001
1100
1010
0110
,
1001
0000
0000
0101
0000
0000
1100
0000
,
1010
1001
0011
0110
,
1100
0000
0000
0110
0000
0000
1001
0000
,
1010
0011
1100
0100
,
0011
0000
0000
0100
0000
0000
1010
0000
0000
0100
0000
0100
,
0001
0000
0001
1000
0000
0000
2002
0000
0000
0000
0000
0000
,
0000
3000
0020
0000
,
0000
0033
0110
0000
,
1001
0000
0110
1001
,
0220
0000
0330
0000
0100
0000
0010
1000
,
0010
0000
0100
0000
0001
0000
1000
0001
,
1000
0000
0000
0000
0001
0000
0010
0001
,
0100
0000
0010
0000
1000
0000
0100
1000
,
0010
0000
2010
0100
,
0001
3100
0012
1000
,
0010
0103
0010
0010
,
0100
0000
0100
0000
0001
0100
0010
1000
,
0001
0000
0110
0100
,
0001
0000
1000
0000
0100
0000
0010
0001
,
1000
0000
1001
1000
,
0010
0000
0100
0000
0001
0000
0100
0010
,
1000
0000
2100
0010
,
0001
3100
0012
0100
,
1000
0103
0010
0010
,
0100
0100
1100
0101
,
2002
3003
0010
0010
,
0100
0010
0100
0000
0010
0000
0010
0000
,
1000
0010
1000
0000
0001
0000
0001
0000
,
0010
0001
0010
0000
0001
0010
0001
0000
,
1000
0100
1000
0000
0100
1000
0010
0000
,
0110
0000
0000
0000
0001
0100
0010
0000
,
1001
0000
1000
0100
,
0010
0000
0001
0000
0010
0100
1000
0001
,
0100
0000
0000
0010
0000
0010
1000
0000
1000
0001
0000
0001
,
0010
0100
0011
0100
,
1010
0100
1001
0110
,
2002
3003
0000
0000
;

//---------------dance-single - ----------------
#NOTEDATA:;
#CHARTNAME:;
#STEPSTYPE:dance-single;
#DESCRIPTION:;
#CHARTSTYLE:;
#DIFFICULTY:Medium;
#METER:14;
#RADARVALUES:0.726631,0.723457,0.592593,0.217284,0.227160,515.000000,455.000000,60.000000,22.000000,0.000000,0.000000,0.000000,0.000000,0.000000,0.726631,0.723457,0.592593,0.217284,0.227160,515.000000,455.000000,60.000000,22.000000,0.000000,0.000000,0.000000,0.000000,0.000000;
#CREDIT:;
#NOTES:
0000
0000
0000
0000
,
0000
0000
0000
0000
,
0000
0000
0000
0000
,
0000
0000
0000
0000
,
1000
0100
1000
0100
0010
0001
1000
0010
,
1000
0010
0100
0001
2200
0000
3300
0202
,
0000
0303
2002
0000
0000
0000
0000
0000
,
3003
0000
1001
0000
0001
0100
0001
0100
,
0010
0100
0010
0100
0001
0010
0001
0010
,
0100
0010
0100
0010
0001
1000
0001
1000
,
0010
0000
0100
0000
0010
0000
0100
0000
0001
0010
0001
0000
0100
0010
0100
0000
,
0010
1000
1001
0000
1000
0100
1000
0100
,
0010
0100
0010
0100
1000
0010
1000
0010
,
0100
0010
0100
0010
1001
0000
0010
1100
,
0000
0010
0101
0000
0100
1010
0000
0100
,
0022
0000
0000
0030
,
1000
0000
1003
0000
0001
0001
0100
1000
,
0100
0001
1000
0100
0010
0010
0001
0010
,
0100
0100
1000
0001
1000
1000
0010
0100
,
0001
0000
0001
0000
0100
0000
0100
0000
0010
0000
0010
0000
1000
0100
1000
0000
,
0001
0010
1100
0000
1100
1000
0010
0000
,
0011
0001
0100
0001
1000
0100
0011
0000
,
1010
1000
0001
0100
0010
0010
1100
1000
,
0100
0100
0011
0001
1000
0001
1000
0001
,
0100
0010
0110
0000
1100
0000
1000
0000
,
0101
0001
0110
1001
,
0220
0000
0330
0000
0010
0100
1000
0100
,
0010
0001
1000
1000
0010
0100
0001
0100
,
0010
0000
0010
0000
1000
0000
1000
0000
0001
0010
0001
0000
0100
0000
0010
0000
,
1000
0000
0001
0000
0001
0000
1000
0000
0010
1000
0010
0000
0100
0000
0001
0000
,
0100
0010
0010
1000
0001
0001
0010
0100
,
0100
0010
0011
0000
1100
1000
1000
0010
,
0010
0100
1010
0000
1000
0010
1000
0010
,
0100
0001
0100
0001
0100
0100
0100
0100
,
0010
0000
0000
0010
0000
0000
0100
0000
0011
0000
0000
0000
1100
0000
0000
0000
,
1001
0000
0000
1100
0000
0000
0101
0000
0000
0000
0010
0000
0010
0000
1000
0000
,
0001
0000
0000
0010
0000
0000
0100
0000
1001
0000
0000
0000
0110
0000
0000
0000
,
1010
0000
0000
0100
0000
0000
0011
0000
0000
0000
0001
0000
0001
0000
0010
0000
,
1000
0010
0001
0100
1001
0000
0110
0000
,
1010
0000
0000
1000
0000
0000
0101
0000
0000
0000
0001
0000
0001
0000
1000
0000
,
0100
0001
0100
1000
0001
0100
0100
1000
,
0100
0000
0000
0100
0000
0000
0001
0000
0000
0010
0000
0000
0010
0000
0000
1000
0000
0000
0010
0000
0010
0000
0001
0000
,
0100
0100
1000
0100
0100
0001
2000
0000
0000
0000
0000
0000
,
0000
0000
0002
0000
,
0000
3003
1001
0000
,
0110
0000
1001
0110
,
2002
0000
0000
0000
3003
0000
0000
0000
0011
0000
0000
0100
0000
0000
1000
0000
,
0001
0000
0000
0100
0000
0000
0010
0000
1000
0000
0000
0010
0000
0000
0100
0000
,
0001
0000
0001
0000
1000
0000
0000
0000
0101
0000
0000
0100
0000
0000
0010
0000
,
1000
0000
0000
0001
0000
0000
0010
0000
0100
0000
0000
1000
0000
0000
0100
0000
,
0010
0000
0010
0000
0001
0000
1000
0000
0010
0000
0000
0100
0010
0000
1000
0000
,
0001
0000
0001
0000
0010
0000
0100
0000
1000
0000
0000
1000
0100
0000
0010
0000
,
0001
0000
0001
0000
1000
0000
0010
0000
0100
0000
0000
0100
0001
0000
0100
0000
,
0010
0000
0000
0010
1000
0000
0001
0000
0010
0000
0000
0010
0100
0000
1000
0000
,
0001
0000
0001
0000
1001
0000
0000
0000
0101
0000
0000
0100
0000
0000
0010
0000
,
1000
0000
0000
0001
0000
0000
0010
0000
0100
0000
0000
1000
0000
0000
0001
0000
,
0100
0000
0100
0000
0010
0000
0000
0000
1010
0000
0000
1000
0000
0000
0001
0000
,
0010
0000
0000
0001
0000
0000
1000
0000
0100
0000
0000
0100
0000
0000
0010
0000
,
0001
0000
0001
0000
1000
0000
0000
0000
1010
0000
0000
0100
0001
0000
0100
0000
,
0010
0000
1000
0000
0001
0000
0000
0000
0110
0000
0000
0100
1000
0000
0001
0000
,
0010
0000
0000
0010
0001
0000
1000
0000
2002
0000
0000
0000
3003
0000
0000
0000
,
0220
0330
1001
0110
,
2002
0000
3003
0000
1000
0010
1000
0010
,
0100
0001
0010
0100
0010
0001
0010
0100
,
1000
0001
0100
0010
1000
1000
0001
0001
,
0010
0000
0010
0000
0100
0000
0100
0000
1000
0000
0001
0100
0001
0000
0100
0001
,
0100
0010
1000
0100
0010
0001
0100
0010
,
0100
0001
0100
0010
1000
0100
0010
0100
,
1000
0010
0100
0010
1000
0100
1000
1000
,
0001
0010
0001
0001
0100
0100
0010
1000
,
1000
0000
0000
0001
0000
0000
0010
0000
0001
0000
0010
0000
0001
0000
1000
0000
0010
0000
1000
0000
0001
0000
0100
0000
,
0001
0000
0001
0000
1000
0000
0000
0000
1010
0000
0000
1000
0010
0000
0100
0000
,
0001
0000
0000
0001
0010
0000
0100
0000
1001
0000
0000
0000
0110
0000
0000
0000
,
2002
3003
0000
0000
;

//---------------dance-single - ----------------
#NOTEDATA:;
#CHARTNAME:;
#STEPSTYPE:dance-single;
#DESCRIPTION:;
#CHARTSTYLE:;
#DIFFICULTY:Hard;
#METER:18;
#RADARVALUES:1.029982,1.085185,0.928395,0.227160,0.883951,730.000000,636.000000,94.000000,23.000000,0.000000,0.000000,0.000000,0.000000,0.000000,1.029982,1.085185,0.928395,0.227160,0.883951,730.000000,636.000000,94.000000,23.000000,0.000000,0.000000,0.000000,0.000000,0.000000;
#CREDIT:;
#NOTES:
// measure 0
0000
0000
0000
0000
,  // measure 1
0000
0000
0000
0000
,  // measure 2
0000
0000
0000
0000
,  // measure 3
0000
0000
0000
0000
,  // measure 4
1000
0000
1000
0100
1000
0000
0100
1000
0010
0100
0001
0100
0001
0000
0001
0100
,  // measure 5
0001
0000
0100
0001
0010
0100
1000
0001
0100
0000
0000
0000
0010
0000
2200
0000
,  // measure 6
3300
0010
2002
0000
0000
0000
0000
0000
,  // measure 7
3003
0000
0000
0000
1001
0000
0000
0000
1000
0000
0001
0100
0001
0000
0001
0010
,  // measure 8
0100
0000
0010
0001
0010
0000
0100
1000
0010
0000
0010
0100
0010
0000
0010
1000
,  // measure 9
0100
0000
0100
1000
0001
0000
1000
0010
0100
0000
0100
0000
0001
0000
1000
0000
,  // measure 10
0001
0010
0100
1000
0001
0010
0100
1000
0001
0100
0001
0100
0010
1000
0010
1000
,  // measure 11
0001
0000
0001
0000
1000
0000
0100
0000
1001
0000
1000
0010
0100
0000
1000
0010
,  // measure 12
0100
0000
0001
0010
0100
0000
0001
0010
0100
0000
1000
0001
0100
0000
1000
0001
,  // measure 13
0010
0000
0001
1000
0010
0000
0001
1000
0100
0000
0000
0000
0100
0000
0022
0000
,  // measure 14
0033
0100
2020
3030
1000
0022
0033
0001
,  // measure 15
2020
0000
0000
3030
,  // measure 16
0110
0000
0000
0000
0110
0000
0000
0000
0010
0000
0100
0000
0001
0010
0001
0000
,  // measure 17
0100
0000
0001
1000
0100
0010
0001
0000
1000
0000
0010
0000
0100
0001
1000
0100
,  // measure 18
0010
0000
0001
0000
1000
0001
0010
0100
1000
0000
0010
0000
0100
0001
0010
0001
,  // measure 19
0100
0000
0010
0000
1000
0010
0001
0010
1000
0000
0001
0010
1000
0000
0001
0010
,  // measure 20
1000
0000
0010
0000
1001
0000
0110
0000
1000
0010
0100
0001
0010
0000
0100
0000
,  // measure 21
0010
0001
0010
0001
1000
0000
1001
0000
0001
0100
0010
1000
0100
0000
0010
0000
,  // measure 22
0100
1000
0100
1000
0001
0000
0110
0000
1010
0000
0100
0000
1010
0000
0100
0000
,  // measure 23
0011
0000
0100
0000
0010
0001
0100
0010
1000
0000
0100
0000
1000
0010
0100
0001
,  // measure 24
0010
0100
1001
0000
1010
0000
0110
0000
,  // measure 25
0101
0000
0110
0000
2002
3003
0220
0330
,  // measure 26
2002
0000
0003
0000
3020
0000
0000
0000
0130
0001
0010
0000
0100
1000
0010
0000
,  // measure 27
1000
0001
1000
0001
0100
0000
0010
0000
1000
0001
0010
0000
0001
1000
0100
0000
,  // measure 28
1000
0010
1000
0010
0100
0000
0001
0000
0010
0001
0100
0001
0010
0000
0001
0000
,  // measure 29
1000
0000
1000
0000
0100
0000
0100
0000
0010
0100
1000
0100
0010
0001
0010
0001
,  // measure 30
1000
0000
0010
0000
0100
0000
0001
0000
1000
0100
0001
0000
0101
0000
0001
0100
,  // measure 31
1000
0000
1100
0000
1001
0000
1001
0000
0001
0010
1000
0000
1010
0000
1000
0010
,  // measure 32
0001
0000
0011
0000
1001
0000
1001
0000
0110
0000
0010
0000
0100
0000
0100
0001
,  // measure 33
1000
0010
0100
0001
0010
0000
0100
0000
1000
0100
1000
0100
0010
0001
0010
0001
,  // measure 34
1000
0000
0000
0110
0000
0000
0101
0000
1100
0000
0000
0000
0110
0000
0000
0000
,  // measure 35
0011
0000
0000
0110
0000
0000
1100
0000
0000
0000
0001
0100
0001
0000
1000
0000
,  // measure 36
0011
0000
0000
1100
0000
0000
0101
0000
1010
0000
0010
0000
0100
0000
0100
0000
,  // measure 37
1001
0000
0000
0101
0000
0000
0011
0000
0001
0000
0100
1000
0100
0000
0001
0000
,  // measure 38
0010
0010
0100
0100
1010
0000
0101
0000
,  // measure 39
1100
0000
0000
0011
0000
0000
0110
0000
1000
0000
0001
0100
0001
0000
0010
0000
,  // measure 40
0110
0110
1001
1001
1010
0100
1000
0001
,  // measure 41
1010
0000
0000
0100
0000
0000
0001
0000
0000
1000
0000
0000
0110
0000
0000
0001
0000
0000
1000
0000
0100
0000
0001
0000
,  // measure 42
1000
0010
0001
1000
0010
0001
2000
0000
0000
0000
0000
0000
,  // measure 43
0000
0000
0000
0000
3000
0000
0100
0001
0200
0000
0000
0000
0000
0000
0000
0000
,  // measure 44
0000
0000
0000
0000
0300
0000
0000
0000
0011
0000
0001
0010
0001
0000
0010
0000
,  // measure 45
1100
0000
1000
0100
1000
0000
0001
0000
0101
0000
0000
0000
1100
0000
0000
0000
,  // measure 46
0220
0000
0000
0000
0330
0000
0000
0000
1001
0000
1000
0010
0000
0100
0010
0000
,  // measure 47
1000
0000
0001
0010
0000
0100
0010
0000
0001
0000
1000
0010
0000
0100
0001
0000
,  // measure 48
0100
0000
0010
0000
1001
0000
0000
0000
0110
0000
0100
1000
0000
0001
0100
0000
,  // measure 49
0010
0000
1000
0010
0000
0001
0010
0000
1000
0000
0001
0010
0000
0100
1000
0000
,  // measure 50
0100
0000
0010
0000
1001
0000
0000
0000
0011
0000
0100
1000
0100
0000
0010
0000
,  // measure 51
0001
0000
1000
0010
0100
0000
0001
0000
1001
0000
0010
0100
0001
0000
0100
0000
,  // measure 52
0010
0000
1000
0001
0010
0000
0100
0000
0010
0001
0000
1000
0010
0000
0100
0000
,  // measure 53
0001
0100
0000
0100
1000
0000
0001
0000
1000
0010
0000
0010
0001
0000
0100
0000
,  // measure 54
0010
0000
0110
0000
1001
0000
0000
0000
0011
0000
0100
1000
0000
0001
0100
0000
,  // measure 55
1000
0000
0100
0001
0000
1000
0100
0000
0010
0000
0001
0010
0000
0010
1000
0000
,  // measure 56
0100
0000
1000
0000
1001
0000
0000
0000
1100
0000
0010
0001
0000
1000
0010
0000
,  // measure 57
0001
0000
0010
1000
0000
0001
0010
0000
0100
0000
1000
0100
0000
0100
0001
0000
,  // measure 58
0010
0000
0001
0000
1001
0000
0000
0000
0101
0000
0010
1000
0010
0000
0100
0000
,  // measure 59
0001
0000
1000
0100
0001
0000
0100
0000
1001
0000
0001
0010
1000
0000
0010
0000
,  // measure 60
0001
0000
1000
0010
0100
0000
0001
0000
1100
0000
1000
0100
1000
0000
1000
0000
,  // measure 61
0011
0000
0001
0010
0001
0000
0001
0000
1000
0010
0100
0000
0001
0010
0100
0000
,  // measure 62
1010
0000
0101
0000
1001
0000
0000
0000
0001
0010
0001
0000
0001
1000
0001
0000
,  // measure 63
0001
0100
0001
0000
0001
0100
0001
0000
1000
0010
1000
0000
1000
0001
1000
0000
,  // measure 64
1000
0100
1000
0000
1000
0100
1000
0000
0100
0010
0100
0000
0100
1000
0100
0000
,  // measure 65
0100
0001
0100
0000
0100
0001
0100
0000
1001
0000
1000
0010
0001
0000
1000
0010
,  // measure 66
0001
0000
0010
0000
1001
0000
0100
0000
0001
0010
0100
0000
0010
0000
1001
0000
,  // measure 67
1000
0010
0100
0000
0010
0000
1100
0000
1000
0100
0001
0000
0100
0000
1001
0000
,  // measure 68
0001
1000
0010
0000
0100
0000
1001
0000
0001
0010
0100
1000
0010
0000
0100
0000
,  // measure 69
0010
1000
0001
0010
0100
0000
1000
0000
0001
1000
0100
0010
0001
0000
1000
0100
,  // measure 70
0001
0000
0000
0100
0000
0000
1000
0000
0000
0000
0000
0000
0001
0000
0000
0000
0100
0000
0000
0000
1000
0000
0000
0000
0001
0000
0000
0000
0010
0000
0000
0000
1000
0000
0000
0000
0001
0000
0000
0000
0010
0000
0000
0000
1000
0000
0000
0000
,  // measure 71
0001
0000
0000
0000
0100
0000
0000
0000
1000
0000
0000
0000
0010
0000
0000
0000
0000
0000
0000
0000
0000
0000
0000
0000
0100
0000
0000
0001
0000
0000
0000
0000
0000
0001
0000
0000
0010
0000
0000
0000
0000
0000
0010
0000
0000
0000
0000
0000
,  // measure 72
0100
1000
0000
1000
0010
0000
0100
0000
1001
0000
0000
0000
0110
0000
0000
0000
,  // measure 73
0011
1000
1100
0000
0000
0000
0000
0000
;
