#TITLE:MeteorA;
#SUBTITLE:;
#ARTIST:Verseus;
#TITLETRANSLIT:;
#SUBTITLETRANSLIT:;
#ARTISTTRANSLIT:;
#GENRE:;
#CREDIT:;
#MUSIC:MeteorA.ogg;
#BANNER:MeteorA.png;
#BACKGROUND:MeteorA-bg.png;
#CDTITLE:;
#SAMPLESTART:56.079;
#SAMPLELENGTH:15.002;
#SELECTABLE:YES;
#OFFSET:0.000;
#BPMS:0.000=189.977;
#STOPS:371.500=0.320;
#BGCHANGES:;
#FGCHANGES:;

//--------------- dance-single - ----------------
#NOTES:
     dance-single:
     :
     Beginner:
     6:
     0,0,0,0,0:
0000
0000
0000
0000
,
0000
0000
0000
0000
,
0000
0000
0000
0000
,
0000
0000
0000
0000
,
0000
0000
0000
0000
,
0010
0000
0100
0000
,
0100
0000
0010
0000
,
0010
0000
1000
0000
,
0001
0000
1000
0000
,
0100
0000
0000
0000
,
0010
0000
0000
0000
,
0001
0000
0000
0000
,
1000
0000
0001
0000
,
1001
0000
1000
1000
,
1000
0000
0010
0000
,
1000
0000
0100
0000
,
0010
0000
0001
0000
,
0100
0000
0010
0010
,
0010
0000
0100
0000
,
0001
0000
1000
0000
,
0002
0000
0000
0003
,
1000
1000
1000
0000
,
1000
0000
1000
0000
,
0001
0001
0001
0000
,
0001
0000
0001
0000
,
0100
0100
0100
0000
,
0100
0000
0100
0000
,
0010
0010
0010
0000
,
0010
0000
0010
0000
,
1000
0000
1000
0000
,
0001
0000
1000
0000
,
0001
0000
0001
0000
,
0010
0010
0010
0000
,
0001
0000
0001
0000
,
1000
0000
0001
0000
,
1000
0000
1000
0000
,
0100
0000
0010
0000
,
0220
0000
0330
0000
,
2002
0000
3003
0000
,
1001
0000
0110
0000
,
2002
0000
3003
0000
,
1000
0000
0010
0000
,
0010
0000
0100
0000
,
0100
0000
0001
0000
,
1000
0000
0001
0000
,
1001
0000
0001
0001
,
0001
0000
0010
0000
,
0001
0000
0100
0000
,
0010
0000
0000
0000
,
0100
0000
0010
0010
,
0010
0000
1000
0000
,
0010
0000
0100
0000
,
0001
0000
0000
0000
,
0110
0000
0000
0000
,
0010
0100
0010
0000
,
0100
0000
0001
0000
,
1000
0000
0100
0000
,
0010
0000
0100
0010
,
0100
0000
1000
0000
,
0010
0000
1000
0000
,
0001
0000
0100
0000
,
0220
0000
0000
0000
,
0000
0000
0000
0000
,
0330
0000
0000
0000
,
0000
0000
0000
0000
,
2002
0000
0000
0000
,
0000
0000
0000
0000
,
3003
0000
0000
0000
,
0000
0000
0000
0000
,
1000
0000
0100
0000
,
0010
0000
0001
0000
,
1000
0000
0100
0000
,
0010
0000
0001
0000
,
1000
0000
0010
0000
,
0100
0000
0001
0000
,
1000
0001
1000
0001
,
2000
0000
0000
0000
,
3001
0000
0010
0010
,
0010
0000
0100
0000
,
0010
0000
0001
0000
,
1000
0000
0000
0000
,
0001
0000
1000
1000
,
1000
0000
0010
0000
,
1000
0000
0001
0000
,
0100
0000
0000
0000
,
0001
0000
0010
0010
,
0010
0000
0100
0000
,
0010
0000
0001
0000
,
1000
0000
0010
0000
,
1000
0000
0100
0100
,
0100
0000
1000
0000
,
0010
0000
0100
0000
,
0001
0000
1000
0000
,
1001
0000
0000
0000
;

//--------------- dance-single - ----------------
#NOTES:
     dance-single:
     :
     Easy:
     10:
     0,0,0,0,0:
0000
0000
0000
0000
,
0000
0000
0000
0000
,
0000
0000
0000
0000
,
0000
0000
0000
0000
,
0000
0000
0000
0000
,
0001
0002
1003
0010
,
1000
0100
0010
0100
,
1000
1000
0010
0010
,
0100
0001
0100
0010
,
1000
0000
0000
0001
0000
0000
0010
0000
,
0100
0100
0010
0010
,
2002
0000
0000
3003
,
0200
0000
0000
0310
0000
0000
0100
0000
,
0110
0010
1000
0001
,
0010
0001
1000
0010
,
0100
0000
0100
0002
0000
0003
0001
2000
,
0000
3000
1000
0200
0000
0000
0000
0000
,
0310
0100
1000
0100
,
0010
0001
0100
0010
,
1000
1000
0001
0001
,
1000
0010
0100
1001
,
0001
0001
0011
0011
,
0001
0001
0101
0101
,
0001
0001
1001
1001
,
0001
1000
0001
0001
,
1000
1000
1100
1100
,
1000
1000
1010
1010
,
1000
1000
1001
1001
,
1000
0010
0100
0001
,
0020
0001
0001
0100
,
0100
0001
0100
0001
,
0230
0010
1000
0010
,
0010
1000
0010
1000
,
0310
0010
0100
0100
,
1000
1000
0010
0010
,
0100
0001
0100
0000
0010
1000
0010
0000
,
1000
0001
0010
0110
,
2001
0000
0100
0000
,
0001
0000
0010
3000
,
1002
0000
0100
0000
,
1000
0000
0010
0003
,
0010
0010
0010
0010
,
0100
0010
0100
0010
,
0100
0001
1000
0100
,
1002
0000
0000
0023
0000
0000
0130
0000
,
1000
0100
0010
0001
,
0001
0010
0100
1000
,
0010
0000
0100
0002
0000
0000
1003
0200
,
0000
0300
0010
0002
0000
0000
1003
0000
,
0001
0001
1000
1000
,
0010
1000
0001
0100
,
0010
0010
0100
0100
,
0001
0010
0100
1000
,
0110
0001
0010
0001
,
1000
0010
1000
0010
,
0100
0000
0001
0100
0000
0001
1000
0100
,
0000
0000
0100
0010
0000
0000
0100
0000
,
1000
0100
0010
0010
,
0001
0010
0100
0100
,
1100
1000
0101
0001
,
1000
0010
0100
0001
,
2200
0000
0000
0000
,
0000
0000
0000
0000
,
3300
0000
0000
0000
,
0000
0000
0000
0000
,
0202
0000
0000
0000
,
0000
0000
0000
0300
,
2000
0000
0000
0003
,
3020
0000
0000
0000
,
0130
0100
0100
0100
,
0100
0100
0110
0110
,
0001
0001
0001
0001
,
0001
0001
1001
1001
,
0001
0001
1000
1000
,
0010
0010
0100
0100
,
0001
0100
0010
1000
,
1001
0000
0000
0100
0000
0000
1000
0000
,
0010
1000
1000
0010
,
0100
0001
0001
0100
,
0001
0000
0010
0200
0000
0000
1300
0200
,
0000
0000
0310
0200
0000
0000
0301
0000
,
0100
1000
0001
0001
,
0100
0010
1000
1000
,
1010
0100
0011
0100
,
0001
0010
0100
1000
,
2002
3003
0001
0000
0010
0000
0001
0000
,
1000
0010
0100
0001
,
1000
0000
0100
0020
0000
0000
0031
0020
,
0000
0000
1030
0020
0000
0000
0130
0000
,
0010
0010
0010
0010
,
0100
0100
0100
0100
,
1000
1000
0001
0001
,
1000
0000
0001
0000
1000
0010
0100
0001
,
1010
0000
0000
0000
;

//--------------- dance-single - ----------------
#NOTES:
     dance-single:
     :
     Medium:
     13:
     0,0,0,0,0:
0000
0000
0000
0000
,
0000
0000
0000
0000
,
0000
0000
0000
0000
,
0000
0000
0000
0000
,
0000
0000
0000
0000
,
1000
0010
0100
0001
0010
0001
0010
0001
,
0100
0010
1000
0100
1000
0100
0010
0100
,
1000
0100
0010
0001
0010
0100
1000
0010
,
0100
0001
0100
0010
1000
0001
0001
0000
,
0010
0000
0000
0000
0010
0000
0200
0000
0000
0000
1000
0000
0000
1000
0000
0000
,
2300
0000
3002
0000
0203
0000
0010
0310
,
1000
1000
0010
0100
0100
0001
0001
0010
,
0000
0100
0010
0110
0000
0100
0100
0010
,
0001
0000
0000
0010
0001
1000
0010
0100
,
0000
0010
0000
1000
0010
0010
0100
0100
,
0001
0100
0010
2000
0000
3100
0010
0002
,
0000
0013
0100
2000
0000
0001
3001
0000
,
0100
0001
1000
0101
0000
1010
0000
0011
,
0010
0001
1000
0100
0010
0001
1000
0100
,
1000
0100
0001
0100
1000
0010
0001
0010
,
1000
0010
0100
0001
0100
0010
1000
0000
,
1001
0000
1001
0000
0001
0100
1000
0100
,
0001
0100
1000
0100
0001
0100
0001
0000
,
0110
0000
0110
0000
0100
0010
0001
0100
,
0010
0100
0001
0010
0100
1000
0010
0000
,
1001
0000
1001
0000
1000
0010
0001
0010
,
1000
0010
0001
0010
1000
0010
1000
0000
,
0110
0000
0110
0000
0010
1000
0100
0010
,
0100
1000
0010
0100
0010
1000
0100
0000
,
0011
0000
1100
0000
1000
0100
0000
0100
,
0010
0010
0001
0000
0001
0100
0000
0100
,
0010
0010
1000
0000
0001
0010
0001
1000
,
0000
1000
0000
0010
1000
1000
0001
0000
,
0011
0000
1100
0000
0001
0010
0100
1000
,
0000
1000
0000
0001
0100
0100
0010
0000
,
0100
0001
0010
0100
1000
0010
1000
0100
,
0010
0001
0100
0010
1000
0001
0001
0000
,
0021
0000
0130
0000
1000
0100
0000
1010
,
0000
0101
0000
1000
0010
0010
0100
0000
,
0001
0010
0001
0000
1000
0010
0000
0100
,
0000
0010
0000
0100
0001
1000
0001
0000
,
0100
0010
1000
0000
0100
0010
0001
0000
,
1000
0010
0100
0000
0001
0010
0100
0000
,
0010
0100
0010
0100
0010
0100
0020
0200
,
0000
0000
0030
0310
0000
0100
0100
0010
,
1001
0000
0100
0000
1000
0100
0010
0001
,
0000
0010
0000
0100
1000
0001
0001
0000
,
1000
1000
0010
0100
0000
0001
0001
0100
,
0000
0010
0010
1000
0000
1000
0001
0000
,
1000
0010
0100
0001
0000
1010
0000
0101
,
0000
1000
0001
0010
0100
1000
0100
0010
,
0001
0010
0100
0001
0100
1000
0010
0100
,
1000
0100
0000
0001
0000
1000
0001
0010
,
0110
0000
0010
0000
0100
1000
0001
0100
,
0000
0010
0000
1000
0001
0001
1000
0000
,
0001
0100
0010
0000
1000
0100
0010
0000
,
0001
0010
0100
2000
0000
0010
3010
0000
,
0100
0100
0010
0010
0000
1010
0000
0101
,
0000
0001
0010
0001
1000
0010
1000
0000
,
0100
1000
0001
0010
0001
1000
0010
0100
,
0000
0110
0000
1001
0000
1000
0001
0000
,
0020
0000
0000
0000
,
0000
0000
0000
0000
,
0030
0000
0000
0000
,
0000
0000
0000
0000
,
0200
0000
0000
0000
,
2300
0000
0001
0000
,
3002
0100
0203
0010
,
0320
2030
3002
0103
,
0110
0100
0001
0010
,
0100
1000
0100
0010
,
0001
1000
0100
1000
,
0001
0100
0010
1000
,
0001
0100
0001
0000
1000
0100
1000
0000
,
0100
0010
0001
0000
0010
0100
1000
0000
,
0010
0000
0100
0000
0010
0000
0100
0000
0010
0000
0100
0000
0001
1000
0001
1000
,
0002
0000
0000
1003
0000
1000
0010
0100
,
0001
0000
0110
0000
0100
1000
0100
0001
,
0000
0010
0000
0100
0010
0001
0010
0100
,
1000
0010
1000
0002
0000
0013
0100
2000
,
0000
3100
1000
0002
0000
0000
1003
0000
,
0010
1000
0001
0010
0000
1100
0000
0011
,
0000
0010
1000
0010
0001
0100
0001
0100
,
0010
1000
0001
0010
0100
1000
0000
1100
,
0000
0101
0000
0100
0010
1000
0001
0010
,
0220
0330
0010
0000
0100
1000
0001
0100
,
0000
0010
0000
0001
0010
0001
0010
0000
,
1000
0010
0100
0001
0010
0100
1000
0100
,
0010
0001
0010
0100
1000
1000
0001
0000
,
1000
0001
0100
0010
0000
0010
0000
0010
,
0010
0100
0001
0010
0100
1000
0000
1000
,
1000
0001
0100
0010
0100
0001
0010
0100
,
1000
1000
0100
0100
0010
0010
0001
0001
,
0110
0000
0000
0000
;

//--------------- dance-single - ----------------
#NOTES:
     dance-single:
     :
     Hard:
     17:
     0,0,0,0,0:
0000
0000
0000
0000
,
0000
0000
0000
0000
,
0000
0000
0000
0000
,
0000
0000
0000
0000
,
0000
0000
0000
0000
,
0001
0100
0001
0010
0001
1000
0100
0010
,
0100
1000
0001
0100
0010
0100
0001
1000
,
0010
0100
0010
1000
0100
0010
0001
0010
,
0100
1000
0001
1000
0010
0100
0001
0100
,
1010
0000
1010
0000
1000
0000
0101
0000
0000
0000
0110
0000
0000
1001
0000
0000
,
0010
0010
0010
0010
0100
0100
0100
0100
,
1000
0000
0100
1000
0010
0000
0100
0000
0001
0010
0100
0000
0010
0000
1002
0000
,
0000
0100
0100
0023
0000
0100
0130
1000
,
1100
0000
0000
0000
1000
0000
0001
0100
0001
0000
0010
0000
1000
0000
0010
0000
,
0001
0000
0100
0000
0010
0000
1000
0010
1000
0000
0010
0000
0100
0000
0001
0000
,
1000
0100
0010
0101
0001
0100
0010
1100
,
0100
0000
0010
0000
0001
0000
1001
0000
0010
0000
0100
0001
1000
0000
0010
1000
,
0001
0010
0100
0010
0010
0001
0001
1100
,
1000
0010
0100
0001
1000
0100
0010
0001
,
0100
0000
0010
1000
0010
0000
0100
0000
0010
1000
0001
0000
0100
0001
1000
0000
,
0001
0000
0010
0001
0010
0000
0100
0010
0100
0000
1000
0100
0010
0001
1000
0000
,
0001
0001
0101
0001
1001
1001
0001
0011
,
0010
0010
0100
0100
1000
1000
0001
0001
,
1000
1000
1100
1000
1010
1010
1000
1001
,
0001
0000
0100
0010
2000
0000
3100
0010
0002
0000
0013
0100
2000
0000
3001
0000
,
0010
0010
0110
0010
0011
0011
0010
0110
,
0100
0100
0001
0001
1000
1000
0010
0010
,
0100
0100
0110
0100
1100
1100
0100
0101
,
0100
1000
0001
0000
0010
0001
1000
0000
0010
1000
0001
0000
1000
0000
0010
0000
,
0100
0001
0100
0010
1000
0010
0100
0001
,
0010
0001
1000
0010
1000
0100
0010
0001
,
0010
0000
0100
1000
0100
0000
0010
0000
0001
0000
0001
0000
1000
0000
0010
0000
,
0100
0000
0001
1000
0100
0000
0010
0000
0001
1000
0001
0000
0110
0000
0000
0000
,
1000
0010
1000
0010
0100
0001
0100
0001
,
0010
0100
0010
0100
0010
0001
0010
0001
,
1000
0000
0001
0000
1000
0000
0001
0000
1000
0001
1000
0001
0100
0010
0100
0010
,
1000
0100
0022
0033
0001
0010
2200
3300
,
1000
1000
0010
0000
0100
0100
0001
0010
,
0000
0000
0100
0000
0000
0000
0011
0000
0000
0000
0100
1000
0100
0000
1000
0000
,
0001
0100
0010
0100
0001
0010
0100
0010
,
0001
0010
0100
1000
0010
0100
0010
1000
,
0100
0100
1000
0010
0010
0100
0001
0001
,
1000
1000
0010
0100
0100
0001
0010
0010
,
0100
1000
0100
1000
0001
0100
0001
0100
0010
1000
0010
1000
0001
0010
0001
0010
,
0200
0000
0000
0000
0000
0000
0310
0000
0000
0000
0010
0001
0010
0000
0100
0000
,
1001
0000
0000
0000
1000
0000
0010
0100
0010
0000
1000
0000
0001
0000
0100
0000
,
0010
1000
0001
0010
0100
0100
1000
1000
,
0001
1000
0010
0101
0100
0001
1000
1010
,
1000
0100
0010
1001
0000
0010
0010
0100
,
0001
0000
1000
0100
1000
0000
0010
0000
0010
0000
0100
0000
0100
0000
0001
0000
,
1000
0010
0001
0010
1000
0100
0001
0100
,
1000
1000
0010
1000
0001
0001
0010
0110
,
0000
0000
1100
0000
0000
0000
0101
0000
0000
0000
0100
0010
0100
0000
0010
0000
,
1001
0000
0000
0000
0010
0000
1000
0100
1000
0000
0001
0000
0010
0000
1000
0000
,
0010
0001
0100
1000
0100
0001
0010
0010
,
0100
1000
0010
1010
1000
0001
0100
0101
,
0010
0100
1000
1001
0000
0010
0010
0100
,
0010
0000
0001
0000
1000
0000
0001
0100
0001
0000
1000
0100
1000
0000
0010
0000
,
0100
0000
0010
0000
1000
0000
0001
0010
0100
0000
1000
0100
0010
0000
0001
0000
,
1000
0010
0100
0010
1000
0000
0001
0010
0100
0010
0001
0000
1000
0001
0100
0010
,
1000
0000
0001
1000
0100
0010
0001
0000
0100
0000
0110
0000
0000
0000
0000
0000
,
2002
0000
0000
0000
,
0000
0000
0000
0000
,
3003
0000
0000
0000
,
0000
0000
0000
0000
,
0100
0100
0001
0001
,
1000
1000
0010
0010
,
1000
0100
0010
0001
,
0010
0100
1000
0001
,
0100
0010
0100
0000
0010
1000
0010
0100
,
0001
0100
0001
0000
1000
0001
0010
0001
,
1000
0010
0100
0000
0010
1000
0100
0010
,
0001
0010
0001
0000
0100
0001
1000
0010
,
1000
0100
1000
0010
0100
0001
0010
0001
,
1000
0010
0100
0001
0100
0010
1000
0001
,
0010
0100
0010
0100
1000
0001
1000
0001
1000
0100
0010
0001
1000
0010
0100
0001
,
1000
0000
0001
0000
0100
0000
0110
0000
0000
0000
0010
0100
0010
0000
1000
0000
,
1001
0000
0000
0000
1100
0000
0100
1000
0010
0000
0100
0000
0001
0000
0010
0000
,
1000
0010
0001
1000
0010
0100
0001
1000
,
0001
1000
0100
1100
0100
1000
0010
0101
,
0100
0000
0001
0000
0010
0000
0110
0000
0000
0000
0010
0000
0010
0000
0001
0010
,
0001
1000
0100
1000
1000
0001
0001
0100
,
0010
0000
0100
0001
0010
0000
0100
0000
0010
0001
0100
0000
0010
0000
1000
0001
,
1000
1000
0100
0100
0010
0010
0001
0011
,
0000
0010
0100
1000
0001
0100
0010
1000
,
0001
0100
0001
0100
1000
0000
0100
0001
1000
0000
0100
0000
0010
0000
0011
0000
,
0000
0000
0010
0000
0100
0000
1000
0000
0010
1000
0010
0000
0100
0001
0100
0000
,
0010
0000
1000
0001
1000
0000
0100
0000
0010
0000
0010
0000
0001
0000
0001
0000
,
1000
0100
0010
0000
0001
0100
0010
0000
1000
0010
0100
0000
0001
0100
0010
0000
,
1000
0010
1000
0000
0001
0000
0001
0000
0010
0100
0010
0000
0100
0000
0100
0000
,
1000
0100
1000
0000
0001
0000
0001
0000
0010
0100
0010
0000
0001
0000
0001
0000
,
1000
1000
1000
1000
0001
0001
0001
0001
,
0010
0001
0010
0001
1000
0100
1000
0100
0010
0100
1000
0001
0100
0010
1000
0000
,
1001
0000
0000
0000
;
