#TITLE:Liar;
#SUBTITLE:;
#ARTIST:Vanilla Ninja;
#TITLETRANSLIT:;
#SUBTITLETRANSLIT:;
#ARTISTTRANSLIT:;
#GENRE:;
#CREDIT:;
#BANNER:Liar.png;
#BACKGROUND:Liar-bg.png;
#LYRICSPATH:;
#CDTITLE:;
#MUSIC:Liar.ogg;
#OFFSET:0.000000;
#SAMPLESTART:40.719002;
#SAMPLELENGTH:15.000000;
#SELECTABLE:YES;
#BPMS:0.000000=106.000000
;
#STOPS:
;
#BGCHANGES:0.000=Liar.avi=1.000=0=0=1=====,
99999=-nosongbg-=1.000=0=0=0 // don't automatically add -songbackground-
;
#KEYSOUNDS:;
#ATTACKS:;

//---------------dance-single - ----------------
#NOTES:
     dance-single:
     :
     Beginner:
     1:
     0.059936,0.102448,0.000000,0.078056,0.000000,43.000000,43.000000,0.000000,8.000000,0.000000,0.000000,0.059936,0.102448,0.000000,0.078056,0.000000,43.000000,43.000000,0.000000,8.000000,0.000000,0.000000:
0000
0000
0000
0000
,
0000
0000
0000
0000
,
0000
0000
0000
0000
,
0000
0000
0000
0000
,
0000
0000
0000
0000
,
0002
0000
0000
0000
,
0003
0000
0000
0000
,
2000
0000
0000
0000
,
3000
0000
0000
0000
,
0002
0000
0000
0000
,
0003
0000
0000
0000
,
2000
0000
0000
0000
,
3000
0000
0000
0000
,
0010
0000
0010
0000
,
0010
0000
0000
0000
,
0100
0000
0100
0000
,
0100
0000
0000
0000
,
0000
0000
0000
0000
,
0001
0000
0001
0000
,
0010
0000
0000
0000
,
0002
0000
0000
0000
,
0003
0000
0000
0000
,
1000
0000
1000
0000
,
0100
0000
0000
0000
,
2000
0000
0000
0000
,
3000
0000
0000
0000
,
0010
0000
0010
0010
,
0000
0000
0010
0010
,
0000
0000
0001
0001
,
0000
0001
0000
0000
,
0100
0000
0100
0100
,
0000
0000
0100
0100
,
0000
0000
1000
1000
,
0000
1000
0000
0000
,
0010
0000
0010
0000
,
1000
0000
0000
0000
,
0002
0000
0000
0000
,
0003
0000
0000
0000
,
0100
0000
0100
0000
,
0001
0000
0000
0000
,
2000
0000
0000
0000
,
3000
0000
0000
0000
,
0100
0000
0000
0000
;

//---------------dance-single - ----------------
#NOTES:
     dance-single:
     :
     Easy:
     3:
     0.133810,0.163917,0.000000,0.087813,0.000000,96.000000,96.000000,0.000000,9.000000,0.000000,0.000000,0.133810,0.163917,0.000000,0.087813,0.000000,96.000000,96.000000,0.000000,9.000000,0.000000,0.000000:
0000
0000
0000
0000
,
0000
0000
0000
0000
,
0000
0000
0000
0000
,
0000
0000
0000
0000
,
0000
0000
0000
0000
,
0000
0000
0001
0001
,
0000
0000
1000
1000
,
0000
0000
0010
0010
,
0000
0100
0000
0100
,
0000
0000
0010
1000
,
0000
0000
0010
1000
,
0000
0000
0001
0100
,
0000
0000
0001
0100
,
0010
0010
1000
0100
,
0010
0000
0001
0000
,
1000
1000
0001
0001
,
0100
0000
0010
0000
,
2000
0000
0000
0000
,
3001
0001
0100
0000
,
0010
1000
0100
1000
,
0001
0002
0000
0003
,
1000
2000
0000
3000
,
1000
1000
0100
0000
,
0001
0001
0010
0001
,
1000
2000
0000
0000
,
3001
0002
0000
0000
,
0103
0100
0010
0010
,
0000
0100
0010
0010
,
0000
0100
0010
0010
,
0000
0010
0000
1000
,
0001
0010
0100
0100
,
0000
0010
0100
0100
,
0000
0010
0100
0100
,
0000
0010
0000
0001
,
1000
0100
1000
0000
,
0001
0100
0001
0000
,
1000
2000
0000
0000
,
3001
0002
0000
0000
,
0103
0001
0001
0000
,
1000
1000
0010
0000
,
1000
2000
0000
0000
,
3001
0002
0000
0000
,
0103
0000
0000
0000
;

//---------------dance-single - ----------------
#NOTES:
     dance-single:
     :
     Medium:
     7:
     0.241136,0.266365,0.019514,0.009757,0.004878,173.000000,171.000000,2.000000,1.000000,0.000000,0.000000,0.241136,0.266365,0.019514,0.009757,0.004878,173.000000,171.000000,2.000000,1.000000,0.000000,0.000000:
0000
0000
0000
0000
,
0000
0000
0000
0000
,
0000
0000
0000
0000
,
0000
0000
0000
0000
,
0000
0000
0000
0000
,
0000
0000
0000
0000
0100
0001
0100
0001
,
0000
0000
0001
0010
0000
0000
0100
0000
,
0000
0000
0000
1000
0001
1000
0010
0100
,
0000
0000
0100
0010
0000
0010
0000
1000
,
0000
0000
0000
0010
1000
0001
1000
0001
,
0000
0000
0100
0010
0000
0000
0000
0100
,
0001
0000
0000
1000
0000
0000
0001
0000
0000
0000
0000
0000
0001
0000
1000
0000
,
0000
0100
0000
0010
0010
0000
0100
0000
,
1000
0100
0010
0000
1000
0010
0100
0001
,
0010
0000
0000
0000
0100
0100
0100
0000
,
0001
0100
0010
0000
0001
0010
0100
1000
,
0010
0000
0000
0000
1000
1000
0100
0000
,
2000
0000
0000
0000
0000
0001
3001
0000
,
1000
0001
0100
0010
1000
0000
0000
0000
,
0001
1000
0100
0010
0001
0000
0100
0000
,
0010
0010
0010
0000
1000
0000
0000
0001
,
0100
0100
0100
0000
0001
0000
0000
0000
,
0010
0100
1000
0100
0001
0000
0000
0000
,
0100
0010
0001
0010
1000
0000
0010
0000
,
0001
0001
0001
0000
0100
0000
0000
0000
,
1000
1000
1000
0000
0010
0000
0100
0000
,
0110
0000
0000
0000
0001
0001
0001
0000
,
0000
0000
0001
0000
1000
1000
1000
0000
,
0000
0000
1000
0000
0001
0001
0001
0000
,
0000
0000
0001
0000
0100
0010
0100
0000
,
1001
0000
0000
0000
0010
0010
0010
0000
,
0000
0000
0010
0000
0100
0100
0100
0000
,
0000
0000
0100
0000
0010
0010
0010
0000
,
0000
0000
0010
0000
0100
0100
0100
0000
,
1000
0010
0001
0010
1000
0000
0000
0000
,
1000
0100
0001
0100
1000
0000
0100
0000
,
0010
0010
0010
0000
0001
0000
0000
0000
,
0100
0100
0100
0000
1000
0000
0000
0000
,
0001
0010
1000
0010
0001
0000
0000
0000
,
0001
0100
1000
0100
0001
0000
0010
0000
,
0100
0100
0100
0000
1000
0000
0000
0000
,
0010
0010
0010
0000
0001
0000
1000
1000
,
0001
0000
0000
0000
;

//---------------dance-single - ----------------
#NOTES:
     dance-single:
     :
     Hard:
     12:
     0.381915,0.409792,0.039028,0.000000,0.361007,274.000000,270.000000,4.000000,0.000000,0.000000,0.000000,0.381915,0.409792,0.039028,0.000000,0.361007,274.000000,270.000000,4.000000,0.000000,0.000000,0.000000:
// measure 0
0000
0000
0000
0000
,  // measure 1
0000
0000
0000
0000
,  // measure 2
0000
0000
0000
0000
,  // measure 3
0000
0000
0000
0000
,  // measure 4
0000
0000
0000
0000
,  // measure 5
0001
0000
0000
1000
0001
1000
0100
0010
,  // measure 6
0000
0010
0010
0001
0000
0001
0100
0000
,  // measure 7
0000
0000
0000
0001
0100
0010
1000
0001
,  // measure 8
0000
0000
1000
0001
0000
1000
0000
1000
,  // measure 9
0100
0000
0000
0100
1000
0010
1000
0001
,  // measure 10
0000
0000
0001
1000
0000
0100
0000
1000
,  // measure 11
0001
0010
0000
0010
0000
0000
0100
1000
,  // measure 12
0000
0001
0000
0001
1000
0010
0010
0100
,  // measure 13
1001
0000
0001
0100
0000
0000
0010
0000
1000
0000
0100
0010
0000
0010
0001
0000
,  // measure 14
1000
0000
0000
0000
0000
0000
0010
1000
0010
0000
0100
0001
0000
0000
0000
0000
,  // measure 15
1000
0000
0001
0100
0000
0100
0010
0000
1000
0000
0001
0010
0000
0000
0000
0000
,  // measure 16
0100
1000
0100
0010
0000
0000
0100
1000
0001
0000
1000
0000
0010
0000
0000
0000
,  // measure 17
0100
0000
0100
0010
0000
0010
1000
0001
,  // measure 18
1000
0010
0100
0000
0001
0000
1000
0001
0000
0001
0100
0000
0010
0000
0000
0000
,  // measure 19
1000
0100
0010
0000
0100
0000
1000
0010
0000
0010
0100
0000
0000
0001
0000
0000
,  // measure 20
0010
0000
0000
0010
0000
0000
0001
0000
0010
0000
0001
0000
0010
0100
0000
0000
,  // measure 21
1000
0000
0000
1000
0000
0000
0100
0000
1000
0000
0001
0000
1000
0000
0000
0000
,  // measure 22
0001
0100
0010
0000
0100
0000
0001
1000
0000
1000
0100
0000
0010
0000
0000
0000
,  // measure 23
0001
0010
0100
0000
1000
0000
0001
0100
0000
0100
0010
0000
0000
1000
0000
0000
,  // measure 24
0001
0000
0000
0001
0000
0000
1000
0000
0100
0000
1000
0000
0001
0100
0000
0000
,  // measure 25
0001
0000
0000
0001
0000
0000
1000
0000
0010
0000
0000
0000
0100
0000
0100
0000
,  // measure 26
1001
0000
0001
0000
0100
0000
0000
0000
0010
1000
0001
1000
0000
0100
0000
0000
,  // measure 27
0010
0000
0010
0000
0001
0000
0000
0000
1000
0010
0100
0001
0000
0100
0000
0000
,  // measure 28
0010
0000
0010
0000
1000
0000
0000
0000
0001
1000
0100
0010
0000
0010
0000
0000
,  // measure 29
0001
0001
0100
0000
0010
1000
0001
0001
,  // measure 30
1001
0000
0001
0000
0100
0000
0000
0000
0010
1000
0001
1000
0000
0001
0000
0000
,  // measure 31
0100
0000
0100
0000
0010
0000
0000
0000
1000
0100
1000
0100
0000
0010
0000
0000
,  // measure 32
0001
0000
0001
0000
0100
0000
0000
0000
0010
1000
0010
1000
0000
0001
0000
0000
,  // measure 33
0010
0000
0010
0000
0100
0000
0000
0000
0010
0001
1000
0010
0000
0100
0000
0000
,  // measure 34
0001
0100
0010
0000
0100
0000
0001
1000
0000
1000
0100
0000
0010
0000
0000
0000
,  // measure 35
0100
1000
0010
0000
0100
0000
0010
1000
0000
1000
0001
0000
0000
0010
0000
0000
,  // measure 36
0100
0000
0000
0100
0000
0000
1000
0000
0010
0000
1000
0000
0100
1000
0000
0000
,  // measure 37
0001
0000
0000
0001
0000
0000
0100
0000
0010
0000
0100
0000
0001
0010
0000
0000
,  // measure 38
0001
1000
0010
0000
0100
0000
0001
1000
0000
1000
0100
0000
0010
0000
0000
0000
,  // measure 39
1000
0010
0100
0000
0001
0000
1000
0100
0000
0100
0010
0000
0001
1000
0000
0000
,  // measure 40
0010
0000
0000
0010
0000
0000
1000
0000
0100
0000
1000
0000
0001
0100
0000
0000
,  // measure 41
0010
0000
0000
0010
0000
0000
1000
0000
0001
0000
0000
0001
0100
0000
0010
0000
,  // measure 42
0110
0000
0000
0000
;
