#VERSION:0.83;
#TITLE:LOVE♥SHINE [Tropical mix];
#SUBTITLE:;
#ARTIST:小坂りゆ / Remixed by Mr.T;
#TITLETRANSLIT:;
#SUBTITLETRANSLIT:;
#ARTISTTRANSLIT:RIYU KOSAKA / Remixed by Mr.T;
#GENRE:;
#ORIGIN:;
#CREDIT:;
#BANNER:LOVE LOVE SHINE [Tropical Mix].png;
#BACKGROUND:LOVE LOVE SHINE [Tropical Mix]-bg.png;
#PREVIEWVID:;
#JACKET:LOVE LOVE SHINE [Tropical Mix]-jacket.png;
#CDIMAGE:;
#DISCIMAGE:LOVE LOVE SHINE [Tropical Mix]-bg (widescreen).png;
#LYRICSPATH:;
#CDTITLE:;
#MUSIC:LOVE LOVE SHINE [Tropical Mix].ogg;
#OFFSET:0.000000;
#SAMPLESTART:53.130001;
#SAMPLELENGTH:15.000000;
#SELECTABLE:YES;
#BPMS:0.000=140.000;
#STOPS:;
#DELAYS:;
#WARPS:;
#TIMESIGNATURES:0.000=4=4;
#TICKCOUNTS:0.000=4;
#COMBOS:0.000=1;
#SPEEDS:0.000=1.000=0.000=0;
#SCROLLS:0.000=1.000;
#FAKES:;
#LABELS:0.000=Song Start;
#BGCHANGES:;
#KEYSOUNDS:;
#ATTACKS:
;

//---------------dance-single - ----------------
#NOTEDATA:;
#CHARTNAME:;
#STEPSTYPE:dance-single;
#DESCRIPTION:;
#CHARTSTYLE:;
#DIFFICULTY:Beginner;
#METER:3;
#RADARVALUES:0.132096,0.217907,0.043008,0.000000,0.000000,129.000000,123.000000,6.000000,0.000000,0.000000,0.000000,0.000000,0.000000,0.000000,0.132096,0.217907,0.043008,0.000000,0.000000,129.000000,123.000000,6.000000,0.000000,0.000000,0.000000,0.000000,0.000000,0.000000;
#CREDIT:;
#NOTES:
0000
0000
0000
0000
,
0000
0000
0000
0000
,
0000
0000
0000
0000
,
0000
0000
0000
0000
,
0000
0000
0000
0000
,
0000
0000
0000
0000
,
0000
0000
0000
0000
,
0100
0000
0100
0000
,
0000
0000
0010
0000
,
0010
0000
0010
0000
,
0000
0000
0001
0000
,
0001
0000
0001
0000
,
0000
0000
1000
1000
,
0000
0000
0010
0000
,
0100
0100
0100
0000
,
0010
0000
0010
0000
,
0000
0000
0100
0000
,
0100
0000
0100
0000
,
0000
0000
1000
0000
,
1000
0000
1000
0000
,
0000
0000
0001
0000
,
0100
0000
0010
0010
,
0000
0000
1000
0000
,
1001
0000
0100
0000
,
0001
0000
0100
0000
,
1000
0000
0010
0000
,
0001
0000
0000
0000
,
1001
0000
0010
0000
,
0001
0000
0010
0000
,
1000
0000
0100
0000
,
0001
0000
0000
0000
,
0010
0010
0000
0100
,
0000
0001
0001
0000
,
0010
0010
0000
0100
,
0000
1000
1000
0000
,
0001
0001
0000
1000
,
0000
0100
0100
0000
,
1000
0000
0001
0001
,
0000
0010
0010
0000
,
0100
0000
0100
0000
,
0000
0000
1000
0000
,
0001
0000
1000
0000
,
0000
0000
0001
0000
,
0100
0000
0001
0000
,
0000
0000
0010
0000
,
0100
0000
0100
0000
,
0010
0000
0001
0000
,
1000
0000
0000
0000
,
0001
0000
0000
0000
,
0100
0000
0010
0000
,
1000
0000
0000
0000
,
0001
0000
0001
0000
,
0010
0000
0001
0000
,
0100
0000
0000
0000
,
0000
0000
0010
0000
,
1001
0000
0010
0000
,
1000
0000
0010
0000
,
0001
0000
0010
0000
,
0001
0000
0000
0000
,
1001
0000
0100
0000
,
0001
0000
0100
0000
,
1000
0000
0100
0000
,
1000
0000
0000
0000
,
0010
0000
1000
0000
,
0001
0000
0100
0000
,
0010
0010
0010
0000
,
0100
0100
0100
0000
,
1001
0000
0000
0000
,
0000
1000
0000
1000
,
0000
1000
0000
0001
,
0001
0000
0000
0000
,
1000
0000
0000
0000
,
0001
0000
0000
0000
,
1000
0000
0000
0000
,
0010
0000
0010
0000
,
0100
0000
0010
0000
,
1001
0000
0000
0000
;

//---------------dance-single - ----------------
#NOTEDATA:;
#CHARTNAME:;
#STEPSTYPE:dance-single;
#DESCRIPTION:;
#CHARTSTYLE:;
#DIFFICULTY:Easy;
#METER:7;
#RADARVALUES:0.232448,0.299129,0.136192,0.286720,0.000000,227.000000,208.000000,19.000000,40.000000,0.000000,0.000000,0.000000,0.000000,0.000000,0.232448,0.299129,0.136192,0.286720,0.000000,227.000000,208.000000,19.000000,40.000000,0.000000,0.000000,0.000000,0.000000,0.000000;
#CREDIT:;
#NOTES:
0000
0000
0000
0000
,
0000
0000
0000
0000
,
0000
0000
0000
0000
,
0000
0000
0000
0000
,
0000
0000
0000
0000
,
0000
0000
0000
0000
,
0000
0000
0000
0000
,
1000
0000
0001
0000
,
0100
0001
0010
0100
,
1000
0000
0001
0000
,
1000
0001
0010
0100
,
0010
0000
0001
0000
,
0100
0001
0010
0100
,
1000
1000
0001
0001
,
0100
0010
1000
0001
,
1001
0000
0100
0000
,
0010
1000
0001
0010
,
0100
0000
0010
0000
,
0001
0010
0100
1000
,
0010
0000
1000
0000
,
0010
1000
0001
0100
,
0001
0001
1000
1000
,
0100
0010
0001
1000
,
2001
0000
0020
3030
,
1020
0000
0200
0330
,
0001
0100
0010
1000
,
0010
0100
0001
1000
,
0201
0000
0020
0330
,
2100
0000
0002
3003
,
1000
1000
0001
0001
,
0010
0100
0010
0001
,
0200
0010
0000
0001
,
0000
0010
0020
0330
,
0020
1000
0000
0001
,
0000
0100
0200
0330
,
2000
0001
0000
0010
,
0000
0100
0200
3300
,
2000
0000
0001
3002
,
0010
0000
0000
0020
0000
0000
0033
0000
,
1001
0100
0000
0100
,
0000
0010
1000
0001
,
0010
0010
0010
0010
,
0100
1000
0001
1000
,
0001
0000
0001
0001
,
0010
0001
1000
1000
,
0100
1000
0010
0100
,
0001
0010
0001
0100
,
2001
0000
0002
3003
,
0021
0000
0200
0330
,
0100
1000
0010
0100
,
0001
0010
0100
1000
,
0012
0000
2000
3003
,
2100
0000
0002
3003
,
0100
0010
1000
0001
,
0010
0001
1000
0100
,
1020
0000
0230
0000
,
0001
0001
0002
0303
,
0010
0001
0100
0010
,
1000
0100
0010
0001
,
0120
0000
2000
3030
,
0210
0000
0002
0303
,
0010
0001
1000
0100
,
1000
0001
0100
0010
,
1002
0000
0023
0000
,
0100
0230
2000
0300
,
0001
0000
3001
0000
,
0010
0010
0100
1000
,
2002
0000
0000
0000
,
3000
0100
0000
0100
,
0000
1000
0000
1000
,
0000
0010
0010
0103
,
2001
0000
0000
0000
0001
0000
0000
0020
,
0000
0000
0000
3030
,
1000
1000
0001
0001
,
0010
0100
0010
0001
,
1100
0000
0000
0011
0000
0000
1000
1001
;

//---------------dance-single - ----------------
#NOTEDATA:;
#CHARTNAME:;
#STEPSTYPE:dance-single;
#DESCRIPTION:;
#CHARTSTYLE:;
#DIFFICULTY:Medium;
#METER:8;
#RADARVALUES:0.319488,0.353517,0.114688,0.250880,0.003584,312.000000,296.000000,16.000000,35.000000,0.000000,0.000000,0.000000,0.000000,0.000000,0.319488,0.353517,0.114688,0.250880,0.003584,312.000000,296.000000,16.000000,35.000000,0.000000,0.000000,0.000000,0.000000,0.000000;
#CREDIT:;
#NOTES:
0000
0000
0000
0000
,
0000
0000
0000
0000
,
0000
0000
0000
0000
,
0000
0000
0000
0000
,
0000
0000
0000
0000
,
0000
0000
0000
0000
,
0000
0000
0000
0000
,
1000
0000
1000
0000
0001
0100
0001
0000
,
0100
0010
1000
0100
,
0010
0000
0001
0000
0010
0100
0010
0000
,
0001
1000
0010
0100
,
0001
0000
1000
0100
1000
0000
0010
0000
,
0100
0000
0001
0010
0001
0000
0100
0000
,
0000
0000
0010
0010
0010
0000
1000
0000
,
0001
0010
0100
1000
0002
0000
0003
0000
,
1000
0000
0001
0000
0100
0001
0100
0010
,
1000
0010
0100
0001
,
1000
0000
0100
0000
0010
0001
1000
0001
,
1000
0100
1000
0001
,
0100
0000
0010
1000
0010
0000
0100
0000
,
0001
0000
1000
0000
0001
0010
0100
0000
,
0010
0000
0100
0000
1000
0100
0010
0001
,
0000
0001
0100
0000
0010
0000
1000
0000
,
2001
0000
0000
0100
0200
0000
3300
0000
,
1002
0000
0000
0100
0200
0000
0303
0000
,
0010
1000
0001
0010
,
0100
1000
0100
0010
,
1002
0000
0000
0010
0020
0000
0033
0000
,
2000
0010
0020
3030
,
0100
0010
1000
0001
,
0010
0100
0010
0001
,
0100
0010
1000
2000
0000
0001
3001
0000
,
0010
0100
0010
0000
1001
0000
0000
0000
,
0100
1000
0001
0200
0000
0010
0310
0000
,
1000
0010
1000
0000
0011
0000
0000
0000
,
1000
0010
0100
0002
0000
0010
0013
0000
,
0100
0010
0100
0000
1000
0000
0001
0000
,
0000
1000
0100
0000
1000
0100
0010
0001
,
1000
1000
0000
0010
0000
0000
0000
0000
,
0102
0000
1000
2000
0000
0000
3003
0000
,
0000
0001
0000
1000
0010
0100
0001
0100
,
0010
0000
1000
0200
0000
0000
0310
0002
,
0000
1000
1000
0103
,
0010
0000
0000
0100
0100
0000
1000
1000
,
0000
0001
0001
0002
0000
0000
0103
0000
,
0010
0100
0010
0000
0100
0000
0001
0000
,
1000
0001
1000
0000
0001
0000
0010
0000
,
0201
0000
0000
0310
1000
0000
0000
0000
,
1200
0000
0000
0310
0001
0000
0000
0001
,
1000
0000
0100
0000
1000
0000
0001
0010
,
0001
0000
0000
0100
0000
0000
0010
0000
0000
0000
1000
0000
0001
0000
0000
0000
,
0021
0000
0000
0130
1000
0000
0000
0000
,
1020
0000
0130
0000
0001
0000
1000
0100
,
1000
0001
1000
0010
,
0100
0000
0001
0000
0100
0000
0010
1000
,
0002
0000
0000
0013
0100
0000
0010
0100
,
2000
0000
0001
0000
0002
0000
3003
0001
,
1000
0000
0010
0000
0100
0000
0001
0100
,
0010
1000
0001
0010
,
1200
0000
0300
1000
0001
0000
0100
0000
,
0201
0000
0301
0000
1000
0000
0100
0010
,
0001
0000
1000
0000
0010
0000
0100
0001
,
1000
0000
0010
1000
0001
0000
0010
0000
,
1200
0000
0000
0310
0010
0000
0001
0000
,
0200
0000
0000
0010
0310
0000
1000
0000
,
0001
0001
1000
1000
,
0010
0000
1000
0000
0001
0100
0010
1000
,
0200
0000
0000
0000
,
0000
0010
0000
0010
,
0000
0010
0000
0010
,
0300
0100
0100
1000
0001
0100
0010
2000
,
0000
0000
0000
0000
0000
0001
0001
0002
,
0000
0000
0000
3003
0000
0000
0000
0000
,
0010
0000
0100
0000
,
0010
0000
0100
0000
0010
0100
1000
0000
,
0202
0000
0303
2020
0000
3030
0100
1001
;

//---------------dance-single - ----------------
#NOTEDATA:;
#CHARTNAME:;
#STEPSTYPE:dance-single;
#DESCRIPTION:;
#CHARTSTYLE:;
#DIFFICULTY:Hard;
#METER:11;
#RADARVALUES:0.417792,0.462291,0.301056,0.315392,0.007168,408.000000,366.000000,42.000000,44.000000,0.000000,0.000000,0.000000,0.000000,0.000000,0.417792,0.462291,0.301056,0.315392,0.007168,408.000000,366.000000,42.000000,44.000000,0.000000,0.000000,0.000000,0.000000,0.000000;
#CREDIT:;
#NOTES:
// measure 0
0000
0000
0000
0000
,  // measure 1
0000
0000
0000
0000
,  // measure 2
0000
0000
0000
0000
,  // measure 3
0000
0000
0000
0000
,  // measure 4
0000
0000
0000
0000
,  // measure 5
0000
0000
0000
0000
,  // measure 6
0000
0000
0000
0000
,  // measure 7
0010
0000
0010
0000
0100
1000
0100
0000
,  // measure 8
1000
0001
1000
0001
0100
0010
0100
0010
,  // measure 9
1000
0000
1000
0000
0001
0010
0001
0000
,  // measure 10
0010
0100
0010
0100
1000
0010
0100
0100
,  // measure 11
0001
0000
0100
0001
0100
0000
0010
0000
,  // measure 12
1000
0000
0010
1000
0010
0000
1000
0000
,  // measure 13
0001
0000
0010
0100
0010
0000
0001
0000
,  // measure 14
0100
0010
1000
0100
0010
0001
1000
0000
,  // measure 15
0001
0010
0001
0000
1000
0010
1000
0000
,  // measure 16
0101
0110
1100
0110
,  // measure 17
1000
0100
1000
0000
0001
0100
0010
0000
,  // measure 18
1010
0101
0011
1100
,  // measure 19
0010
0100
0010
0000
0100
1000
0100
0000
,  // measure 20
1000
0010
1000
0010
0100
0001
0100
0001
,  // measure 21
1000
0001
0100
0000
1000
0001
0100
0010
,  // measure 22
0000
0010
1000
0000
0011
0000
1100
0000
,  // measure 23
0012
0000
0000
0100
0203
0000
0000
0010
,  // measure 24
0320
0000
0000
1000
2030
0000
0000
0001
,  // measure 25
3001
0010
0100
0000
0100
0010
0001
0100
,  // measure 26
0010
1000
0100
0010
0100
1000
0010
0000
,  // measure 27
1020
0000
0000
0100
0230
0000
0000
0001
,  // measure 28
0302
0000
1000
0000
2003
0000
0100
3100
,  // measure 29
0010
0100
1000
0001
0000
0100
0001
1000
,  // measure 30
0000
0010
1000
0001
0000
0010
0110
0000
,  // measure 31
0010
0001
0010
0002
0000
1000
1003
0200
,  // measure 32
0000
1000
1300
0000
0010
0000
0110
0000
,  // measure 33
0100
0010
0100
0020
0000
1000
1000
2030
,  // measure 34
0000
3001
0100
0001
0100
0000
0110
0000
,  // measure 35
0010
0100
0001
0200
0000
0310
1000
0002
,  // measure 36
0000
0013
0100
1000
0001
0000
1001
0000
,  // measure 37
0000
1000
0100
1000
0100
1000
0100
0010
,  // measure 38
0000
0010
0001
1000
0000
0010
0100
0000
,  // measure 39
0110
0000
0100
0001
0000
0001
0100
0010
,  // measure 40
0000
0010
0000
1000
0001
1000
0001
0010
,  // measure 41
0100
0010
0001
0010
0100
1000
0010
0100
,  // measure 42
0001
0100
0010
1000
0001
1000
0010
0000
,  // measure 43
0110
0000
0000
0100
0010
0100
0001
0001
,  // measure 44
0000
0001
1000
1000
0000
1000
0010
0010
,  // measure 45
0100
0010
0000
0010
1000
0010
1000
0001
,  // measure 46
0000
0001
0010
0100
0000
1000
1100
0000
,  // measure 47
0202
0000
0303
0010
1000
0000
0000
0000
,  // measure 48
2020
0000
3030
0100
0001
0000
0000
0001
,  // measure 49
2000
0010
3002
0100
,  // measure 50
0013
0000
0000
0100
0000
0000
0110
0000
0000
0000
0000
0000
1000
0000
0100
0000
,  // measure 51
2002
0000
3003
1000
0100
0000
0000
0000
,  // measure 52
2002
0000
3003
0001
0010
0000
0100
0100
,  // measure 53
0010
0001
0010
0000
0100
1000
0100
1000
,  // measure 54
0000
1000
0001
0000
1000
0000
0010
0000
,  // measure 55
0202
0000
0303
0010
1000
0000
0001
0000
,  // measure 56
1100
0000
0000
1000
0000
0000
0100
0000
0001
0000
0000
0000
0100
0000
0000
0000
,  // measure 57
0010
0001
0100
0000
0010
1000
0100
0000
,  // measure 58
1000
0001
1000
0001
0100
0010
0100
0010
,  // measure 59
2020
0000
3030
0100
0001
0000
0000
0001
,  // measure 60
0022
0000
0033
0100
1000
0000
0001
1000
,  // measure 61
0010
1000
0010
0100
0000
0001
0100
0000
,  // measure 62
0010
1000
0010
1000
0000
1000
0001
0000
,  // measure 63
1002
0000
0000
0010
0023
0000
0000
0100
,  // measure 64
0230
0000
1000
0000
2300
0000
3001
0001
,  // measure 65
1000
0010
0100
0000
0001
0100
0010
0000
,  // measure 66
0100
0100
0000
0010
0000
1000
0001
0000
,  // measure 67
2002
0000
0000
0000
,  // measure 68
0003
0001
0000
3001
,  // measure 69
0100
1001
0100
1001
,  // measure 70
0010
1000
0010
0000
1001
0000
0101
0000
,  // measure 71
0120
1000
0100
1030
,  // measure 72
0201
0010
0001
0310
,  // measure 73
0100
0001
0100
0000
1001
0000
1010
0000
,  // measure 74
1000
0100
0001
0000
2002
0000
3003
0000
,  // measure 75
0220
0000
0330
2002
0000
3003
0010
0110
;
