#VERSION:0.83;
#TITLE:LIFELESS;
#SUBTITLE:;
#ARTIST:小坂りゆ;
#TITLETRANSLIT:;
#SUBTITLETRANSLIT:;
#ARTISTTRANSLIT:RIYU KOSAKA;
#GENRE:;
#ORIGIN:;
#TAGS:;
#CREDIT:;
#BANNER:LIFELESS.png;
#BACKGROUND:LIFELESS-bg.png;
#PREVIEWVID:;
#JACKET:LIFELESS-jacket.png;
#CDIMAGE:;
#DISCIMAGE:;
#LYRICSPATH:;
#CDTITLE:;
#MUSIC:LIFELESS.ogg;
#OFFSET:0.000000;
#SAMPLESTART:51.738998;
#SAMPLELENGTH:15.000000;
#SELECTABLE:YES;
#BPMS:0.000000=150.054993
;
#STOPS:;
#DELAYS:;
#WARPS:;
#TIMESIGNATURES:0.000000=4=4
;
#TICKCOUNTS:0.000000=4
;
#COMBOS:0.000000=1
;
#SPEEDS:0.000000=1.000000=0.000000=0
;
#SCROLLS:0.000000=1.000000
;
#LABELS:0.000000=Song Start
;
#BGCHANGES:;
#KEYSOUNDS:;
#ATTACKS:
;

//---------------dance-single - ----------------
#NOTEDATA:;
#CHARTNAME:;
#CHARTHASH:2147483647;
#STEPSTYPE:dance-single;
#BANNER:;
#DESCRIPTION:;
#CHARTSTYLE:;
#DIFFICULTY:Beginner;
#METER:3;
#METERF:0.000000;
#LASTSECONDHINT:122.355148;
#RADARVALUES:0.132580,0.183612,0.088006,0.000000,0.000000,116.000000,105.000000,11.000000,0.000000,0.000000,0.000000,0.000000,0.000000,0.000000,0.132580,0.183612,0.088006,0.000000,0.000000,116.000000,105.000000,11.000000,0.000000,0.000000,0.000000,0.000000,0.000000,0.000000;
#CREDIT:;
#NOTES:
0000
0000
0000
0000
,
0000
0000
0000
0000
,
0000
0000
0000
0000
,
0000
0000
0000
0000
,
0000
0000
0000
0000
,
0001
0000
0000
0000
,
1000
0000
0000
0000
,
0010
0000
0100
0000
,
0010
0000
0000
0000
,
1000
1000
0000
0000
,
0001
0000
0000
0000
,
0001
0001
0000
0000
,
1000
0000
0000
0000
,
0100
0000
0000
0000
,
0010
0000
0100
0000
,
1000
0000
0000
0000
,
0000
0000
0000
0000
,
1001
0000
0000
0000
,
0100
0000
0000
0000
,
0010
0000
0100
0000
,
0001
0000
1000
0000
,
0100
0100
0000
0000
,
1000
1000
0000
0000
,
0001
0000
0100
0000
,
1000
0000
0010
0000
,
0001
0000
0000
0000
,
0001
0000
0000
0000
,
0010
0000
0100
0000
,
0010
0000
0100
0000
,
1000
0000
0000
0000
,
0001
0000
0000
0000
,
0100
0000
0000
0000
,
0110
0000
0000
0000
,
0010
0010
0000
0000
,
0010
0010
0000
0000
,
0001
0000
0001
0000
,
0001
0000
0000
0000
,
0100
0100
0000
0000
,
0100
0100
0000
0000
,
1000
0000
1000
0000
,
1000
0000
0000
0000
,
1001
0000
0000
0000
,
0100
0000
0000
0000
,
0010
0000
0000
0000
,
0001
0000
0000
0000
,
1000
0000
0000
0000
,
0001
0000
0000
0000
,
0001
0000
0100
0000
,
0010
0000
1000
0000
,
0010
0000
0000
0000
,
0100
0000
0000
0000
,
0010
0000
1000
0000
,
0001
0000
0000
0000
,
0110
0000
0000
0000
,
0110
0000
0000
0000
,
0010
0000
0001
0000
,
0010
0000
0100
0000
,
1000
0000
1000
0000
,
0100
0000
0000
0000
,
0001
0000
0001
0000
,
0100
0000
0000
0000
,
0010
0000
0000
0000
,
0100
0000
0000
0000
,
0001
0000
1000
0000
,
1001
0000
0000
0000
,
0110
0000
0000
0000
,
1000
1000
0000
0000
,
1000
1000
0000
0000
,
0100
0000
0100
0000
,
0100
0000
0000
0000
,
0001
0001
0000
0000
,
0001
0001
0000
0000
,
0010
0000
0010
0000
,
0010
0000
0100
0000
,
0110
0000
0000
0000
,
1001
0000
0000
0000
,
0110
0000
1001
0000
;

//---------------dance-single - ----------------
#NOTEDATA:;
#CHARTNAME:;
#CHARTHASH:2147483647;
#STEPSTYPE:dance-single;
#BANNER:;
#DESCRIPTION:;
#CHARTSTYLE:;
#DIFFICULTY:Easy;
#METER:6;
#METERF:0.000000;
#LASTSECONDHINT:122.155220;
#RADARVALUES:0.273160,0.305520,0.168011,0.000000,0.004000,239.000000,218.000000,21.000000,0.000000,0.000000,0.000000,0.000000,0.000000,0.000000,0.273160,0.305520,0.168011,0.000000,0.004000,239.000000,218.000000,21.000000,0.000000,0.000000,0.000000,0.000000,0.000000,0.000000;
#CREDIT:;
#NOTES:
0000
0000
0000
0000
,
0000
0000
0000
0000
,
0000
0000
0000
0000
,
0000
0000
0000
0000
,
0000
0000
0000
0000
,
1000
0001
0100
0010
,
0010
0100
0001
1000
,
0001
0001
1000
1000
,
0100
0010
0110
0000
,
0100
0010
0100
0010
,
0001
0010
0100
0010
,
0001
0100
0010
0100
,
0001
0100
0001
0000
,
1000
1000
1000
0000
,
0001
0001
0001
0000
,
0100
0100
0010
0010
,
0100
0010
0110
0000
,
0100
0010
1000
0100
,
0010
0100
1000
0010
,
1000
1000
0010
0010
,
0100
0010
1000
0100
,
1000
1000
0001
0001
,
0100
0100
0010
0010
,
1000
0010
0100
0001
,
0001
0100
0010
0000
,
0110
0100
0001
0100
,
1000
0000
0100
0000
,
0001
0010
1000
0010
,
0001
0000
0100
0000
,
0001
0001
1000
0000
,
1000
1000
0100
0000
,
1000
0010
0100
0001
,
1001
0000
0100
0100
,
0110
0000
0010
0010
,
1001
0000
0001
0000
,
0110
0000
0010
0100
,
1000
1000
0001
0010
,
1100
0000
0100
1000
,
0011
0000
0010
0001
,
1010
0000
1000
0010
,
0100
0100
0001
1000
,
0001
0000
0000
0000
,
0100
0000
0000
0000
,
0010
0000
1000
0000
,
0010
0000
0100
0000
,
0001
0000
0000
0000
,
1000
0000
0000
0000
,
0100
0000
0010
0000
,
0001
0000
0010
0000
,
0100
0000
0100
0000
,
1000
0000
1000
0000
,
0010
0000
0100
0000
,
0001
0000
0100
0000
,
0010
0000
0010
0000
,
1000
0000
1000
0000
,
0001
0000
1000
0000
,
0100
0010
0100
0000
,
0010
0100
1000
0100
,
0010
0001
0010
0001
,
0100
0010
1000
0001
,
1000
0100
1000
0100
,
1000
1000
0010
1000
,
0001
0001
0100
0010
,
1000
0001
1000
0100
,
0011
0000
0000
0000
,
1100
0000
0010
0100
,
1001
0000
0100
0010
,
1001
0000
0010
0100
,
1010
0000
1000
0010
,
0100
0100
0001
1000
,
0101
0000
0100
0001
,
1010
0000
1000
0100
,
0011
0000
0010
0001
,
1000
1000
0001
0100
,
0110
0000
0000
0100
0000
0000
0000
0000
,
1001
0000
0000
0010
0000
0000
0000
0000
,
1000
0000
0000
0100
0000
0000
0011
0000
0000
0000
0000
0000
0000
0000
0000
0000
;

//---------------dance-single - ----------------
#NOTEDATA:;
#CHARTNAME:;
#CHARTHASH:2147483647;
#STEPSTYPE:dance-single;
#BANNER:;
#DESCRIPTION:;
#CHARTSTYLE:;
#DIFFICULTY:Medium;
#METER:9;
#METERF:0.000000;
#LASTSECONDHINT:122.155220;
#RADARVALUES:0.406883,0.427727,0.224014,0.000000,0.060004,356.000000,328.000000,28.000000,0.000000,0.000000,0.000000,0.000000,0.000000,0.000000,0.406883,0.427727,0.224014,0.000000,0.060004,356.000000,328.000000,28.000000,0.000000,0.000000,0.000000,0.000000,0.000000,0.000000;
#CREDIT:;
#NOTES:
0000
0000
0000
0000
,
0000
0000
0000
0000
,
0000
0000
0000
0000
,
0000
0000
0000
0000
,
0000
0000
0000
0000
,
0001
0000
0000
0100
0000
0000
0010
0000
0000
0000
0010
0000
1000
0000
0000
0000
,
1000
0000
0000
0100
0000
0000
0010
0000
0000
0000
0010
0000
0001
0000
0000
0000
,
1000
0000
0000
1000
0000
0000
1000
0000
0001
0000
0000
0001
0000
0000
0001
0000
,
0100
0000
0000
0100
0000
0000
0010
0000
0000
0000
0010
0000
1000
0000
0000
0000
,
0001
0000
0100
0000
0001
0010
0001
0000
,
0100
0010
0100
0000
0001
0010
0001
0000
,
1000
0000
0010
0000
1000
0100
1000
0000
,
0100
0010
0100
1000
0010
1000
0010
0000
,
1000
0100
0010
0001
,
0001
0100
0010
1000
,
0001
0000
0001
0100
0000
0100
1000
0000
,
0000
0000
0001
0001
,
0100
0000
0100
0000
0010
1000
0010
0000
,
1000
0100
1000
0000
0001
0010
0001
0000
,
0010
0000
0000
0000
0100
0010
0001
0000
,
0010
0100
1000
0000
0001
0100
0010
0000
,
1001
0000
0000
1000
0000
1000
0100
0000
,
0100
0010
0000
0001
0000
0000
0001
0000
,
1000
0000
1000
0000
0010
1000
0100
0000
,
0010
0001
1000
0010
0000
0000
0100
0000
,
1001
0000
0001
0010
0000
0010
0000
0001
,
0100
0000
0100
0010
0000
0010
1000
0000
,
0001
0000
0001
0000
1000
0100
0000
0100
,
0000
0010
0001
0000
1000
0000
0010
0000
,
0110
0000
0100
0001
0000
0001
1000
0000
,
0001
0000
0001
0000
0010
0100
1000
0100
,
0010
0000
0001
1000
0000
0110
0000
1001
,
0000
0000
0000
1100
0000
1000
0100
0010
,
0001
0000
0000
0011
0000
0001
0010
0100
,
1000
0000
0000
1010
0000
1000
0010
0100
,
0001
0000
0000
0001
1000
0001
0010
0100
,
0000
0100
0000
1000
0000
0001
0100
0000
,
0110
0000
0000
1001
0000
0100
0001
1000
,
0010
0000
0000
1010
0000
0010
1000
0001
,
0100
0000
0000
0001
1000
0001
1000
0100
,
0000
0100
0010
0001
0000
0000
0010
0000
,
1100
0000
0000
0010
0000
0000
0000
0000
,
0001
0000
0000
0100
0000
0000
0000
0000
,
0010
0000
0010
0000
,
1000
0000
0000
0000
0000
0000
1000
0000
0001
0000
0000
0001
0000
0000
0001
0000
,
0010
0000
0000
0010
0000
0000
0000
0000
,
0100
0000
0000
0100
0000
0000
0000
0000
,
1000
0000
1000
0000
,
0001
0000
0000
0001
0100
0010
1000
0100
,
0010
0000
0000
0000
0000
0000
0000
0000
0010
0000
0000
0010
0000
0000
0010
0000
,
0100
0000
0000
0000
0000
0000
0000
0000
0010
0000
0000
0010
0000
0000
0010
0000
,
0001
0000
0000
0000
0000
0000
0000
0000
0001
0000
0000
0001
0000
0000
0001
0000
,
0100
0000
0000
0100
0000
0000
0100
0000
0010
0000
0000
0000
1000
0000
0000
0000
,
1001
0000
0000
0000
0000
0000
0000
0000
1000
0000
0000
1000
0000
0000
1000
0000
,
0010
0000
0000
0000
0000
0000
0000
0000
0010
0000
0000
0010
0000
0000
0010
0000
,
0100
0000
0000
0000
0000
0000
0100
0000
0001
0000
0000
0001
0000
0000
0001
0000
,
1000
0000
0000
1000
0000
0000
1000
0000
0100
0000
0000
0000
0010
0000
0000
0000
,
1001
0010
0001
0100
,
0010
0000
0100
0000
0001
0000
1000
0001
,
1000
0010
1000
0100
,
0010
0000
0001
0000
0010
0100
0010
0000
,
0110
0000
0100
1000
0000
1000
0010
0000
,
1000
0010
0100
0010
,
0110
0000
0100
0001
0000
0001
0000
0001
,
1000
0000
0000
0100
0000
0000
0000
0100
,
1001
0000
0000
0110
0000
1000
0010
0100
,
0001
0000
0000
0110
0000
0001
0010
0100
,
1000
0000
0000
1001
0000
1000
0001
0100
,
0010
0000
0000
0100
0010
1000
0010
1000
,
0000
0001
0100
0010
0000
1000
0100
0000
,
0110
0000
0000
1001
0000
0100
1000
0001
,
0100
0000
0000
0110
0000
0100
0001
1000
,
0010
0000
0000
1000
0100
1000
0100
0010
,
0000
0010
0001
0000
0100
0000
0010
1000
,
0101
0000
0000
1100
0000
0000
0010
0001
,
1100
0000
0000
0101
0000
0000
0100
0010
,
1000
0000
0000
0001
0000
0000
1001
0000
0000
0000
0000
0000
0000
0000
0000
0000
;

//---------------dance-single - ----------------
#NOTEDATA:;
#CHARTNAME:;
#CHARTHASH:982214978;
#STEPSTYPE:dance-single;
#BANNER:;
#DESCRIPTION:;
#CHARTSTYLE:;
#DIFFICULTY:Hard;
#METER:11;
#METERF:0.000000;
#LASTSECONDHINT:122.155220;
#RADARVALUES:0.532606,0.580487,0.256016,0.000000,0.080005,466.000000,434.000000,32.000000,0.000000,0.000000,0.000000,0.000000,0.000000,0.000000,0.532606,0.580487,0.256016,0.000000,0.080005,466.000000,434.000000,32.000000,0.000000,0.000000,0.000000,0.000000,0.000000,0.000000;
#CREDIT:;
#NOTES:
// measure 0
0000
0000
0000
0000
,  // measure 1
0000
0000
0000
0000
,  // measure 2
0000
0000
0000
0000
,  // measure 3
0000
0000
0000
0000
,  // measure 4
0000
0000
0000
0000
,  // measure 5
1000
0000
0000
0100
0000
0000
1000
0000
0000
0010
0000
0000
0100
0000
0001
0000
,  // measure 6
0010
0000
0000
0001
0000
0000
1000
0000
0000
0010
0000
0000
0100
0000
0001
0000
,  // measure 7
0010
0000
0000
0010
0000
0000
0010
0000
0100
0000
0000
0100
0000
0000
0100
0000
,  // measure 8
1000
0001
0000
1000
0001
0000
1000
0001
0000
1000
0001
0000
0100
0000
0010
0000
,  // measure 9
1000
0010
0100
0010
1000
0010
0100
0001
,  // measure 10
0010
0001
0010
0001
1000
0010
1000
0000
,  // measure 11
0001
0100
0001
0100
0001
0010
0001
0010
,  // measure 12
0100
0010
0100
0010
0001
1000
0001
0000
,  // measure 13
1000
0010
0100
0010
1000
0010
1000
0001
,  // measure 14
0010
0001
0010
0100
1000
0010
0100
0001
,  // measure 15
0011
0000
0000
1100
0000
0000
0101
0000
,  // measure 16
0100
0010
0100
0010
0100
0010
1000
1000
,  // measure 17
0001
0010
0100
0010
0001
0010
0100
0010
,  // measure 18
0001
0100
0010
0100
0001
0100
0010
1000
,  // measure 19
0100
1000
0010
0100
0010
1000
0100
0010
,  // measure 20
0100
1000
0010
0100
0001
1000
0001
0000
,  // measure 21
0010
0001
0100
0010
1000
0000
0100
1000
,  // measure 22
0010
0100
0001
0000
1000
0010
0100
0001
,  // measure 23
1000
0100
1000
0000
0001
0100
0010
1000
,  // measure 24
0001
1000
0100
0010
0000
0100
1000
0010
,  // measure 25
0101
0000
0100
0000
0001
0010
0001
0000
,  // measure 26
0100
0010
0100
0010
1000
0001
1000
0000
,  // measure 27
0001
0100
0010
0000
0001
0010
0100
0000
,  // measure 28
1000
0010
1000
0001
0100
0010
1000
0010
,  // measure 29
1000
0000
1000
0000
1000
0100
0001
0100
,  // measure 30
1000
0000
1000
0000
0001
0100
1000
0100
,  // measure 31
0001
0010
0100
1000
0000
0101
0000
1010
,  // measure 32
0000
0010
0100
0001
0010
0100
1000
0001
,  // measure 33
1001
0000
0100
0001
1000
0010
0100
0000
,  // measure 34
1001
0000
0001
0010
0100
1000
0010
0000
,  // measure 35
1001
0000
0010
0000
0100
0001
0100
0000
,  // measure 36
0010
1000
0100
0010
0001
1000
0001
0000
,  // measure 37
0110
0000
0100
0010
1000
0100
0010
0000
,  // measure 38
0110
0000
0010
0001
0100
0010
0100
0000
,  // measure 39
0010
1000
0010
0000
0100
0001
0100
0010
,  // measure 40
0000
1100
0000
0101
0000
0001
0010
0100
,  // measure 41
1000
0000
0001
0000
,  // measure 42
0100
0000
0100
0000
,  // measure 43
0010
0000
1000
0000
,  // measure 44
0001
0000
0000
0000
0000
0000
0001
0000
0010
0000
0000
0010
0000
0000
0010
0000
,  // measure 45
0100
0100
1000
1000
,  // measure 46
0001
0001
0100
0100
,  // measure 47
0010
0000
0010
0000
1000
0010
1000
0000
,  // measure 48
0001
0100
0001
0000
1000
0100
0010
0001
,  // measure 49
1001
0000
0000
0000
0000
0000
1000
0000
0010
0000
0000
0010
0000
0000
0010
0000
,  // measure 50
0100
0000
0000
0000
0100
0000
0000
0000
0001
0000
0000
0001
0000
0000
0001
0000
,  // measure 51
0010
0000
0000
0000
0001
0000
0000
0000
1000
0000
0000
1000
0000
0000
1000
0000
,  // measure 52
0010
0000
0000
0010
0000
0000
0100
0000
0001
0000
1000
0000
0100
0000
0000
0000
,  // measure 53
0110
0000
0000
0000
0000
0000
0001
0000
1000
0000
0000
1000
0000
0000
1000
0000
,  // measure 54
0001
0000
0000
0000
0010
0000
0000
0000
0100
0000
0000
0100
0000
0000
0100
0000
,  // measure 55
0010
0001
0010
0000
0100
1000
0100
0000
,  // measure 56
1000
0001
0100
0010
1000
0100
0010
0000
,  // measure 57
0110
0000
0010
0000
0001
0010
0001
0000
,  // measure 58
0100
0001
0100
0010
1000
0001
1000
0000
,  // measure 59
0001
0010
0001
0000
1000
0010
1000
0000
,  // measure 60
0001
0100
0100
1000
0100
0100
0001
0000
,  // measure 61
0010
0000
0010
0000
0100
0010
0100
0000
,  // measure 62
1000
0010
1000
0010
0010
0001
0010
0000
,  // measure 63
0001
0010
0100
1000
0000
0101
0000
1010
,  // measure 64
1001
0000
0000
0100
0000
0000
0010
0010
,  // measure 65
0110
0000
0000
0001
0000
1000
0100
0010
,  // measure 66
1001
0000
0010
1000
0100
0010
0001
0000
,  // measure 67
1001
0000
0001
0100
0010
1000
0001
0000
,  // measure 68
1001
0000
0010
0000
0100
0100
0100
0000
,  // measure 69
0001
0100
1000
0100
0001
0100
1000
0000
,  // measure 70
0110
0000
0010
1000
0100
0010
0001
0000
,  // measure 71
0110
0000
0100
0001
0010
0100
1000
0000
,  // measure 72
0110
0000
0010
1000
0001
0010
0001
0000
,  // measure 73
1000
0010
0001
0010
1000
0010
0100
0000
,  // measure 74
1001
0000
0001
1000
0100
0000
1000
0100
,  // measure 75
0110
0000
0000
0001
0000
0000
0110
0000
0000
0100
0000
0000
0010
0000
1000
0000
,  // measure 76
0101
0000
0000
1010
0000
0000
1001
0000
0000
0000
0000
0000
0000
0000
0000
0000
;
