#VERSION:0.83;
#TITLE:LET'S GET DOWN (MO-FUNK MIX);
#SUBTITLE:;
#ARTIST:JT PLAYAZ;
#TITLETRANSLIT:;
#SUBTITLETRANSLIT:;
#ARTISTTRANSLIT:;
#GENRE:;
#ORIGIN:;
#TAGS:;
#CREDIT:;
#BANNER:LET'S GET DOWN (MO-FUNK MIX).png;
#BACKGROUND:LET'S GET DOWN (MO-FUNK MIX)-bg.png;
#PREVIEWVID:;
#JACKET:LET'S GET DOWN (MO-FUNK MIX)-jacket.png;
#CDIMAGE:;
#DISCIMAGE:;
#LYRICSPATH:;
#CDTITLE:;
#MUSIC:LET'S GET DOWN (MO-FUNK MIX).ogg;
#OFFSET:0.000000;
#SAMPLESTART:14.843000;
#SAMPLELENGTH:15.000000;
#SELECTABLE:YES;
#BPMS:0.000000=145.761002
;
#STOPS:;
#DELAYS:;
#WARPS:;
#TIMESIGNATURES:0.000000=4=4
;
#TICKCOUNTS:0.000000=4
;
#COMBOS:0.000000=1
;
#SPEEDS:0.000000=1.000000=0.000000=0
;
#SCROLLS:0.000000=1.000000
;
#LABELS:0.000000=Song Start
;
#BGCHANGES:;
#KEYSOUNDS:;
#ATTACKS:
;

//---------------dance-single - ----------------
#NOTEDATA:;
#CHARTNAME:;
#CHARTHASH:2779342488;
#STEPSTYPE:dance-single;
#BANNER:;
#DESCRIPTION:;
#CHARTSTYLE:;
#DIFFICULTY:Beginner;
#METER:4;
#METERF:0.000000;
#LASTSECONDHINT:93.440628;
#RADARVALUES:0.167109,0.264361,0.144926,0.000000,0.000000,113.000000,99.000000,14.000000,0.000000,0.000000,0.000000,0.000000,0.000000,0.000000,0.167109,0.264361,0.144926,0.000000,0.000000,113.000000,99.000000,14.000000,0.000000,0.000000,0.000000,0.000000,0.000000,0.000000;
#CREDIT:;
#NOTES:
0000
0000
0000
0000
,
0000
0000
0000
0000
,
0000
0000
0000
0000
,
0000
0000
0000
0000
,
0000
0000
0000
0000
,
0000
0001
0000
1000
,
0000
0001
0000
1000
,
0000
0110
0000
1001
,
0000
0110
0000
1001
,
0000
0100
0000
0010
,
0010
0010
0010
0000
,
1000
0000
0001
0000
,
1000
0000
0001
0000
,
0000
0001
0000
0100
,
0100
0100
0100
0000
,
0010
0000
1000
0000
,
0001
0000
0000
0000
,
0110
0000
0000
0000
,
0100
0100
0100
0000
,
0001
0000
0100
0000
,
0010
0000
1000
0000
,
0001
0000
0000
0000
,
0010
0010
0010
0000
,
0100
0000
0010
0000
,
0001
0000
0000
0000
,
1001
0000
0000
0000
,
0110
0000
0000
0000
,
0110
0000
0000
0000
,
1001
0000
0000
0000
,
0000
1001
0000
1000
,
1000
1000
1000
0000
,
0010
0000
0000
0000
,
0100
0000
0100
0000
,
0000
0110
0000
0001
,
0001
0001
0001
0000
,
0000
0010
0000
0010
,
0000
0010
0000
0000
,
0110
0000
0000
0000
,
0100
0000
0100
0000
,
1000
0000
0001
0000
,
1000
0000
0001
0000
,
0001
0000
0000
0001
,
0000
0001
0000
1000
,
0000
1000
0000
0010
,
0000
0100
0000
0001
,
0001
0000
0000
0000
,
1000
1000
0000
0000
,
0001
0000
0100
0000
,
0010
0000
0100
0000
,
0000
0110
0000
0010
,
0010
0010
0010
0000
,
0000
1000
0000
0001
,
0000
1000
0000
0000
,
0000
1001
0000
1000
,
1000
1000
1000
0000
,
0000
0100
0000
0010
,
0000
0100
0000
0010
;

//---------------dance-single - ----------------
#NOTEDATA:;
#CHARTNAME:;
#CHARTHASH:1571726362;
#STEPSTYPE:dance-single;
#BANNER:;
#DESCRIPTION:;
#CHARTSTYLE:;
#DIFFICULTY:Easy;
#METER:8;
#METERF:0.000000;
#LASTSECONDHINT:93.646446;
#RADARVALUES:0.320908,0.382695,0.217389,0.000000,0.000000,217.000000,196.000000,21.000000,0.000000,0.000000,0.000000,0.000000,0.000000,0.000000,0.320908,0.382695,0.217389,0.000000,0.000000,217.000000,196.000000,21.000000,0.000000,0.000000,0.000000,0.000000,0.000000,0.000000;
#CREDIT:;
#NOTES:
0000
0000
0000
0000
,
0000
0000
0000
0000
,
0000
0000
0000
0000
,
0000
0000
0000
0000
,
0000
0000
0000
0000
,
0000
1000
0000
0001
,
0000
1000
0000
0110
,
0000
1001
0000
0011
,
0000
1100
1001
0011
,
0000
0101
0100
0010
,
1000
0000
0010
0000
0100
0000
0001
0010
,
0000
0000
0001
1000
0000
0000
1000
0000
,
0100
0100
0010
0100
,
0000
0110
0100
1000
,
0010
0000
0100
0000
0001
0000
1000
0010
,
1000
1000
0001
0001
,
0100
0100
0010
0000
,
0110
0000
0010
0100
,
0001
0010
0001
1000
,
0010
0010
1000
1000
,
0001
0100
0010
1000
,
0001
0000
1000
1000
,
0001
1000
0100
0010
,
0001
0001
1000
1000
,
0100
0001
0100
1000
,
0010
0100
0010
0100
0000
0000
0001
0000
,
1000
0000
1000
0000
0001
0100
0000
0000
,
0010
1000
0100
0010
,
0001
0000
1000
0000
0001
0100
0000
0000
,
0010
1001
1000
0100
,
0001
0000
0100
0000
1000
0000
0001
0100
,
0000
0000
0010
1000
0000
0000
0001
0010
,
0001
0001
1000
0010
,
0000
0110
0100
0001
,
1000
0000
0010
0000
1000
0000
0001
1000
,
0100
0100
0010
0100
,
1000
1000
0001
0000
,
1001
0110
0010
0010
,
0100
0001
1000
0010
,
1000
1000
0001
0001
,
1000
0100
0010
0000
,
0001
1100
0001
1010
,
1000
0011
1000
0101
,
0010
0010
0100
0100
,
0001
0100
0010
1000
,
1001
0000
1000
0100
,
0110
0100
1000
0000
,
0001
0001
1000
1000
,
0010
0100
0001
1000
,
0000
1001
0001
1000
,
0100
0000
0010
0000
0001
0000
1000
0010
,
0000
0000
0100
0001
0000
0000
1000
0100
,
0010
0010
0100
1000
,
0010
0000
0101
0000
0010
0000
1000
0100
,
0000
0000
0010
0100
0000
0000
1000
0100
,
0000
0000
0001
0100
0000
0000
1000
0100
,
0000
0000
0001
0100
0000
0000
0100
0100
;

//---------------dance-single - ----------------
#NOTEDATA:;
#CHARTNAME:;
#CHARTHASH:2440804711;
#STEPSTYPE:dance-single;
#BANNER:;
#DESCRIPTION:;
#CHARTSTYLE:;
#DIFFICULTY:Medium;
#METER:11;
#METERF:0.000000;
#LASTSECONDHINT:93.646446;
#RADARVALUES:0.394850,0.412133,0.217389,0.000000,0.041407,267.000000,246.000000,21.000000,0.000000,0.000000,0.000000,0.000000,0.000000,0.000000,0.394850,0.412133,0.217389,0.000000,0.041407,267.000000,246.000000,21.000000,0.000000,0.000000,0.000000,0.000000,0.000000,0.000000;
#CREDIT:;
#NOTES:
0000
0000
0000
0000
,
0000
0000
0000
0000
,
0000
0000
0000
0000
,
0000
0000
0000
0000
,
0000
0000
0000
0000
,
0100
0000
0100
0010
1000
0000
1000
0000
,
0100
0000
0100
0010
0001
0000
1000
0000
,
0000
1001
0000
0110
,
0000
1001
0110
1001
,
0000
0000
0110
0000
0100
0001
0010
0000
,
0001
1000
0010
0000
1000
0000
0100
0100
,
0010
0000
0100
0100
0000
0000
1000
1000
,
0001
0000
0000
0001
0000
0000
0001
0000
0000
0000
1000
0000
1000
0000
0010
0000
,
0100
0110
0010
1000
,
0100
1000
0001
0100
0010
0000
0100
0010
,
1000
1000
0001
0001
,
0010
0000
0000
0010
0000
0000
0010
0000
0000
0000
0100
0000
0100
0000
0100
0000
,
1000
0000
0000
0001
1000
0001
0000
0000
,
0010
0010
0010
0000
0001
0001
0001
0000
,
1000
1000
0001
0001
,
1000
0010
0100
0001
0100
0010
1000
0000
,
1001
0000
0000
0000
0100
0100
0100
0000
,
0010
0010
0010
0000
1000
1000
1000
0000
,
0001
0011
1000
1010
,
1000
0010
0100
0001
1000
0000
0000
0000
,
0100
0000
0000
0100
0000
0000
0010
0000
0000
0000
0010
0000
0100
0000
0000
0000
,
1000
0001
1000
0001
1000
0000
0000
0000
,
0010
1000
0100
0010
,
0001
0000
0001
0000
1000
0100
1000
0100
,
0000
0011
0100
1000
,
1010
0000
0100
0000
0001
0000
1000
0100
,
0000
0000
0001
0100
0000
0000
1000
0100
,
0001
0000
0000
0100
0000
0000
1000
0000
0000
0000
0001
0000
1000
0000
0001
0000
,
0000
1001
0010
1000
,
0001
0100
0010
1000
0000
0000
1000
0100
,
0010
0100
0010
0001
,
0010
0000
0000
0010
0000
0000
0010
0000
0000
0000
0001
0000
0100
0000
0010
0000
,
1000
1001
1000
0010
,
0100
0000
0001
0000
0100
0100
0100
0000
,
0001
1000
0100
1000
,
0001
0000
0010
0000
0001
0010
0001
0000
,
1000
0101
1000
0011
,
0001
1010
0001
1100
,
1000
0100
0010
0001
,
0010
0000
0100
0000
1000
0010
1000
0000
,
1001
0000
0000
0000
0100
0100
0100
0000
,
0010
0010
0000
0000
1000
0001
1000
0000
,
0001
0000
0000
0001
0000
0000
0010
0000
0000
0000
0010
0000
0100
0000
0000
0000
,
0010
0000
0100
0000
1000
0001
0000
0000
,
0100
0000
1010
0000
0010
0000
1000
0001
,
0010
0000
0010
0000
0001
0000
0100
0100
,
0000
0000
0010
0100
0010
0000
0100
0000
,
0001
0000
0000
0001
0000
0000
1000
0000
0000
0000
1000
0000
0100
0000
0010
0000
,
0000
0000
0110
0000
0010
0000
0100
1000
,
0001
0000
0100
1000
0000
0000
0100
0001
,
0000
0000
0100
1000
0000
0000
0100
0001
,
0010
0000
0000
0001
0000
0000
1000
0000
0000
0000
0100
0000
0100
0000
0100
0000
;

//---------------dance-single - ----------------
#NOTEDATA:;
#CHARTNAME:;
#CHARTHASH:3468261119;
#STEPSTYPE:dance-single;
#BANNER:;
#DESCRIPTION:;
#CHARTSTYLE:;
#DIFFICULTY:Hard;
#METER:13;
#METERF:0.000000;
#LASTSECONDHINT:93.749352;
#RADARVALUES:0.575268,0.589409,0.383019,0.000000,0.134574,389.000000,352.000000,37.000000,0.000000,0.000000,0.000000,0.000000,0.000000,0.000000,0.575268,0.589409,0.383019,0.000000,0.134574,389.000000,352.000000,37.000000,0.000000,0.000000,0.000000,0.000000,0.000000,0.000000;
#CREDIT:;
#NOTES:
// measure 0
0000
0000
0000
0000
,  // measure 1
0000
0000
0000
0000
,  // measure 2
0000
0000
0000
0000
,  // measure 3
0000
0000
0000
0000
,  // measure 4
0000
0000
0000
0000
,  // measure 5
0001
0000
0000
0001
0100
0000
0010
0000
1000
0000
0000
0000
0001
0000
0100
0000
,  // measure 6
0001
0000
0000
1000
0100
0000
0010
0000
0001
0000
0001
0000
1000
0000
0000
0000
,  // measure 7
0010
0101
0010
1100
,  // measure 8
0010
0000
1001
0000
0001
1000
0001
1000
,  // measure 9
0100
0000
1001
0000
0010
0001
1000
0000
,  // measure 10
0100
1000
0001
0100
1000
0100
0001
0010
,  // measure 11
0100
0000
0010
0100
1000
0000
0010
0100
,  // measure 12
0001
0000
0000
0001
0000
0000
1000
0000
0000
0000
0001
0000
0100
0000
0010
0000
,  // measure 13
0100
0000
0010
1000
0100
0010
0001
0000
,  // measure 14
1000
0100
0001
0100
1000
0010
0100
0001
,  // measure 15
0010
0010
0100
0000
0100
0100
1000
1000
,  // measure 16
0001
0000
0000
0101
0000
0000
1001
0000
0000
0000
0100
0000
0100
0000
0100
0000
,  // measure 17
0010
0000
0000
0010
1000
0010
1000
0000
,  // measure 18
0001
0001
1000
1000
0010
0100
0010
0000
,  // measure 19
1000
0010
0100
0000
0001
0010
0100
0000
,  // measure 20
1000
0100
0001
0100
1000
0010
0001
0010
,  // measure 21
1000
0000
0101
0000
0010
1000
0001
0000
,  // measure 22
0010
0001
0010
0001
1000
0010
1000
0010
,  // measure 23
0100
0000
0000
0001
1000
0000
0100
0000
0010
0000
0000
0001
1000
0000
0010
0000
,  // measure 24
0100
0000
0001
0000
1000
0000
1000
0000
0010
0000
0000
0010
0000
0000
0100
0000
,  // measure 25
0110
0000
0000
0100
0000
0000
0100
0000
0000
0000
0001
0000
0001
0000
1000
0000
,  // measure 26
0001
0010
0001
0010
1000
0010
1000
0000
,  // measure 27
0010
0001
1000
0010
0100
0001
1000
0100
,  // measure 28
0010
0000
0010
0000
0100
0000
0100
0000
1001
0000
0000
0110
0000
0000
0010
0000
,  // measure 29
1100
0101
1010
0011
,  // measure 30
0110
0100
1000
0001
0100
0010
1000
0001
,  // measure 31
0010
0010
0100
0000
0100
0100
0010
0001
,  // measure 32
1000
0000
0000
0101
0000
0000
0101
0000
0000
0000
0010
0000
1000
0000
1000
0000
,  // measure 33
0001
1100
1010
0101
,  // measure 34
0011
0000
0110
0000
1001
0000
0110
1000
,  // measure 35
0001
0001
0010
0010
0001
0001
1000
1000
,  // measure 36
0010
0000
0000
1010
0000
0000
1010
0000
0000
0000
0100
0000
0001
0000
1000
0000
,  // measure 37
1100
0000
0000
0000
1001
0000
0000
0000
1000
0010
0000
0100
0001
0000
0000
0000
,  // measure 38
0100
0100
0010
0010
1000
0001
0010
0100
,  // measure 39
0010
0001
1000
0010
0100
0001
1000
0100
,  // measure 40
0010
0100
0010
0100
1000
0100
0010
0001
,  // measure 41
1001
0000
0000
0001
0010
0000
0000
0001
0100
0000
0000
0010
1000
0000
0000
0100
,  // measure 42
0010
0000
0001
0000
0100
0000
1000
0000
0100
0000
0001
0010
0000
0000
0100
0000
,  // measure 43
1000
1000
0010
0010
0100
0100
0001
0001
,  // measure 44
0100
0100
0010
0010
1000
0001
0010
0100
,  // measure 45
1001
0000
0100
1000
0010
0100
0001
0000
,  // measure 46
1001
1001
0010
0001
0100
0010
1000
0000
,  // measure 47
0010
0000
0010
0000
1000
0000
0001
0000
0000
1000
0100
1000
0100
0000
0000
0000
,  // measure 48
1000
0000
1000
0000
0001
0100
0001
0000
1000
0010
0100
0001
0000
0000
0100
0000
,  // measure 49
1001
0000
0001
1000
0100
1000
0100
0000
,  // measure 50
0010
0100
1000
0100
0010
0001
0010
0100
,  // measure 51
1000
1000
0010
0000
0001
0001
0010
0000
,  // measure 52
0100
0000
0000
0110
0000
0000
1001
0000
0000
0000
0001
0000
0001
0000
0100
0000
,  // measure 53
0010
0000
1000
0010
0100
0001
0010
0000
,  // measure 54
0100
0100
0001
0000
0100
0100
1000
0000
,  // measure 55
0001
0010
0100
0100
1000
0010
0100
0100
,  // measure 56
0001
0000
0000
1001
0000
0000
0110
0000
0000
0000
0100
0000
0100
0000
0010
1000
;
