#VERSION:0.83;
#TITLE:KEEP ON ROCKIN' (ORIGINAL MIX);
#SUBTITLE:;
#ARTIST:FLASH FINGER;
#TITLETRANSLIT:;
#SUBTITLETRANSLIT:;
#ARTISTTRANSLIT:;
#GENRE:;
#ORIGIN:;
#CREDIT:;
#BANNER:Keep On Rockin' (Original Mix).png;
#BACKGROUND:Keep On Rockin' (Original Mix)-bg.png;
#PREVIEWVID:;
#JACKET:Keep On Rockin' (Original Mix)-jacket.png;
#CDIMAGE:;
#DISCIMAGE:;
#LYRICSPATH:;
#CDTITLE:;
#MUSIC:KEEP ON ROCKIN' (ORIGINAL MIX).ogg;
#OFFSET:0.000000;
#SAMPLESTART:30.937000;
#SAMPLELENGTH:15.000000;
#SELECTABLE:YES;
#BPMS:0.000=128.000;
#STOPS:;
#DELAYS:;
#WARPS:;
#TIMESIGNATURES:0.000=4=4;
#TICKCOUNTS:0.000=4;
#COMBOS:0.000=1;
#SPEEDS:0.000=1.000=0.000=0;
#SCROLLS:0.000=1.000;
#FAKES:;
#LABELS:0.000=Song Start;
#BGCHANGES:;
#KEYSOUNDS:;
#ATTACKS:
;

//---------------dance-single - ----------------
#NOTEDATA:;
#CHARTNAME:;
#STEPSTYPE:dance-single;
#DESCRIPTION:;
#CHARTSTYLE:;
#DIFFICULTY:Beginner;
#METER:2;
#RADARVALUES:0.117457,0.144322,0.052481,0.000000,0.000000,94.000000,88.000000,6.000000,0.000000,0.000000,0.000000,0.000000,0.000000,0.000000,0.117457,0.144322,0.052481,0.000000,0.000000,94.000000,88.000000,6.000000,0.000000,0.000000,0.000000,0.000000,0.000000,0.000000;
#CREDIT:;
#NOTES:
0000
0000
0000
0000
,
0000
0000
0000
0000
,
0000
0000
0000
0000
,
0000
0000
0000
0000
,
0000
0000
0000
0000
,
1000
0000
1000
0000
,
1000
0000
0000
0000
,
0001
0000
0001
0000
,
0001
0000
0000
0000
,
0100
0000
0100
0000
,
0100
0000
0100
0000
,
0010
0000
0010
0000
,
0010
0000
0010
0000
,
0001
0000
1000
0000
,
1000
0000
0001
0000
,
0001
0000
1000
0000
,
1000
0000
0001
0000
,
0100
0100
0100
0000
,
0001
0000
0000
0000
,
0001
0001
0001
0000
,
1000
0000
0000
0000
,
1000
1000
1000
0000
,
0010
0000
0000
0000
,
0010
0010
0010
0000
,
0100
0000
0000
0000
,
0110
0000
0000
0000
,
0000
0000
0000
0000
,
0001
0000
0001
0000
,
0001
0000
0000
0000
,
1000
0000
1000
0000
,
1000
0000
0000
0000
,
0100
0000
0100
0000
,
0100
0000
0000
0000
,
0010
0000
0010
0000
,
0010
0000
0000
0000
,
0110
0000
0000
0000
,
0110
0000
0000
0000
,
1001
0000
0000
0000
,
1001
0000
0000
0000
,
0001
0000
0100
0000
,
0010
0000
1000
0000
,
0001
0000
0100
0000
,
0010
0000
1000
0000
,
0001
0001
0001
0000
,
1000
0000
0000
0000
,
0001
0001
0001
0000
,
1000
0000
0000
0000
,
1000
1000
1000
0000
,
0001
0000
0000
0000
,
1000
1000
1000
0000
,
0001
0000
0000
0000
,
0100
0100
0100
0000
,
0010
0000
0000
0000
,
0010
0010
0010
0000
,
0100
0000
0000
0000
,
1001
0000
0000
0000
;

//---------------dance-single - ----------------
#NOTEDATA:;
#CHARTNAME:;
#STEPSTYPE:dance-single;
#DESCRIPTION:;
#CHARTSTYLE:;
#DIFFICULTY:Easy;
#METER:5;
#RADARVALUES:0.227416,0.336750,0.131201,0.000000,0.000000,182.000000,167.000000,15.000000,0.000000,0.000000,0.000000,0.000000,0.000000,0.000000,0.227416,0.336750,0.131201,0.000000,0.000000,182.000000,167.000000,15.000000,0.000000,0.000000,0.000000,0.000000,0.000000,0.000000;
#CREDIT:;
#NOTES:
0000
0000
0000
0000
,
0000
0000
0000
0000
,
0000
0000
0000
0000
,
0000
0000
0000
0000
,
0000
0000
0000
0000
,
1000
0100
1000
0001
,
1000
0000
0000
0000
,
0001
0010
0001
1000
,
0001
0000
0000
0000
,
1000
1000
1000
1000
,
1000
1000
1000
1000
,
0100
0100
0100
0100
,
0100
0100
0100
0100
,
0010
0010
0010
0010
,
0010
0010
0010
0010
,
0001
0001
0001
0001
,
0001
0001
1001
0000
,
0001
0001
1000
0001
,
0001
1000
0001
0000
,
1000
1000
0001
1000
,
1000
0001
1000
0000
,
0010
0010
0100
0010
,
0010
0100
0010
0000
,
0100
0100
0010
0100
,
0100
0010
0100
0100
,
0110
0000
0000
0000
,
0000
0000
0000
0000
,
0010
0001
0010
0100
,
0010
0000
0000
0000
,
0100
1000
0100
0001
,
0100
0000
0000
0000
,
0010
1000
0010
0100
,
0010
0000
0000
0000
,
0100
0001
0100
0010
,
0100
0000
0000
0000
,
1000
1000
1100
1100
,
0001
0001
0011
0011
,
1000
1000
1010
1010
,
0001
0001
0101
0101
,
0001
0100
0010
1000
,
0001
0010
0100
1000
,
1000
0100
0010
0001
,
0100
0010
0110
0000
,
1001
1000
0100
1000
,
0001
0001
1000
0000
,
0001
0100
0001
1000
,
0001
0001
0010
0000
,
0100
1000
0100
0001
,
0100
0100
0010
0000
,
0010
0001
1000
0001
,
0010
0010
0100
0000
,
1100
1000
0100
0010
,
0100
1000
0001
0001
,
0011
0001
0100
0010
,
1000
0001
1000
1000
,
1001
0000
0000
0000
;

//---------------dance-single - ----------------
#NOTEDATA:;
#CHARTNAME:;
#STEPSTYPE:dance-single;
#DESCRIPTION:;
#CHARTSTYLE:;
#DIFFICULTY:Medium;
#METER:9;
#RADARVALUES:0.371113,0.432965,0.174935,0.052481,0.078721,297.000000,277.000000,20.000000,6.000000,0.000000,0.000000,0.000000,0.000000,0.000000,0.371113,0.432965,0.174935,0.052481,0.078721,297.000000,277.000000,20.000000,6.000000,0.000000,0.000000,0.000000,0.000000,0.000000;
#CREDIT:;
#NOTES:
0000
0000
0000
0000
,
0000
0000
0000
0000
,
0000
0000
0000
0000
,
0000
0000
0000
0000
,
0000
0000
0000
0000
,
2001
0000
0000
0010
0000
0000
0001
0000
0000
0000
0010
0000
0000
0000
0001
0000
,
0000
0000
0000
0000
0100
0000
0000
0000
0010
0000
0000
0010
0000
0000
0010
0000
,
3002
0000
0000
1000
0000
0000
0100
0000
0000
0000
0100
0000
0000
0000
1000
0000
,
0000
0000
0010
0000
0103
0100
0010
0010
,
1001
1001
1001
1001
,
1001
0000
1001
0000
1001
0000
0100
0010
,
1001
1001
1001
1001
,
1001
0000
1001
0000
1001
0000
0010
0100
,
1001
0000
1000
0100
1000
0000
0001
0100
,
0001
0000
1000
0010
1000
0000
0001
0010
,
1001
0000
0010
0001
1000
0000
0010
1000
,
0001
0000
0100
0010
1000
1000
0001
0000
,
0010
0001
0100
0000
0010
0100
0010
0000
,
0100
0001
0010
0001
1000
1000
0100
0000
,
1000
0100
1000
0000
0100
1000
0010
0000
,
0100
0010
1000
0001
0010
0010
0001
0000
,
0001
0100
0010
0000
0001
0100
0010
0100
,
0100
0001
0010
0000
0001
0001
1000
0000
,
1000
0010
0100
0000
0100
0010
1000
0010
,
0010
1000
0100
0000
1000
0001
0100
0100
,
0010
0000
0000
0000
,
0000
0000
0000
0000
,
0020
0000
0000
0100
0000
0000
1000
0000
0000
0000
1000
0000
0000
0000
0100
0000
,
0000
0000
0000
0000
0100
0000
0000
0000
1000
0000
0000
0100
0000
0000
1030
0000
,
0200
0000
0000
0001
0000
0000
0010
0000
0000
0000
0010
0000
0000
0000
0001
0000
,
0000
0000
0000
0000
0001
0000
0000
0000
0010
0000
0000
0010
0000
0000
0301
0000
,
2000
0000
0000
0001
0000
0000
0100
0000
0000
0000
0100
0000
0000
0000
0010
0000
,
0000
0000
0000
0000
0001
0000
0000
0000
0100
0000
0000
0100
0000
0000
3001
0000
,
0002
0000
0000
1000
0000
0000
0010
0000
0000
0000
0100
0000
0000
0000
0100
0000
,
0000
0000
0010
0000
1000
1000
1003
0000
,
1001
0000
0000
0001
0000
0000
0010
0000
0000
0001
0000
0000
0100
0000
0000
0000
,
0010
0000
0000
1000
0000
0000
0001
0000
0000
1000
0000
0000
0100
0000
0100
0000
,
1001
0000
0000
1000
0000
0000
0100
0000
0000
1000
0000
0000
0001
0000
0000
0000
,
0100
0000
0000
0010
0000
0000
1000
0000
0000
0001
0000
0000
0010
0000
0010
0000
,
0001
0100
0001
0000
1000
0100
1000
0000
,
0001
0010
0100
0000
1000
0010
0100
0000
,
0010
1000
0001
0100
0010
0100
1000
0100
,
0001
0010
0100
1000
1000
0001
1001
0000
,
0001
0100
0010
0000
0001
1000
0100
0000
,
0001
0010
0100
0000
0001
1000
0100
0100
,
1000
0010
0100
0000
1000
0001
0010
0000
,
0100
1000
0010
0000
0100
0001
0010
0010
,
0001
0001
0010
0000
0100
0100
0010
0000
,
0001
0000
1000
0001
0100
0100
0010
0000
,
1000
1000
0010
0000
0100
0100
0010
0000
,
1000
0000
0001
0100
0010
0010
1000
0000
,
0001
0010
0100
0000
0001
1000
0100
0000
,
1000
0010
0100
0000
0010
1000
0010
0010
,
1000
0001
0100
0000
0010
0001
0100
0000
,
0010
1000
0100
0000
1000
1000
0100
0010
,
0001
0000
0000
0000
;

//---------------dance-single - ----------------
#NOTEDATA:;
#CHARTNAME:;
#STEPSTYPE:dance-single;
#DESCRIPTION:;
#CHARTSTYLE:;
#DIFFICULTY:Hard;
#METER:13;
#RADARVALUES:0.508562,0.625394,0.323630,0.052481,0.349871,407.000000,370.000000,37.000000,6.000000,0.000000,0.000000,0.000000,0.000000,0.000000,0.508562,0.625394,0.323630,0.052481,0.349871,407.000000,370.000000,37.000000,6.000000,0.000000,0.000000,0.000000,0.000000,0.000000;
#CREDIT:;
#NOTES:
// measure 0
0000
0000
0000
0000
,  // measure 1
0000
0000
0000
0000
,  // measure 2
0000
0000
0000
0000
,  // measure 3
0000
0000
0000
0000
,  // measure 4
0000
0000
0000
0000
,  // measure 5
2001
0000
0000
0001
0000
0000
0010
0000
0000
0000
0001
0000
0000
0000
0001
0000
,  // measure 6
0000
0000
0000
0000
0010
0000
0000
0000
0100
0000
0000
0100
0000
0000
3100
0000
,  // measure 7
1002
0000
0000
1000
0000
0000
0100
0000
0000
0000
0100
0000
0000
0000
1000
0000
,  // measure 8
0000
0000
0010
0000
0103
0100
1001
0010
,  // measure 9
1001
1001
1001
1001
,  // measure 10
1100
0000
1100
0000
1100
0000
1100
0010
,  // measure 11
0011
0011
0011
0011
,  // measure 12
0101
0000
0101
0000
0101
0010
1010
1000
,  // measure 13
1001
0000
0000
0000
1010
0000
0001
0100
0001
0000
0000
0000
0011
0000
1000
0100
,  // measure 14
1000
0000
0000
0000
1100
0000
0001
0100
0010
0000
1000
0000
0011
0000
0100
0000
,  // measure 15
1010
0000
0000
0000
1001
0000
1000
0010
0100
0000
0000
0000
1001
0000
0001
0010
,  // measure 16
0100
0100
0010
0100
1000
1000
1001
0100
,  // measure 17
0001
0000
0100
0000
0001
0100
0000
0001
0100
0000
0010
0000
0100
0000
0001
0000
,  // measure 18
0010
0000
0100
0000
0010
0000
0001
0000
1000
0001
1000
0001
1000
0000
0000
0000
,  // measure 19
1000
0000
0010
0000
0100
0010
0000
0010
1000
0000
0100
0000
0010
0000
0100
0000
,  // measure 20
1000
0000
1000
0000
0010
0000
0100
0000
0010
1000
0010
1000
0001
0000
0000
0000
,  // measure 21
0100
0000
0010
0000
0100
0001
0000
0001
1000
0000
0001
0000
0010
0000
0100
0000
,  // measure 22
1000
0000
0100
0000
0010
0000
0100
0000
1000
0010
1000
0001
0100
0000
0000
0000
,  // measure 23
0010
0000
1000
0000
0001
0010
0000
0010
0100
0000
1000
0000
0001
0000
0100
0000
,  // measure 24
0010
0000
0010
0000
1000
0000
0001
0000
1000
0010
0100
0001
0010
0000
0100
0000
,  // measure 25
0110
0000
0000
0000
,  // measure 26
0000
0000
0000
0000
,  // measure 27
2010
0000
0000
0001
0000
0000
0010
0000
0000
0000
0010
0000
0000
0000
0100
0000
,  // measure 28
0000
0000
0000
0000
0010
0000
0000
0000
0001
0000
0000
0001
0000
0000
0100
0000
,  // measure 29
3002
0000
0000
1000
0000
0000
0010
0000
0000
0000
0010
0000
0000
0000
0100
0000
,  // measure 30
0000
0000
0000
0000
0010
0000
0000
0000
1000
0000
0000
1000
0000
0000
0103
0000
,  // measure 31
0210
0000
0000
0010
0000
0000
1000
0000
0000
0000
1000
0000
0000
0000
0001
0000
,  // measure 32
0000
0000
0000
0000
0010
0000
0000
0000
0001
0000
0000
0001
0000
0000
0010
0000
,  // measure 33
0320
0000
0000
1000
0000
0000
0100
0000
0000
0000
0001
0000
0000
0000
0001
0000
,  // measure 34
0000
0000
0000
0000
0100
0000
0000
0000
1030
0000
0000
0001
0000
0000
0100
0000
,  // measure 35
1001
0000
1000
0100
0000
1000
0100
0000
0010
0001
0000
0010
0001
0000
0001
0000
,  // measure 36
0100
0000
0010
1000
0000
0010
1000
0000
0001
0010
0000
0001
0010
0000
0010
0000
,  // measure 37
0001
0000
1000
0010
0000
1000
0010
0000
1000
0001
0000
0001
0100
0000
0100
0000
,  // measure 38
0010
0000
1000
0100
0000
0100
0010
0000
0001
0100
0000
0010
1000
0000
1000
0000
,  // measure 39
0001
0100
0001
0100
0010
1000
0010
1000
,  // measure 40
0001
0010
0100
1000
0100
0010
0001
1000
,  // measure 41
0010
0100
0001
0000
0010
0100
1000
0000
0100
0010
0001
0000
0010
0100
1000
0000
,  // measure 42
0010
1000
0100
0000
0010
0001
0100
0000
1001
0000
0100
0000
1001
0000
0010
0000
,  // measure 43
1001
0000
0100
0000
0001
0100
0000
0000
0010
0000
1000
0000
0010
1000
0000
1000
,  // measure 44
0100
0000
0100
0000
0010
0000
0001
0000
1000
0010
0100
0010
1000
0000
0000
0000
,  // measure 45
0001
0000
0001
0000
0100
0001
0000
0000
0100
0000
0100
0000
0001
1000
0000
1000
,  // measure 46
0100
0000
0010
0000
0001
0000
0010
0000
0100
1000
0100
1000
0001
0000
0000
0000
,  // measure 47
1000
0000
0001
0000
0100
0001
0000
0100
0001
0000
0100
0000
1000
0000
0100
0000
,  // measure 48
0010
0000
0100
0000
0001
0000
1000
0000
0010
1000
0010
1000
0001
0000
0000
0000
,  // measure 49
0010
0000
0100
0000
0010
0001
0000
0010
0001
0000
0010
0000
1000
0000
0010
0000
,  // measure 50
0001
0000
0100
0000
0010
0000
1000
0000
0001
1000
0001
1000
0100
0000
0110
0000
,  // measure 51
0100
0000
1000
0000
0010
0100
0000
0010
0100
0000
0001
0000
0010
0000
1000
0000
,  // measure 52
0010
0000
0001
0000
0100
0000
0010
0000
1000
0100
1000
0100
1000
0000
0001
0000
,  // measure 53
1000
0000
0001
0000
0100
0010
0000
0100
0010
0000
0100
0000
0001
0000
1000
0000
,  // measure 54
0100
0000
0001
0000
0100
0000
1000
0000
0010
0100
0010
1000
0001
0000
0010
0000
,  // measure 55
0110
0000
0000
0000
;
