#VERSION:0.83;
#TITLE:Keep It Going;
#SUBTITLE:;
#ARTIST:K. Wit feat. Anthony Shoemo;
#TITLETRANSLIT:;
#SUBTITLETRANSLIT:;
#ARTISTTRANSLIT:;
#GENRE:;
#ORIGIN:;
#TAGS:;
#CREDIT:;
#BANNER:Keep It Going.png;
#BACKGROUND:Keep It Going-bg.png;
#PREVIEWVID:;
#JACKET:Keep It Going-jacket.png;
#CDIMAGE:;
#DISCIMAGE:;
#LYRICSPATH:;
#CDTITLE:;
#MUSIC:Keep It Going.ogg;
#OFFSET:0.000000;
#SAMPLESTART:55.182499;
#SAMPLELENGTH:15.000000;
#SELECTABLE:YES;
#BPMS:0.000000=100.000000
;
#STOPS:;
#DELAYS:;
#WARPS:;
#TIMESIGNATURES:0.000000=4=4
;
#TICKCOUNTS:0.000000=4
;
#COMBOS:0.000000=1
;
#SPEEDS:0.000000=1.000000=0.000000=0
;
#SCROLLS:0.000000=1.000000
;
#LABELS:0.000000=Song Start
;
#BGCHANGES:;
#KEYSOUNDS:;
#ATTACKS:
;

//---------------dance-single - ----------------
#NOTEDATA:;
#CHARTNAME:;
#CHARTHASH:2147483647;
#STEPSTYPE:dance-single;
#BANNER:;
#DESCRIPTION:;
#CHARTSTYLE:;
#DIFFICULTY:Beginner;
#METER:3;
#METERF:0.000000;
#LASTSECONDHINT:93.599998;
#RADARVALUES:0.107133,0.144177,0.000000,0.000000,0.000000,71.000000,71.000000,0.000000,0.000000,0.000000,0.000000,0.000000,0.000000,0.000000,0.107133,0.144177,0.000000,0.000000,0.000000,71.000000,71.000000,0.000000,0.000000,0.000000,0.000000,0.000000,0.000000,0.000000;
#CREDIT:;
#NOTES:
0000
0000
0000
0000
,
0000
0000
0000
0000
,
0000
0000
0000
0000
,
0100
0000
0001
0000
,
0001
0000
0000
0000
,
0010
0000
1000
0000
,
1000
0000
0000
0000
,
1000
0000
0010
0000
,
0010
0000
0000
0000
,
0001
0000
0100
0000
,
0100
0000
0000
0000
,
0001
0000
1000
0000
,
0001
0000
0000
0000
,
1000
0000
0001
0000
,
1000
0000
0000
0000
,
0000
0010
0000
0010
,
0000
0010
0000
0000
,
0000
0100
0000
0100
,
0000
0100
0000
0000
,
0000
0010
0000
0001
,
0000
0010
0000
0000
,
0000
0100
0000
1000
,
1000
0000
0001
0000
,
0000
0001
0001
0001
,
0000
0001
0001
0001
,
0000
1000
1000
1000
,
1000
0000
0001
0000
,
0000
0100
0100
0100
,
0000
0100
0100
0100
,
0000
0010
0010
0010
,
0010
0000
0010
0000
,
0001
0000
0010
0000
,
0001
0000
0000
0000
,
1000
0000
0100
0000
,
1000
0000
0000
0000
,
0000
0001
0001
0001
,
0000
1000
1000
1000
,
0000
0001
0001
0001
,
0001
0000
1000
0000
,
0100
0000
0000
0000
;

//---------------dance-single - ----------------
#NOTEDATA:;
#CHARTNAME:;
#CHARTHASH:2147483647;
#STEPSTYPE:dance-single;
#BANNER:;
#DESCRIPTION:;
#CHARTSTYLE:;
#DIFFICULTY:Easy;
#METER:7;
#METERF:0.000000;
#LASTSECONDHINT:93.599998;
#RADARVALUES:0.316874,0.370742,0.686559,0.242936,0.000000,210.000000,145.000000,65.000000,23.000000,0.000000,0.000000,0.000000,0.000000,0.000000,0.316874,0.370742,0.686559,0.242936,0.000000,210.000000,145.000000,65.000000,23.000000,0.000000,0.000000,0.000000,0.000000,0.000000;
#CREDIT:;
#NOTES:
0000
0000
0000
0000
,
0000
0000
0000
0000
,
0000
0000
0000
0000
,
0001
1000
0010
0110
,
0100
0010
0100
1001
,
0001
0010
0001
1100
,
1000
0100
1000
0011
,
0010
0010
0100
0110
,
1000
0010
0100
1001
,
0010
1000
0100
1000
,
0010
0100
1001
1001
,
0001
1000
0100
0110
,
0010
0001
0100
0110
,
1000
1000
0001
0001
,
0020
0032
0203
0310
,
1010
0101
1010
0101
,
1000
0100
0010
0001
,
1100
0011
1100
0011
,
0001
0010
0100
1000
,
0101
1010
0101
1010
,
0001
0010
0001
1000
,
0011
1100
0011
1100
,
2000
3020
0230
0302
,
0003
1001
0000
1001
0000
0110
0000
1100
,
0000
0101
0000
1010
0000
0011
0000
0110
,
0000
1001
0000
1100
0000
0011
0000
1001
,
0002
0023
0230
2300
,
3000
1100
0000
1010
0000
1001
0000
0110
,
0000
0011
0000
0101
0000
1001
0000
0110
,
0000
1100
0000
0101
0000
1100
0000
1001
,
0020
0230
0302
2003
,
3100
0010
0100
0110
,
0010
0001
1000
0010
,
0110
0110
1000
0001
,
2000
3020
0230
0302
,
0003
1100
0000
1010
0000
1100
0000
1001
,
0000
0011
0000
0101
0000
0011
0000
1001
,
0000
1010
0000
0011
0000
1010
0000
0101
,
0200
0320
2030
3002
,
1003
0000
0000
0000
;

//---------------dance-single - ----------------
#NOTEDATA:;
#CHARTNAME:;
#CHARTHASH:2147483647;
#STEPSTYPE:dance-single;
#BANNER:;
#DESCRIPTION:;
#CHARTSTYLE:;
#DIFFICULTY:Medium;
#METER:10;
#METERF:0.000000;
#LASTSECONDHINT:93.599998;
#RADARVALUES:0.428534,0.391339,0.623185,0.126749,0.000000,284.000000,225.000000,59.000000,12.000000,0.000000,0.000000,0.000000,0.000000,0.000000,0.428534,0.391339,0.623185,0.126749,0.000000,284.000000,225.000000,59.000000,12.000000,0.000000,0.000000,0.000000,0.000000,0.000000;
#CREDIT:;
#NOTES:
// measure 0
0000
0000
0000
0000
,  // measure 1
0000
0000
0000
0000
,  // measure 2
0000
0000
0000
0000
,  // measure 3
1000
1000
0101
0000
0001
0001
1100
0000
,  // measure 4
0010
0100
0010
0100
1000
0001
1000
0000
,  // measure 5
0100
1000
0011
0000
1000
0001
1010
0000
,  // measure 6
1000
1000
0001
0001
0100
0010
0110
0000
,  // measure 7
0010
1000
0101
0000
0100
0001
1100
0000
,  // measure 8
0010
0100
0010
0100
1000
0001
1001
0000
,  // measure 9
1000
0100
1010
0000
0001
0100
0011
0000
,  // measure 10
0010
0010
0100
0100
1000
0001
1000
0000
,  // measure 11
0101
0000
1100
0000
0010
1000
0100
0000
,  // measure 12
0010
0100
0010
0100
1000
0001
1000
0001
,  // measure 13
1001
0000
1010
0100
0001
0001
0010
0000
,  // measure 14
0021
0230
2300
3002
,  // measure 15
0003
1001
0000
1100
0000
0101
0000
0011
,  // measure 16
0010
0010
0010
0001
1000
0010
0100
0001
,  // measure 17
0000
1100
0000
0101
0000
1010
0000
0011
,  // measure 18
0100
0100
0100
0010
0001
1000
0001
1001
,  // measure 19
0000
0101
0000
1010
0000
1100
0000
0011
,  // measure 20
0001
0010
1000
0010
0001
0100
0010
1000
,  // measure 21
0000
0101
0000
1100
0000
0101
0000
1100
,  // measure 22
0011
0000
0110
0000
1000
1000
0001
0001
,  // measure 23
0000
1010
0000
1010
0010
1000
0010
1000
,  // measure 24
0000
0101
0000
0101
0100
0001
0100
0001
,  // measure 25
0000
0110
0000
0110
1000
0001
1000
0001
,  // measure 26
1000
1000
0100
0100
0001
0001
0010
0010
,  // measure 27
0000
0011
0000
1100
0010
0001
0010
0100
,  // measure 28
0000
1100
0000
0101
0010
1000
0001
0100
,  // measure 29
0000
0110
0000
1001
0100
0010
1000
0001
,  // measure 30
0010
0020
0130
0200
2300
3200
0320
0032
,  // measure 31
1003
1000
1000
0010
0100
0000
0110
0000
,  // measure 32
0010
0010
0100
0100
0001
0000
1001
0000
,  // measure 33
0011
0000
1100
0000
0001
0100
0010
0000
,  // measure 34
1000
0010
0100
0001
0100
0010
1001
1001
,  // measure 35
0000
1100
0000
0101
0001
0100
0010
1000
,  // measure 36
0000
1010
0000
0011
1000
0100
0010
0001
,  // measure 37
0000
1001
0000
0110
0100
0010
1000
0001
,  // measure 38
0020
0001
0001
0031
2000
0010
3010
0100
,  // measure 39
1001
0000
0000
0000
;

//---------------dance-single - ----------------
#NOTEDATA:;
#CHARTNAME:;
#CHARTHASH:2147483647;
#STEPSTYPE:dance-single;
#BANNER:;
#DESCRIPTION:;
#CHARTSTYLE:;
#DIFFICULTY:Hard;
#METER:13;
#METERF:0.000000;
#LASTSECONDHINT:93.599998;
#RADARVALUES:0.629220,0.597307,0.887246,0.105625,0.253499,417.000000,333.000000,84.000000,10.000000,0.000000,0.000000,0.000000,0.000000,0.000000,0.629220,0.597307,0.887246,0.105625,0.253499,417.000000,333.000000,84.000000,10.000000,0.000000,0.000000,0.000000,0.000000,0.000000;
#CREDIT:;
#NOTES:
0000
0000
0000
0000
,
0000
0000
0000
0000
,
0000
0000
0000
0000
,
0001
0100
1001
0010
1000
0100
0011
0010
,
0100
1000
0010
0000
0100
0010
1000
0000
0001
1000
0001
0000
0100
0000
0110
0000
,
1001
0010
0100
0001
0101
0010
0100
1000
,
0010
0000
0010
0000
0100
0000
0100
0000
0010
0000
1000
0001
1000
0000
0100
0000
,
1000
0001
0010
1100
0100
1000
0010
0101
,
0010
0100
0001
0000
0100
0001
0010
0000
0001
0000
1000
0000
0100
0000
0110
0000
,
1100
1000
0001
0100
0110
0010
0100
0001
,
0010
0000
0010
0000
0100
0000
0100
0000
1000
0100
0010
0000
0001
0010
0100
0000
,
1100
0000
0001
0000
0101
0000
1000
0000
0001
0100
1000
0100
0001
0000
0010
0000
,
0100
0000
0100
0000
1000
0000
0010
0000
0100
0001
0100
0000
0001
0000
1000
0000
,
0110
0000
0010
0100
0010
0000
0100
0000
0001
0000
0010
0000
0100
0000
1000
0000
,
1020
0000
0000
0000
0230
0000
0000
0302
0000
0000
1000
0000
2003
0000
3001
0000
,
1100
0101
0011
1010
0011
0101
1100
0110
,
1001
0000
0010
0000
0100
0000
0001
0010
1000
0010
0001
0000
0010
0000
0100
0000
,
0110
1100
0101
1100
0011
1010
0011
0110
,
1000
0000
0001
0100
0001
0000
1000
0000
0010
0100
0010
0000
0100
0000
1001
0000
,
0110
1100
0110
0011
0110
1010
0110
0101
,
0110
0000
0010
0000
1000
0100
1000
0000
0001
0000
0010
0100
0000
0100
0010
0000
,
0110
0101
1001
1100
1010
0011
0110
0001
,
1001
0000
0100
0000
0110
0000
0010
0000
1001
0000
1000
1000
0010
0000
0100
0000
,
0001
0000
0110
0000
1000
0000
0110
0000
0001
0000
1000
0100
0001
0100
1000
0000
,
0001
0000
0110
0000
1000
0000
0110
0000
0001
0000
1000
0010
0001
0010
1000
0000
,
0001
0000
1100
0000
0010
0000
0101
0000
0010
0000
1000
0001
0100
0010
1000
0000
,
0012
1000
0100
0103
2010
0001
0010
3010
,
0100
0000
1001
0000
0010
0000
1001
0000
0010
0000
1000
0010
0001
0010
1000
0000
,
0100
0000
1001
0000
0010
0000
1001
0000
0010
0000
0001
0010
1000
0010
0001
0000
,
1000
0000
0011
0000
0001
0000
1010
0000
0100
0000
0001
1000
0100
0010
0001
0000
,
0210
0001
0010
0310
0120
1000
0100
0130
,
0010
1000
0010
0000
0100
0000
0001
0000
1000
0001
1000
0001
1000
0000
0100
0000
,
0010
0000
0011
0000
1100
0000
0010
0000
0100
0001
0010
0000
0100
0000
1000
0000
,
1001
0000
1000
0001
1000
0000
0001
0000
1000
0010
1000
0000
0001
0100
0001
0000
,
0100
0000
0100
0000
0001
1000
0001
0000
1001
0000
0110
0000
0010
0001
1000
0000
,
0011
0000
1100
0000
0010
0000
0101
0000
0010
0000
0100
0001
0010
0100
1000
0000
,
1001
0000
1010
0000
0100
0000
0011
0000
0100
0000
0010
0001
1000
0010
0100
0000
,
0101
0000
0110
0000
1000
0000
0110
0000
0001
0000
1000
0100
0010
0001
1000
0000
,
2010
0001
0100
3010
1002
0100
0010
1003
,
0110
0000
0000
0000
;
