#TITLE:Jupiter (The Factory Speed Remix);
#SUBTITLE:;
#ARTIST:SPEEDORCHESTRA;
#TITLETRANSLIT:;
#SUBTITLETRANSLIT:;
#ARTISTTRANSLIT:;
#GENRE:;
#CREDIT:;
#BANNER:Jupiter (The Factory Speed Remix).png;
#BACKGROUND:Jupiter (The Factory Speed Remix)-bg.png;
#LYRICSPATH:;
#CDTITLE:Dancemania.png;
#MUSIC:Jupiter (The Factory Speed Remix).ogg;
#OFFSET:0.000000;
#SAMPLESTART:20.986000;
#SAMPLELENGTH:15.000000;
#SELECTABLE:YES;
#BPMS:0.000000=180.000000
;
#STOPS:
;
#BGCHANGES:;
#KEYSOUNDS:;
#ATTACKS:;

//---------------dance-single - ----------------
#NOTES:
     dance-single:
     :
     Beginner:
     4:
     0.161297,0.178363,0.000000,0.053342,0.000000,127.000000,127.000000,0.000000,6.000000,0.000000,0.000000,0.161297,0.178363,0.000000,0.053342,0.000000,127.000000,127.000000,0.000000,6.000000,0.000000,0.000000:
0000
0000
0000
0000
,
0000
0000
0000
0000
,
0000
0000
0000
0000
,
0000
0000
0000
0000
,
0000
0000
0000
0000
,
0000
0000
0000
0000
,
0000
0000
0000
0000
,
0000
0001
0000
0001
,
0000
1000
0000
1000
,
0000
0001
0000
1000
,
0000
1000
0000
0001
,
0000
0100
0000
0100
,
0000
0010
0000
0010
,
0000
0100
0000
0010
,
0000
0010
0000
0100
,
0200
0000
0000
0300
,
0000
0100
0000
0010
,
0000
0100
0000
0001
,
0000
0010
0000
0001
,
0000
0100
0000
0100
,
0000
0010
0000
0010
,
0000
0000
0000
1000
,
0000
0100
0000
1000
,
0000
0001
0000
1000
,
0000
1000
0000
0010
,
0000
0100
0000
0100
,
0000
0001
0000
0001
,
0000
0000
0000
1000
,
0000
1000
0000
0001
,
0000
0100
0000
0010
,
0000
0010
0000
1000
,
0000
0001
0000
0001
,
0000
1000
0000
0200
,
0000
0000
0000
0300
,
0000
0001
0000
0010
,
0000
1000
0000
0010
,
0000
1000
0000
0001
,
0000
0100
0000
0010
,
0000
0010
0000
0100
,
0000
0000
0000
0001
,
0000
1000
0000
1000
,
0000
0001
0000
0001
,
0000
1000
0000
0001
,
0000
1000
0000
0001
,
0000
1000
0000
0010
,
0000
0000
0000
0010
,
0000
0100
0000
0010
,
0000
0100
0000
0100
,
0000
0010
0000
0010
,
0000
0100
0000
0010
,
0000
0100
0000
0001
,
0000
0000
0000
1000
,
0000
1000
0000
0001
,
0000
0010
0000
0001
,
0000
1000
0000
0100
,
0000
1000
0000
0010
,
0000
0100
0000
0001
,
0000
0001
0000
1000
,
0000
1000
0000
0010
,
0000
0100
0000
0001
,
0000
0100
0000
0010
,
0000
1000
0000
0010
,
0000
0010
0000
0200
,
0000
0000
0000
0300
,
0000
0010
0000
1000
,
0000
0001
0000
0100
,
0000
0100
0000
0001
,
0000
1000
0000
0010
,
0000
1000
0000
0001
,
0000
0000
0000
0010
,
0000
0010
0000
0010
,
0000
0001
0000
0001
,
0000
1000
0000
1000
,
0000
0100
0000
0100
,
0000
2000
0000
0000
,
0000
0000
0000
3000
,
0000
0002
0000
0000
,
0000
0000
0000
0003
,
0000
0200
0000
0000
,
0000
0000
0000
0300
,
0000
0010
0000
0000
;

//---------------dance-single - ----------------
#NOTES:
     dance-single:
     :
     Easy:
     6:
     0.224800,0.285382,0.080014,0.044452,0.000000,177.000000,168.000000,9.000000,5.000000,0.000000,0.000000,0.224800,0.285382,0.080014,0.044452,0.000000,177.000000,168.000000,9.000000,5.000000,0.000000,0.000000:
0000
0000
0000
0000
,
0000
0000
0000
0000
,
0000
0000
0000
0000
,
0000
0000
0000
0000
,
0000
0000
0000
0000
,
0000
0000
0000
0000
,
0000
0000
0000
0000
,
0000
0100
0000
0100
,
0000
0001
0000
0001
,
0000
1000
0000
1000
,
0000
0010
0000
0010
,
0110
0100
0001
0000
,
0001
0000
1000
0100
,
1000
0000
1000
0000
,
0010
1000
0001
0100
,
2002
0000
0000
3003
,
0000
0100
0000
0100
,
0010
1000
0000
0010
,
1000
0001
0000
0010
,
0000
0100
0100
0010
,
0000
0001
0000
1000
,
0000
0000
0000
0010
,
0010
0100
0000
0001
,
0100
0001
0000
1000
,
0100
1000
0000
0010
,
0000
0100
0100
0001
,
0000
1000
0000
0001
,
0000
0000
0000
0010
,
0100
1000
0000
0100
,
0000
1000
0001
0100
,
0000
0010
0000
0100
,
0001
0010
0000
0100
,
0000
0010
0001
1000
,
0000
0001
0000
1000
,
0001
1000
0000
0010
,
0000
0100
0000
0001
,
0000
0100
0000
0010
,
0000
1000
0001
1000
,
0000
0010
0000
0100
,
0000
0000
0000
0010
,
0100
1001
0000
0100
,
0001
0010
0000
0001
,
0010
0100
0000
1000
,
0000
0001
0001
0100
,
0000
0010
0000
1000
,
0000
0000
0000
1000
,
0100
1001
0000
1000
,
0010
0100
0000
0001
,
0010
0100
0000
1000
,
0000
0001
0001
0100
,
0000
0001
0000
1000
,
0000
0000
0000
1000
,
0001
0110
0000
0010
,
0000
0100
0001
0010
,
0000
0001
0000
0010
,
0001
0100
0000
0010
,
0000
0100
0010
1000
,
0000
0000
0000
0001
,
1000
0010
0000
1000
,
0000
0001
0000
0010
,
0000
0100
0000
1000
,
0000
0001
0001
0100
,
0000
0010
0000
1001
,
0000
0000
0000
1000
,
0001
0110
0000
0100
,
0010
1000
0000
0010
,
0100
0001
0000
1000
,
0000
0001
0010
0100
,
0000
1000
0000
0001
,
0000
0000
0000
0001
,
1000
0110
0000
0010
,
0100
0001
0000
0100
,
0001
1000
0000
0010
,
0000
1000
0001
0010
,
0000
0200
0000
0000
,
0000
0000
0000
0000
,
0000
2300
0000
0000
,
0000
0000
0000
0000
,
0000
3002
0000
0000
,
0000
0000
0000
0000
,
0003
1001
0000
0000
;

//---------------dance-single - ----------------
#NOTES:
     dance-single:
     :
     Medium:
     9:
     0.358156,0.499418,0.124465,0.044452,0.000000,282.000000,268.000000,14.000000,5.000000,0.000000,0.000000,0.358156,0.499418,0.124465,0.044452,0.000000,282.000000,268.000000,14.000000,5.000000,0.000000,0.000000:
0000
0000
0000
0000
,
0000
0000
0000
0000
,
0000
0000
0000
0000
,
0000
0000
0000
0000
,
0000
0000
0000
0000
,
0000
0000
0000
0000
,
0000
0000
0000
0000
,
0000
0100
0000
0100
,
0000
0010
0000
0010
,
0000
1000
0000
0001
,
0000
1000
0000
0001
,
0010
0000
1100
0000
1000
0100
0000
0000
,
0000
0000
0010
0001
0000
0000
0100
0000
,
0001
0100
0010
0000
1010
0000
0000
0000
,
1000
0001
0100
0000
0010
0000
0010
0000
,
0220
0000
0000
0030
,
0300
0001
0000
0001
,
1000
0000
0100
0000
0000
0100
0010
0000
,
0100
1000
1000
0001
,
0000
0100
0010
0100
,
0010
1000
0000
1001
,
0000
0000
0000
0001
,
0001
0000
0010
0000
0000
0010
0100
0000
,
1000
0000
0001
0000
0000
1000
0010
0000
,
0100
0001
1000
0100
,
0000
0000
1000
0010
0100
0000
0010
0000
,
0010
1001
0000
1001
,
0000
0000
0000
1000
,
1000
0000
0001
0100
0001
0000
0010
0000
,
0000
0000
0100
1000
0010
0000
0100
0001
,
0010
0000
0001
0000
0000
0000
0010
0100
,
0010
0000
0100
1000
0001
0000
0100
0000
,
0000
0000
0001
1000
0010
0000
1000
0001
,
0100
0010
0010
1000
,
1000
0000
0001
0010
0000
0100
0010
0001
,
0000
1000
0010
0100
0000
0001
0100
0010
,
0000
1000
0001
1000
0000
0010
1000
0010
,
0000
0100
0001
0100
0001
0000
1000
0100
,
0010
0000
0001
0100
0010
0000
0110
0000
,
0000
0000
0000
0010
,
0010
0000
0100
0000
0000
0100
0001
0000
,
0001
1000
0010
0000
0000
1000
0100
0000
,
0010
0001
1000
0000
0000
1000
0010
0000
,
0100
0000
0001
0100
0001
0000
1000
0000
,
0000
1100
0010
0101
,
0000
0010
0010
0100
,
0100
0000
0001
0000
0000
0001
0010
0000
,
0100
1000
0010
0000
0000
1000
0010
0000
,
0100
0001
0010
0000
0010
0000
0100
0000
,
0000
0000
1000
0100
1000
0000
0001
0000
,
0001
0101
0000
1001
,
0000
0100
0000
0100
,
0001
0000
1000
0000
0000
1000
0010
0000
,
0100
0000
0010
1000
0100
0000
0010
0000
,
0000
0100
0010
0000
0100
0000
0010
0001
,
1000
0000
0001
0000
0000
0001
0100
0000
,
0010
0000
1000
0100
0010
0000
0001
0000
,
0000
1000
0000
0001
,
0001
0000
0100
0000
0000
0010
1000
0010
,
0000
0100
0001
0010
0000
0001
1000
0100
,
0000
1000
0010
0100
0000
0001
0100
0001
,
0000
0010
0100
0010
0100
0000
1100
0000
,
0010
0101
0000
1001
,
0000
0010
0000
1000
,
1000
0000
0100
0000
0000
0100
0010
0000
,
0100
0000
1000
0000
0000
0001
0100
0001
,
1000
0010
0000
0010
,
0000
0000
0100
0010
0100
0000
0001
0000
,
1000
0001
0001
0100
,
0000
0010
0000
1000
,
1000
0000
0001
0000
0000
1000
0100
1000
,
0100
0000
0010
0000
0000
0001
0010
0001
,
0100
0000
0010
0000
0000
0100
0001
0000
,
0100
0000
0010
1000
0010
0000
1000
0000
,
0001
0200
0000
0000
,
0000
0000
0010
0000
,
0010
0320
0000
0000
,
0000
0000
0000
0000
,
0000
2030
0000
0000
,
0000
0000
0000
0000
,
0000
3001
0000
0000
;

//---------------dance-single - ----------------
#NOTES:
     dance-single:
     :
     Hard:
     12:
     0.548664,0.642108,0.231150,0.044452,0.026671,432.000000,406.000000,26.000000,5.000000,0.000000,0.000000,0.548664,0.642108,0.231150,0.044452,0.026671,432.000000,406.000000,26.000000,5.000000,0.000000,0.000000:
// measure 0
0000
0000
0000
0000
,  // measure 1
0000
0000
0000
0000
,  // measure 2
0000
0000
0000
0000
,  // measure 3
0000
0000
0000
0000
,  // measure 4
0000
0000
0000
0000
,  // measure 5
0000
0000
0000
0000
,  // measure 6
0000
0000
0000
0000
,  // measure 7
0000
0010
0000
0010
,  // measure 8
0000
0010
0000
1000
,  // measure 9
0000
1000
0000
1000
,  // measure 10
0000
0001
0000
0001
,  // measure 11
0010
0001
0010
0001
1000
0100
0000
1000
,  // measure 12
0010
1000
0010
1000
0001
0100
0000
0001
,  // measure 13
0010
0001
0010
0100
1000
0001
0000
0100
,  // measure 14
0010
0100
0010
1000
0001
1000
0001
0000
,  // measure 15
0220
0000
0000
0300
,  // measure 16
0030
0000
1000
0000
1000
0100
0010
0000
,  // measure 17
0001
0000
0100
0000
0010
0000
0000
0000
1000
0000
0010
0000
1000
0000
0000
0001
,  // measure 18
0100
0001
0010
0001
0010
0000
0100
0010
,  // measure 19
0100
1100
0101
1010
,  // measure 20
0001
0011
0100
0110
,  // measure 21
0100
0000
0100
0000
0010
0000
0010
1000
,  // measure 22
0010
1000
0001
0000
1000
0100
0010
0000
,  // measure 23
0001
0000
0100
0000
0010
0000
0000
0000
1000
0000
0001
0000
0010
0000
0000
0001
,  // measure 24
1000
0100
0010
0001
0010
0000
0100
1000
,  // measure 25
0100
1100
1010
0101
,  // measure 26
0001
0011
0100
1001
,  // measure 27
0100
0000
0100
0000
0010
0000
0100
0010
,  // measure 28
0100
0010
1000
0010
0100
0000
0001
0010
,  // measure 29
0100
0000
1000
0100
0010
0100
1000
0001
,  // measure 30
0100
0000
0001
1000
0010
0000
0101
0000
,  // measure 31
1100
0000
0010
0001
0100
0000
0010
1000
,  // measure 32
0100
1000
0010
0100
0001
0000
0100
0010
,  // measure 33
1000
0000
1000
0000
0001
0000
1000
0100
,  // measure 34
1000
0100
0001
0100
1000
0000
1000
0010
,  // measure 35
0001
0000
0001
0010
1000
0000
0001
0100
,  // measure 36
1000
0000
1000
0100
0001
0000
0001
0010
,  // measure 37
1000
0110
1001
0110
,  // measure 38
0010
0000
1000
0010
0001
0000
1000
0100
,  // measure 39
0001
0000
0001
0100
1000
0100
0001
0000
,  // measure 40
0010
0000
0100
0010
0000
0100
0010
1000
,  // measure 41
0010
0000
0100
0000
1000
0000
0001
0000
0000
0000
0001
0000
0100
0010
0100
0000
,  // measure 42
0010
1000
0001
0010
0000
0100
1000
0001
,  // measure 43
0100
0010
1010
0100
0001
0000
0011
0100
,  // measure 44
1000
0000
0100
1000
0001
0000
0100
0100
,  // measure 45
0001
0000
1000
1000
0010
0000
0100
0000
,  // measure 46
0010
0000
1000
0010
0000
1000
0001
0010
,  // measure 47
0001
0000
1000
0000
0100
0000
0010
0000
0000
0000
0001
0000
1000
0100
1000
0000
,  // measure 48
0010
0100
0001
0010
0000
0100
0010
0001
,  // measure 49
1000
1000
0001
1000
0100
0000
1000
0001
,  // measure 50
0100
0000
0010
1000
0001
0000
0110
0000
,  // measure 51
0100
0100
0100
0010
,  // measure 52
0010
0000
0100
0010
0100
0000
0100
1000
,  // measure 53
0100
0000
0100
0001
0100
0000
0010
0001
,  // measure 54
0010
0000
0010
1000
0010
0000
0010
0100
,  // measure 55
0010
0100
0001
0010
0001
0000
0001
1000
,  // measure 56
0001
0000
0001
0100
0001
0000
1000
0100
,  // measure 57
1000
0000
1000
0001
1000
0000
1000
0010
,  // measure 58
1000
1000
0010
1000
0000
1000
0001
0010
,  // measure 59
0000
0001
1000
0100
0000
1000
0001
0100
,  // measure 60
0000
0001
0010
0100
0000
1000
0100
0010
,  // measure 61
0100
0000
0010
0001
0010
0000
0001
0100
,  // measure 62
0001
0000
1000
0100
1000
0000
0110
0000
,  // measure 63
0010
0000
0010
0000
0001
0000
0001
1000
,  // measure 64
0001
1000
0010
0000
1000
0001
0100
0000
,  // measure 65
0001
0000
0100
0000
0010
0000
0000
0000
1000
0000
0001
0000
0010
0000
0000
0010
,  // measure 66
0100
1000
0100
0010
0100
0000
0010
0001
,  // measure 67
0010
0011
0001
1010
,  // measure 68
1000
0000
1001
0000
0100
0000
0110
0100
,  // measure 69
0010
0000
0010
0000
0100
0000
0010
0100
,  // measure 70
0010
0100
0001
0000
0100
0010
1000
0000
,  // measure 71
0001
0000
0010
0000
0100
0000
0000
0000
1000
0000
0100
0000
0010
0000
0000
0010
,  // measure 72
0001
1000
0010
1000
0010
0000
0100
0001
,  // measure 73
0100
0000
0010
1000
0100
0000
1000
0100
,  // measure 74
0001
0210
0010
0010
,  // measure 75
0010
0000
0010
0000
0010
0000
0010
0010
,  // measure 76
0310
2000
0100
0100
,  // measure 77
0100
0000
0100
0100
,  // measure 78
0001
3002
0100
0100
,  // measure 79
0100
0000
0100
1000
,  // measure 80
1003
1001
0000
0000
;
