#TITLE:Jet World + Drop Out + PARANOiA MAX Type 2;
#SUBTITLE:;
#ARTIST:Non Stop Mix Special;
#TITLETRANSLIT:;
#SUBTITLETRANSLIT:;
#ARTISTTRANSLIT:;
#GENRE:;
#CREDIT:;
#BANNER:Jet World + DROP OUT + PARANOiA MAX TYPE 2.png;
#BACKGROUND:Jet World + DROP OUT + PARANOiA MAX TYPE 2-bg.png;
#LYRICSPATH:;
#CDTITLE:;
#MUSIC:Jet World + DROP OUT + PARANOiA MAX TYPE 2.ogg;
#OFFSET:0.000000;
#SAMPLESTART:5.227000;
#SAMPLELENGTH:15.000000;
#SELECTABLE:YES;
#DISPLAYBPM:138.000000:260.000000;
#BPMS:0.000000=138.000000
,4.000000=137.996994
,36.000000=141.000000
,38.000000=138.000000
,40.000000=137.929993
,88.000000=136.000000
,89.000000=132.339996
,90.000000=259.220001
,155.000000=261.000000
,187.000000=260.000000
,269.000000=220.500000
,301.000000=220.000000
,303.000000=220.500000
,308.000000=226.000000
,310.000000=224.000000
,312.000000=220.570007
;
#STOPS:
;
#BGCHANGES:;
#KEYSOUNDS:;
#ATTACKS:;

//---------------dance-single - ----------------
#NOTES:
     dance-single:
     :
     Beginner:
     6:
     0.218661,0.411579,0.169081,0.000000,0.000000,172.000000,153.000000,19.000000,0.000000,0.000000,0.000000,0.218661,0.411579,0.169081,0.000000,0.000000,172.000000,153.000000,19.000000,0.000000,0.000000,0.000000:
0000
0000
0000
0000
,
0000
0000
0000
0000
,
0000
0000
0000
0000
,
0001
0000
0000
0000
,
1000
0000
0000
0000
,
0010
0010
0010
0000
,
0100
0100
0100
0000
,
0010
0000
1000
0000
,
0001
0000
0000
0000
,
1001
0000
0100
0000
,
0001
0001
0001
0000
,
1001
0000
0010
0000
,
1000
1000
1000
0000
,
0001
0001
0001
0000
,
1000
1000
1000
0000
,
0010
0010
0010
0000
,
0100
0100
0100
0000
,
0010
0000
0010
0000
,
0110
0000
0110
0000
,
0100
0100
0100
0000
,
0010
0010
0010
0000
,
1000
1000
1000
0000
,
0001
0001
0001
0000
,
0001
0000
0010
0000
,
0000
0000
0100
0000
,
0100
0000
1000
0000
,
0000
0000
1000
0000
,
1000
0000
0001
0000
,
0000
0000
0001
0000
,
0001
0000
0100
0000
,
0000
0000
0110
0000
,
0000
0000
1001
0000
,
0000
0000
1001
0000
,
0000
0000
0110
0000
,
0000
0000
0010
0000
,
0010
0000
0100
0000
,
0100
0000
0001
0000
,
1000
0000
0100
0000
,
0010
0000
0000
0001
,
0000
0001
0000
0001
,
0000
0000
0000
0100
,
0000
0000
0000
0000
,
0000
0000
0000
1000
,
0000
1000
0000
1000
,
0000
0000
0000
0100
,
0000
0000
0000
0000
,
0000
0000
0000
0010
,
0000
0000
0000
0000
,
0000
0000
0000
1001
,
0000
0000
0000
0110
,
0000
0000
0000
0110
,
0000
0000
0000
1001
,
0000
0000
0000
1000
,
0000
0000
0000
0001
,
0000
0000
0000
0001
,
0000
0000
0000
1000
,
0000
0000
0000
0001
,
0000
0001
0000
0001
,
0000
0000
0000
1000
,
0000
1000
0000
1000
,
0000
0000
0000
0010
,
0000
0000
0000
0100
,
0000
0000
0000
0010
,
0000
0010
0000
0010
,
0000
0000
0000
0000
0000
0000
0000
0110
,
0000
0000
0000
1001
0000
0000
0000
0110
,
0000
0000
0000
1001
0000
0000
0000
0110
,
0000
0000
0000
1001
0000
0000
0000
0000
,
0000
0000
0100
0100
,
0000
0000
0010
0010
,
0000
0000
0001
0001
,
0000
0000
1000
1000
,
0000
0000
0010
0010
,
0000
0000
0100
0100
,
0000
0000
0001
0001
,
0000
1000
0000
1000
,
1000
0000
1000
1000
,
1000
0000
0010
0000
,
0100
0000
0000
0000
,
0001
0000
0010
0000
,
0100
0000
0000
0000
,
1000
0000
0100
0000
,
0010
0000
0000
0000
,
0001
0000
0010
0000
,
0100
0000
0000
0000
,
0010
0000
0010
0000
,
0010
0000
0010
0000
,
0100
0000
0100
0000
,
0100
0000
0100
0000
,
0001
0000
0001
0000
,
1000
0000
1000
0000
,
0010
0000
0100
0000
,
0010
0000
1001
0000
;

//---------------dance-single - ----------------
#NOTES:
     dance-single:
     :
     Easy:
     10:
     0.430967,0.493895,0.177980,0.000000,0.000000,339.000000,319.000000,20.000000,0.000000,0.000000,0.000000,0.430967,0.493895,0.177980,0.000000,0.000000,339.000000,319.000000,20.000000,0.000000,0.000000,0.000000:
0000
0000
0000
0000
,
0000
0000
0000
0000
,
0000
0000
0000
0000
,
0010
0010
0000
0000
0100
0000
0000
0000
,
0100
0100
0000
0000
0010
0000
0000
0000
,
0001
0010
0100
1000
,
1000
0100
0010
0001
,
1000
0010
0100
0001
,
0001
0100
0010
1000
,
0001
0000
1001
1001
,
1000
1000
1000
1000
,
0010
0000
0110
0110
,
0001
0001
0001
0000
,
0010
0010
0010
0010
,
0001
0001
0001
0001
,
1000
1000
1000
1000
,
0100
0100
0100
0100
,
1000
0010
0100
0000
,
0001
0010
0100
0000
,
0010
0010
0001
0001
,
1000
1000
0100
0100
,
1000
1000
0010
0010
,
0100
0001
1001
0000
,
0100
0000
0010
0000
,
0000
0000
0001
0000
,
0010
0000
0100
0000
,
0000
0000
1000
0000
,
0001
0000
0100
0000
,
0000
0000
0001
0000
,
1000
0000
0100
0000
,
0000
0000
0010
0001
,
0010
0000
0001
0001
,
0001
0000
1000
0100
,
1000
0000
0100
0100
,
0100
0000
1000
1000
,
0010
0010
0100
0100
,
0001
0000
0100
0100
,
0010
0010
1000
1000
,
0001
1000
0001
0000
0000
0000
1000
0000
,
0001
1000
0001
1000
,
0001
1000
0001
1000
,
0001
1000
0001
1000
,
1000
1000
1000
0100
,
0010
0100
0010
0100
,
0010
0100
0010
0100
,
0010
0100
0010
0100
,
0100
0100
0100
0010
,
0000
0000
0000
0000
,
0000
0000
0110
0010
,
0001
0010
0000
0100
,
1000
0100
0000
1000
,
0010
1000
0000
0001
,
0100
0001
0000
1000
,
0010
0001
0010
1000
,
0010
0001
0010
1000
,
0100
0010
0001
1000
,
1000
0000
0000
0001
,
0100
0001
0100
1000
,
0100
1000
0100
0001
,
0010
0001
0010
1000
,
0010
1000
0010
0100
,
0010
0001
0010
0100
,
1000
0001
0100
0010
,
1000
0001
0100
0110
,
0110
0000
0000
0000
0000
0000
0000
1100
,
0000
0000
0000
0011
0000
0000
0000
1010
,
0000
0000
0000
0101
0000
0000
0000
1001
,
0000
0110
0000
1001
0000
0000
0000
0100
,
0000
0100
0000
0010
0000
0010
0000
1000
,
0000
1000
0000
0001
0000
0001
0000
0010
,
0000
0010
0000
0001
0000
0001
0000
1000
,
0000
1001
0000
1000
0000
0100
0000
0100
,
0000
0010
0000
0001
0000
1000
0000
1000
,
0000
0010
0000
0100
0000
0001
0000
0001
,
0000
0100
0010
0000
0010
0000
1000
0000
,
0001
1000
0000
0001
,
0001
0000
0010
0010
,
0001
0100
1000
0000
1000
0000
1000
0000
,
1000
0100
0001
0000
0001
0000
0001
0000
,
0010
0000
0010
0000
0010
0001
0010
0000
,
0100
0000
0100
0000
0100
1000
0100
0000
,
1000
0010
0001
0000
0001
0000
0001
0000
,
0001
0010
1000
0000
1000
0000
1000
0000
,
0100
0010
0100
0000
0100
0000
0100
0000
,
1000
0001
1000
0000
0001
0000
1001
0000
,
0001
0000
0100
0000
0001
0100
0010
0000
,
1000
0000
0100
0000
1000
0100
0010
0000
,
0100
0000
0100
0000
0010
0100
0010
0000
,
0001
0000
0001
0000
1000
0001
1000
0000
,
0010
1000
0000
0000
1000
0001
0000
0000
,
0001
0010
0000
0100
0000
0100
0010
0000
,
0001
0011
1000
1010
,
0100
0100
1001
0000
;

//---------------dance-single - ----------------
#NOTES:
     dance-single:
     :
     Medium:
     12:
     0.564452,0.658527,0.293667,0.000000,0.004450,444.000000,411.000000,33.000000,0.000000,0.000000,0.000000,0.564452,0.658527,0.293667,0.000000,0.004450,444.000000,411.000000,33.000000,0.000000,0.000000,0.000000:
0000
0000
0000
0000
,
0000
0000
0000
0000
,
0000
0000
0000
0000
,
1000
0100
1000
0000
0001
0010
0001
0000
,
1000
0010
0100
0000
0001
0010
0100
0000
,
0010
0001
0100
0010
1000
0100
1000
0000
,
0100
1000
0010
0100
0001
0010
0001
0000
,
1000
0010
1000
0010
0001
0010
0001
0000
,
0010
1000
0001
0100
1000
0100
0001
0100
,
0010
0010
0110
0110
,
0100
0010
0100
0010
1000
0001
1000
0001
,
1000
1000
1001
1001
,
0001
0000
0000
0100
0000
0000
0010
0000
1000
0000
1000
0000
0001
0000
0000
0000
,
0010
0001
0010
0001
0010
0001
1000
0000
,
0100
1000
0100
1000
0100
1000
0001
0000
,
0100
0001
0100
0001
0100
0010
1000
0000
,
0001
0100
1000
0100
0001
0100
1000
0000
,
0100
0001
0010
0000
0010
0001
0100
0000
,
0010
1000
1001
1001
,
1000
0100
1000
0000
0100
0001
0100
0000
,
0010
0001
0010
0000
0001
0100
0001
0000
,
0100
1000
0100
0000
0010
1000
0010
0000
,
1000
0010
0100
0001
1000
0000
0001
0000
,
1000
0000
1001
0000
,
1001
0000
0001
0010
,
0001
0000
0011
0000
,
0011
0000
0100
0010
,
0100
0000
0110
0000
,
0110
0000
1000
0100
,
1000
0000
1001
0000
,
1001
0000
1000
1000
,
1000
0000
0001
0001
,
0001
0000
0010
0010
,
0010
0000
0100
0100
,
0100
0000
0010
0001
,
0010
0001
1000
0010
,
1000
0010
0100
0001
,
1000
0000
0010
0000
1000
0001
1000
0000
,
0001
0010
0100
1000
0000
0000
0100
0000
,
0100
0010
0010
1000
,
1000
0001
0001
1000
,
0100
0010
0001
0010
,
0100
1001
1001
0010
,
0010
0001
0001
1000
,
1000
0100
0100
1000
,
1000
0000
0010
0000
0010
0000
0100
0001
,
0100
0000
0010
1000
0010
0000
1001
0000
,
0000
0000
0000
0100
,
0000
0000
0010
0010
,
1000
0100
1000
0000
0001
0000
0001
0000
,
0100
0001
0100
0000
0010
0000
0010
0000
,
1000
0010
1000
0000
0001
0000
0001
0000
,
0010
0001
0010
0000
0100
0000
0100
0000
,
0010
0001
1000
0000
0100
0000
0100
0000
,
1000
0010
0100
0000
0010
0000
0010
0000
,
0100
0000
0001
0000
1000
0000
0001
1000
,
0001
0000
0000
0000
0000
0000
1000
0100
,
0000
0000
0001
0100
0000
0000
1000
0010
,
0000
0000
0001
0010
0000
0000
0100
1000
,
0000
0000
0001
0010
0000
0000
1000
0010
,
0000
0000
0100
0001
0000
0000
1000
0000
,
1000
0001
0001
0100
,
0100
0010
0010
1000
,
0010
0100
0001
0100
,
0010
0000
1000
0001
1000
0000
0000
0001
,
0000
0001
0000
1000
0000
1000
0000
1010
,
0000
1010
0000
0101
0000
0101
0000
0100
,
0000
0010
0000
1001
0000
0000
0000
0100
,
0000
0100
0000
0010
0000
0010
0000
1000
,
0000
1000
0000
0001
0000
0001
0000
0010
,
0000
0010
0000
0100
0000
0100
0000
0010
,
0000
0010
0000
0001
0000
0001
0000
1000
,
0000
1000
0000
0100
0000
0100
0000
1000
,
0000
1000
0000
0010
0000
0010
0000
0100
,
0000
0100
0000
0001
1000
0000
0001
1000
,
0001
0110
0000
1001
,
1001
0000
1010
0101
,
1010
0000
0000
0001
0000
0000
0010
0000
,
0010
0100
0000
0010
0001
0000
0100
0000
,
0010
0010
1000
0001
,
1000
0100
0000
1000
0100
0000
1000
0000
,
0001
0000
0000
0100
0000
0001
0100
0000
,
0010
0100
0000
0100
0010
0000
0010
0000
,
1000
0010
1000
0000
0001
0010
0001
0000
,
0010
0100
0010
0000
0110
0000
1001
0000
,
0100
0001
0100
0000
0010
1000
0010
0000
,
1000
0001
1000
0000
0001
0000
0001
0000
,
1000
0100
0010
0100
1000
0010
0100
0000
,
0001
0100
0010
0100
0001
0010
0100
0000
,
1000
0100
1000
0000
0001
0100
0001
0000
,
1000
0010
1000
0000
0001
0010
0001
0000
,
0010
0010
1000
0000
0010
0010
0001
0000
,
0110
1001
0110
0000
;

//---------------dance-single - ----------------
#NOTES:
     dance-single:
     :
     Hard:
     14:
     0.704293,0.864317,0.311465,0.000000,0.106788,554.000000,519.000000,35.000000,0.000000,0.000000,0.000000,0.704293,0.864317,0.311465,0.000000,0.106788,554.000000,519.000000,35.000000,0.000000,0.000000,0.000000:
// measure 0
0000
0000
0000
0000
,  // measure 1
0000
0000
0000
0000
,  // measure 2
0000
0000
0000
0000
,  // measure 3
0100
0000
0100
0000
0100
1000
0000
0000
0001
0000
1000
0000
0001
1000
0000
0000
,  // measure 4
1000
0000
1000
0000
1000
0010
0000
0000
0100
0000
0100
0000
0001
0100
0001
0100
,  // measure 5
0010
1000
0100
1000
0010
0100
0001
0000
,  // measure 6
0010
0001
1000
0001
0100
0010
1000
0000
,  // measure 7
0001
1000
0001
1000
0010
0100
0010
0100
,  // measure 8
0001
0000
0000
0000
0000
0000
0000
0000
0010
0100
1000
0100
0000
0010
0100
0000
,  // measure 9
1000
0001
0101
0101
,  // measure 10
0001
0000
1000
0000
0001
0000
1000
0001
0000
1000
0001
0000
1000
0000
0010
0000
,  // measure 11
0100
0001
1100
1100
,  // measure 12
0001
1000
0100
1000
0000
0001
0100
0000
0001
1000
0010
1000
0000
0001
0010
0000
,  // measure 13
0100
0010
0001
0010
0100
0010
0001
0010
,  // measure 14
0100
1000
0100
0010
0100
1000
0010
0100
,  // measure 15
0001
0100
0010
0100
0001
0100
0010
1000
,  // measure 16
0001
0010
0001
0000
1000
0010
1000
0000
0100
0000
0010
0000
1001
0000
0000
0000
,  // measure 17
0010
1000
0100
1000
0001
0001
1000
0000
,  // measure 18
1001
0000
0110
0000
0001
0001
0001
0000
,  // measure 19
1000
0000
0100
0000
1000
0000
0100
1000
0000
0100
1000
0000
0100
0000
1000
0000
,  // measure 20
0100
0000
0001
0000
0100
0000
0001
0100
0000
0001
0100
0000
0001
0000
0100
0000
,  // measure 21
1000
0000
0010
0000
1000
0000
0010
1000
0000
0010
0001
0000
0010
0000
0001
0000
,  // measure 22
0010
1000
0100
0010
0001
0000
0100
0000
,  // measure 23
0001
0000
1000
0010
,  // measure 24
0100
0001
0100
0010
,  // measure 25
1000
0000
0001
0010
,  // measure 26
0001
1000
0100
1000
,  // measure 27
0010
0000
0100
0001
,  // measure 28
0010
0100
1000
0010
,  // measure 29
0100
0000
0010
0010
,  // measure 30
1000
0001
1000
1000
,  // measure 31
1100
0000
0001
0001
,  // measure 32
0101
0000
0010
0010
,  // measure 33
0110
0000
0100
0100
,  // measure 34
1001
0000
0010
1000
,  // measure 35
0100
1000
0001
0100
,  // measure 36
0001
1000
0100
0010
,  // measure 37
0001
0000
0010
0000
0100
1000
0001
0000
,  // measure 38
1000
0001
1000
0001
0000
0000
1000
0000
,  // measure 39
0010
0000
1010
0000
0010
0000
0100
0001
,  // measure 40
0010
0000
0010
0001
0100
0000
0010
0000
,  // measure 41
0100
0010
0100
0001
,  // measure 42
1010
0100
0110
0010
,  // measure 43
0010
0000
0100
0000
0001
0000
0010
0001
,  // measure 44
0100
0000
0100
0001
0010
0000
0001
0000
,  // measure 45
1010
0000
0010
0100
0001
0000
1000
0010
,  // measure 46
0100
0000
0001
1000
0010
0000
0100
0000
,  // measure 47
0000
0000
0000
0010
,  // measure 48
0000
0000
0000
0000
0110
0000
0001
0010
,  // measure 49
0001
0000
1000
0010
1000
0000
0001
0100
,  // measure 50
0001
0000
1000
0100
1000
0000
0001
0100
,  // measure 51
0010
0000
0100
0001
0010
0000
0100
1000
,  // measure 52
0010
0000
1000
0010
0100
0000
0001
1000
,  // measure 53
0010
0000
1000
0001
0010
0000
1000
0010
,  // measure 54
0001
0000
0001
0010
1000
0000
0010
0001
,  // measure 55
0100
0000
0010
1000
0100
0000
1000
0100
,  // measure 56
0001
0100
0000
0000
0000
0000
1000
0010
,  // measure 57
1000
0010
0100
0001
0100
0000
0001
0010
,  // measure 58
0001
0010
0100
1000
0100
0000
0010
0100
,  // measure 59
0010
0100
1000
0001
1000
0001
0100
0010
,  // measure 60
0100
0010
1000
0001
1000
0000
0001
0100
,  // measure 61
0010
0100
0001
0010
0100
0000
1000
0010
,  // measure 62
0100
0010
1000
0100
0010
0000
0001
0010
,  // measure 63
0001
0010
1000
0010
1000
0010
0001
0100
,  // measure 64
0010
1000
0001
1000
0001
0000
0000
0110
,  // measure 65
0000
0110
0000
1001
0000
1001
0000
1010
,  // measure 66
0000
0101
0000
0011
0000
1100
0000
0011
,  // measure 67
0000
1001
0000
0110
0000
0000
0000
0100
,  // measure 68
0000
0100
0000
0010
0000
0010
0000
0010
,  // measure 69
0000
1000
0000
1000
0100
0001
0000
0100
,  // measure 70
0000
1000
0000
1000
0100
0100
0000
0001
,  // measure 71
0000
0001
0000
0010
0000
0001
0000
0010
,  // measure 72
0000
0011
0000
0100
0000
1000
0000
0100
,  // measure 73
0000
1100
0000
1000
0000
0010
0000
0010
,  // measure 74
0000
0100
0010
0100
0010
0000
0100
0000
,  // measure 75
0001
0001
1000
0000
0000
0000
1001
0000
,  // measure 76
1001
0000
0110
0110
,  // measure 77
1001
0000
0001
0010
0000
0100
1000
0000
,  // measure 78
1000
0010
0000
0100
0001
0100
0010
0000
,  // measure 79
1000
0001
0100
0001
0010
0001
0100
0000
,  // measure 80
0001
0100
0010
1000
0100
0010
0100
0000
,  // measure 81
0010
0100
0010
0100
1000
0010
1000
0000
,  // measure 82
0010
0100
0010
0100
0001
0010
0001
0000
,  // measure 83
0010
0001
1000
0010
1000
0001
0100
0001
,  // measure 84
1000
0100
1000
1000
0100
0000
1100
0000
,  // measure 85
0100
1000
0100
1000
0010
0100
0010
0100
,  // measure 86
0001
0100
0001
0100
0001
0010
0001
0010
,  // measure 87
0100
1000
0010
0100
0001
0010
0001
1000
,  // measure 88
0010
1000
0001
0100
1000
0100
0001
0000
,  // measure 89
1000
0100
1000
0100
0001
0100
0001
0100
,  // measure 90
1000
0010
1000
0010
0100
0001
0100
0001
,  // measure 91
1000
0010
0001
0010
1000
0100
0001
0100
,  // measure 92
1000
0001
0100
0000
0010
0000
0000
0000
;
