#TITLE:It's The Way You Make Me Feel;
#SUBTITLE:;
#ARTIST:Steps;
#TITLETRANSLIT:;
#SUBTITLETRANSLIT:;
#ARTISTTRANSLIT:;
#GENRE:;
#CREDIT:;
#BANNER:It's The Way You Make Me Feel.png;
#BACKGROUND:It's The Way You Make Me Feel-bg.png;
#LYRICSPATH:;
#CDTITLE:;
#MUSIC:It's The Way You Make Me Feel.ogg;
#OFFSET:0.386000;
#SAMPLESTART:39.041901;
#SAMPLELENGTH:15.000000;
#SELECTABLE:YES;
#DISPLAYBPM:105.000000;
#BPMS:0.000000=105.013000
,151.000000=95.013000
,151.500000=45.013000
;
#STOPS:
;
#BGCHANGES:;
#KEYSOUNDS:;
#ATTACKS:;

//---------------dance-single - ----------------
#NOTES:
     dance-single:
     :
     Beginner:
     1:
     0.058701,0.082181,0.021627,0.000000,0.000000,38.000000,36.000000,2.000000,0.000000,0.000000,0.000000,0.058701,0.082181,0.021627,0.000000,0.000000,38.000000,36.000000,2.000000,0.000000,0.000000,0.000000:
0000
0000
0000
0000
,
0000
0000
0000
0000
,
0000
0000
0000
0000
,
0000
0000
0000
0000
,
0000
0000
0000
0000
,
1000
0000
0000
0000
,
0100
0000
0000
0000
,
0001
0000
0000
0000
,
0010
0000
0000
0000
,
0100
0000
0000
0000
,
0010
0000
0000
0000
,
0001
0000
0000
0000
,
1000
0000
0000
0000
,
0100
0000
0000
0000
,
0100
0000
0000
0000
,
1000
0000
0000
0000
,
1000
0000
0000
0000
,
0001
0000
0000
0000
,
1001
0000
0000
0000
,
0010
0000
0000
0000
,
0100
0000
0000
0000
,
0010
0000
0000
0000
,
0001
0000
0000
0000
,
0001
0000
0000
0000
,
1000
0000
0000
0000
,
1000
0000
0000
0000
,
0010
0000
0010
0000
,
0010
0000
0000
0000
,
0100
0000
0100
0000
,
0100
0000
0000
0000
,
0001
0000
0000
0000
,
1000
0000
0000
0000
,
0100
0000
0000
0000
,
0010
0000
0000
0000
,
0001
0000
0000
0000
,
1000
0000
0000
0000
,
0010
0000
0000
0000
,
0100
0000
0000
0000
,
1001
0000
0000
0000
;

//---------------dance-single - ----------------
#NOTES:
     dance-single:
     :
     Easy:
     4:
     0.154475,0.187340,0.021627,0.129759,0.000000,100.000000,98.000000,2.000000,12.000000,0.000000,0.000000,0.154475,0.187340,0.021627,0.129759,0.000000,100.000000,98.000000,2.000000,12.000000,0.000000,0.000000:
0000
0000
0000
0000
,
0000
0000
0000
0000
,
0000
0000
0000
0000
,
0000
0000
0000
0000
,
0000
0000
0000
0000
,
1000
0100
1000
0010
,
0100
0000
0010
0000
,
0001
0010
1000
0010
,
0001
0000
0100
0000
,
0010
0010
0010
0000
,
0100
0100
0100
0000
,
0001
0000
1000
0000
,
0010
0100
0010
0000
,
1000
0100
1000
1000
,
0010
0000
0100
0000
,
0001
0001
0010
0100
,
0020
0000
0032
0000
,
2003
0000
0100
3100
,
1001
0100
0001
0010
,
1000
0000
0010
0000
,
1000
0010
0001
0100
,
1000
0000
0001
0000
,
1000
1000
0100
0000
,
0001
0001
0010
0000
,
1000
0010
0100
0001
,
0010
0000
0100
0010
,
0002
0010
0010
0010
,
0013
0000
0001
0000
,
2000
0100
0100
0100
,
3100
0000
1000
0000
,
0010
1000
0010
0000
,
0100
0001
0100
0000
,
0001
0010
0001
1000
,
0100
1000
0010
0100
,
0020
0000
0100
0000
,
2030
0000
0100
0000
,
3002
0000
0010
0000
,
2003
0000
0020
3030
,
0220
0000
0330
0000
;

//---------------dance-single - ----------------
#NOTES:
     dance-single:
     :
     Medium:
     5:
     0.233258,0.270602,0.032440,0.118946,0.000000,151.000000,148.000000,3.000000,11.000000,0.000000,0.000000,0.233258,0.270602,0.032440,0.118946,0.000000,151.000000,148.000000,3.000000,11.000000,0.000000,0.000000:
0000
0000
0000
0000
,
0000
0000
0000
0000
,
0000
0000
0000
0000
,
0000
0000
0000
0000
,
0000
0000
0000
0000
,
0001
0000
0100
0000
0001
0100
0010
0100
,
0001
0000
0000
0000
0010
0001
0010
0000
,
0100
0000
1000
0000
0010
1000
0100
1000
,
0001
0000
0000
0000
1000
0100
1000
0000
,
0010
1000
0010
0100
0010
0000
0000
0000
,
0100
0001
0100
0010
0100
0000
0000
0000
,
0001
0010
0001
0000
1000
0000
0100
0000
,
1000
0010
1000
0000
0010
0000
0100
0000
,
0001
0100
0001
0100
0010
0000
0000
0000
,
1000
0100
1000
0100
0010
0000
0000
0000
,
0001
1000
0001
1000
0010
0000
0100
0000
,
0020
0000
2030
0000
,
3002
0000
0000
0000
0010
0010
0013
0000
,
1001
0000
0100
0000
0001
0010
1000
0000
,
1000
0100
0001
0000
0100
0000
0000
0000
,
1000
0100
0001
0010
1000
0000
0010
0000
,
0001
0100
0001
0000
,
1000
0010
1000
0010
0100
0000
0000
0000
,
0001
0100
0001
0100
0010
0000
0000
0000
,
1000
0001
0010
0000
0100
1000
0001
0000
,
0110
0000
0100
0010
,
2000
0010
0010
0010
0100
0000
0010
0000
,
3100
0000
0001
0000
,
0002
0010
0010
0010
0100
0000
0010
0000
,
0103
0000
1000
0000
,
0010
1000
0010
0100
0010
0000
0000
0000
,
0100
0001
0100
0010
0100
0000
0000
0000
,
0001
0000
0010
0000
0001
0010
0001
0000
,
1000
0000
0100
0000
1000
0100
1000
0000
,
0020
0100
0100
0000
,
0230
0001
0001
0000
,
0302
1000
1000
0000
,
2003
0000
3001
0100
,
0220
0000
0330
0000
;

//---------------dance-single - ----------------
#NOTES:
     dance-single:
     :
     Hard:
     8:
     0.333667,0.353864,0.129759,0.108133,0.000000,216.000000,204.000000,12.000000,10.000000,0.000000,0.000000,0.333667,0.353864,0.129759,0.108133,0.000000,216.000000,204.000000,12.000000,10.000000,0.000000,0.000000:
// measure 0
0000
0000
0000
0000
,  // measure 1
0000
0000
0000
0000
,  // measure 2
0000
0000
0000
0000
,  // measure 3
0000
0000
0000
0000
,  // measure 4
0000
0000
0000
0000
,  // measure 5
1001
0000
0010
0001
0100
0001
0010
0100
,  // measure 6
1000
0000
0000
1000
0001
0001
0100
0000
,  // measure 7
0010
0000
1000
0001
0100
0010
1000
0100
,  // measure 8
0010
0000
0000
0010
0001
0001
1000
0000
,  // measure 9
0110
0001
0100
0010
1000
0010
0100
0001
,  // measure 10
0000
1000
0100
0010
0001
0010
0100
1000
,  // measure 11
0000
0001
0002
0000
0000
0013
0100
0010
,  // measure 12
0001
1000
0001
0100
0000
0010
0000
0000
,  // measure 13
1000
1000
0010
0100
0100
0001
0010
0010
,  // measure 14
0000
0001
0001
1000
0000
0100
1000
0100
,  // measure 15
1000
0000
0010
0001
0100
0010
1000
0000
,  // measure 16
0022
0033
2200
3300
,  // measure 17
0110
0000
1000
0010
0100
0001
0100
0010
,  // measure 18
1000
0100
1000
0000
0001
0010
0100
1000
,  // measure 19
0001
0010
0001
0000
1000
0100
0001
0010
,  // measure 20
1000
0010
0001
0000
0100
0010
0100
0000
,  // measure 21
1100
0000
0101
0000
0010
1000
0100
1000
,  // measure 22
0001
0010
0001
0000
0010
0001
0100
0001
,  // measure 23
1000
0010
1000
0000
0001
0010
0100
2000
,  // measure 24
0000
0010
3010
0000
0100
0100
0010
0100
,  // measure 25
0010
0000
1000
0001
0010
0100
1000
1000
,  // measure 26
0011
0001
0001
1000
1000
1000
0010
0010
,  // measure 27
0010
0000
1100
0101
,  // measure 28
1100
1000
1000
0001
0001
0001
0100
0100
,  // measure 29
0010
0000
1000
0000
0001
0100
1000
0100
,  // measure 30
0001
0010
1000
0000
1000
0010
0001
0100
,  // measure 31
1000
0100
0001
0000
1000
0100
0010
0001
,  // measure 32
0000
0010
0010
0000
0100
0000
0010
0001
,  // measure 33
1000
0000
1000
0000
0010
0100
0010
0000
,  // measure 34
0000
0100
0001
0100
0001
0100
0100
0100
,  // measure 35
0000
0010
1000
0010
1000
0010
0010
0010
,  // measure 36
2000
0000
0000
0000
3002
0000
0013
0100
,  // measure 37
1000
0000
0100
0010
0000
0001
1000
0000
,  // measure 38
2002
0000
3003
0000
;
