#TITLE:IN MY DREAMS (U.K. Mix);
#SUBTITLE:;
#ARTIST:REBECCA;
#TITLETRANSLIT:;
#SUBTITLETRANSLIT:;
#ARTISTTRANSLIT:;
#GENRE:;
#CREDIT:;
#BANNER:IN MY DREAMS (U.K. Mix).png;
#BACKGROUND:IN MY DREAMS (U.K. Mix)-bg.png;
#LYRICSPATH:;
#CDTITLE:;
#MUSIC:IN MY DREAMS (U.K. Mix).ogg;
#OFFSET:0.000000;
#SAMPLESTART:16.332001;
#SAMPLELENGTH:15.000000;
#SELECTABLE:YES;
#BPMS:0.000000=139.153000
;
#STOPS:
;
#BGCHANGES:;
#KEYSOUNDS:;
#ATTACKS:;

//---------------dance-single - ----------------
#NOTES:
     dance-single:
     :
     Beginner:
     2:
     0.101350,0.140173,0.022885,0.000000,0.000000,62.000000,60.000000,2.000000,0.000000,0.000000,0.000000,0.101350,0.140173,0.022885,0.000000,0.000000,62.000000,60.000000,2.000000,0.000000,0.000000,0.000000:
0000
0000
0000
0000
,
0000
0000
0000
0000
,
0000
0000
0000
0000
,
0001
0000
0000
0000
,
1000
0000
0000
0000
,
1000
0000
0000
0000
,
0001
0000
0000
0000
,
0001
0000
0000
0000
,
1000
0000
0010
0000
,
0100
0000
0000
0000
,
0100
0000
0000
0000
,
0010
0000
0000
0000
,
0010
0000
1000
0000
,
0001
0000
0000
0000
,
0010
0000
0000
0000
,
0100
0000
0000
0000
,
0100
0000
0010
0000
,
0001
0000
0000
0000
,
1000
0000
0000
0000
,
1000
0000
0000
0000
,
0001
0000
0100
0000
,
0010
0000
0000
0000
,
0100
0000
0000
0000
,
0100
0000
0000
0000
,
0010
0000
1000
0000
,
1001
0000
0000
0000
,
0001
0000
0000
0000
,
1000
0000
0000
0000
,
0001
0000
0001
0000
,
0001
0000
0000
0000
,
1000
0000
0000
0000
,
0010
0000
0000
0000
,
0100
0000
0010
0000
,
0100
0000
0000
0000
,
0100
0000
0000
0000
,
0010
0000
1000
0000
,
0100
0000
0010
0000
,
0001
0000
0000
0000
,
0001
0000
0000
0000
,
1000
0000
0000
0000
,
1000
0000
0000
0000
,
0001
0000
0001
0000
,
0001
0000
0000
0000
,
0010
0000
0010
0000
,
0010
0000
0000
0000
,
0100
0000
0100
0000
,
0100
0000
0000
0000
,
1000
0000
1000
0000
,
1000
0000
0000
0000
,
1001
0000
0000
0000
;

//---------------dance-single - ----------------
#NOTES:
     dance-single:
     :
     Easy:
     5:
     0.241931,0.280346,0.045771,0.000000,0.000000,148.000000,144.000000,4.000000,0.000000,0.000000,0.000000,0.241931,0.280346,0.045771,0.000000,0.000000,148.000000,144.000000,4.000000,0.000000,0.000000,0.000000:
0000
0000
0000
0000
,
0000
0000
0000
0000
,
0000
0000
0000
0000
,
0100
0010
0100
1000
,
0001
0001
1000
0000
,
0010
1000
0001
0100
,
0010
0010
0100
0000
,
0001
0001
1000
0001
,
1000
0100
0010
0001
,
1001
0000
1000
1000
,
0010
1000
0100
0000
,
1000
0000
0001
0001
,
0100
0010
0100
0001
,
0010
0000
0100
0100
,
0010
0001
0010
0100
,
1000
0000
0001
0010
,
1000
0010
0001
0000
,
0100
0000
0010
0100
,
0010
0100
0010
1000
,
0001
0000
1000
0001
,
1000
0001
0100
0010
,
1000
0000
0010
1000
,
0001
0100
0001
0100
,
0010
0000
1000
0001
,
1000
0100
0010
0001
,
1001
0000
0001
0100
,
0001
0000
1000
0100
,
1000
0000
0010
1000
,
0001
0100
0010
1000
,
0001
0000
1000
0010
,
1000
0000
0001
0010
,
0001
0000
0010
0100
,
1000
0100
0010
0001
,
1001
0000
0000
0000
,
0100
0100
0100
0100
,
0010
1000
0010
0000
,
0100
0001
0100
0000
,
0001
0000
0001
0000
,
1000
0010
0100
0001
,
1000
0000
1000
0000
,
0001
0010
0100
1000
,
1010
1000
0100
0000
,
1000
0000
0000
0000
,
0001
0010
0100
0000
,
0010
0000
0000
0000
,
0100
1000
0010
0000
,
1000
0000
0000
0000
,
0010
1000
0001
0000
,
0100
0001
1000
0000
,
0100
0000
0000
0000
;

//---------------dance-single - ----------------
#NOTES:
     dance-single:
     :
     Medium:
     8:
     0.364532,0.364450,0.091542,0.000000,0.000000,223.000000,215.000000,8.000000,0.000000,0.000000,0.000000,0.364532,0.364450,0.091542,0.000000,0.000000,223.000000,215.000000,8.000000,0.000000,0.000000,0.000000:
0000
0000
0000
0000
,
0000
0000
0000
0000
,
0000
0000
0000
0000
,
0001
1000
0010
1000
,
0100
0000
0010
0000
0100
1000
0010
0100
,
0001
1000
0100
1000
,
0001
0000
0010
0000
0001
0010
0100
1000
,
0010
1000
0001
0100
,
0001
0000
0001
0000
1000
0100
0010
0001
,
1000
0000
0000
0000
0010
1000
0010
0100
,
0000
0001
0100
0010
0000
0100
0010
0000
,
1000
0000
0000
0000
0001
0010
0001
0100
,
0000
0010
0000
1000
0000
0001
0000
1000
,
0000
1000
0000
0000
0001
0010
0100
1000
,
0000
1000
0001
0100
0000
0010
0000
0000
,
0100
0000
0100
0000
0010
0100
0001
0010
,
0000
0001
1000
0000
0100
0000
0100
0000
,
0110
0000
0000
0000
0010
0100
1000
0100
,
0010
0000
0001
1000
0000
1000
0000
0001
,
0000
0000
0000
0000
1000
0010
0100
0001
,
0010
0000
0010
0100
0000
0100
0000
0010
,
0000
0001
0000
0000
0001
0010
0100
1000
,
0000
1000
0001
0100
0000
0010
0000
1000
,
0000
1000
0000
0000
0001
1000
0001
1000
,
0000
1000
0100
0010
0000
0001
0000
0000
,
1001
0000
0001
0100
0000
0100
0000
0010
,
0000
0000
0010
1000
0000
1000
0000
0001
,
0000
0000
1000
0001
0000
0001
0000
0100
,
0000
0100
0010
1000
0010
0000
0100
0001
,
0000
0000
0001
1000
0000
1000
0000
0100
,
0000
0000
1000
0001
0000
0001
0000
0010
,
0000
0000
0010
0100
0000
0100
0000
0010
,
0000
0010
0001
1000
0010
0000
0100
0000
,
0110
0010
0010
0010
,
1000
1000
0001
0001
,
1000
0001
1000
0000
0001
1000
0001
1000
,
0000
0100
0000
0000
0010
0001
0010
0000
,
0011
0000
0000
0011
0000
0000
0000
0000
,
0001
0010
0100
0000
1000
0010
0100
0000
,
1010
0000
0000
1010
0000
0000
0000
0000
,
1000
0010
1000
0000
0001
0100
0001
0000
,
0110
0000
0100
0100
0001
0000
0100
0000
,
0010
0010
1000
0001
,
1000
0000
1000
0100
1000
0000
0100
0000
,
0010
0010
0001
1000
,
0010
0000
0100
0100
0001
0000
1000
0000
,
0100
0100
0010
0100
,
1000
0000
0010
1000
0010
0000
0100
0000
,
0001
0000
0001
0000
1000
0010
0100
0000
,
0001
0000
0000
0000
;

//---------------dance-single - ----------------
#NOTES:
     dance-single:
     :
     Hard:
     10:
     0.477324,0.504623,0.228854,0.000000,0.000000,292.000000,272.000000,20.000000,0.000000,0.000000,0.000000,0.477324,0.504623,0.228854,0.000000,0.000000,292.000000,272.000000,20.000000,0.000000,0.000000,0.000000:
// measure 0
0000
0000
0000
0000
,  // measure 1
0000
0000
0000
0000
,  // measure 2
0000
0000
0000
0000
,  // measure 3
1000
0000
0100
0000
1000
0001
1000
0000
,  // measure 4
0001
0100
0010
0000
1000
0010
0100
0001
,  // measure 5
0010
0000
0100
0000
0010
0001
0010
0000
,  // measure 6
0100
1000
0100
0000
1000
0010
0100
0001
,  // measure 7
1000
0000
0100
0000
0010
0100
0010
0000
,  // measure 8
0001
0010
0100
1000
0100
0010
0001
0000
,  // measure 9
1001
0000
0100
0000
0001
0010
0001
0100
,  // measure 10
0000
0010
1000
0001
0000
1000
1000
0100
,  // measure 11
0010
0000
0010
0000
0001
1000
0010
0100
,  // measure 12
0000
0001
1000
0100
0000
1100
0000
0101
,  // measure 13
0000
0100
0100
0000
0010
0100
0001
1000
,  // measure 14
0000
0100
0010
0001
0000
0010
0010
0001
,  // measure 15
1000
0000
0001
0000
0100
0001
1000
0100
,  // measure 16
0000
0010
0010
0000
1100
0000
1001
0000
,  // measure 17
0101
0001
0100
0000
0010
0010
1000
1000
,  // measure 18
0001
0000
0010
0001
1000
0001
0010
0000
,  // measure 19
1100
0000
1000
0000
0001
1000
0010
1000
,  // measure 20
0100
0000
1000
0001
0000
0100
0000
0110
,  // measure 21
0000
0010
0010
0000
0100
0001
1000
0010
,  // measure 22
0000
1000
0001
0010
0000
0100
0010
0001
,  // measure 23
0000
0010
0010
0000
0001
1000
0001
0000
,  // measure 24
1000
0010
1000
0001
0010
0001
0100
0010
,  // measure 25
1001
0000
0001
0100
0000
0010
1000
0100
,  // measure 26
0010
0000
0100
1000
0000
0001
0010
0100
,  // measure 27
1000
0000
1000
0000
0010
1000
0010
0000
,  // measure 28
1000
0001
0100
0010
1000
0001
0010
0100
,  // measure 29
1000
0000
0010
0100
0000
0001
0010
0001
,  // measure 30
0100
0000
0001
1000
0000
1000
0100
0010
,  // measure 31
0100
0000
0100
0000
0010
0010
0001
0000
,  // measure 32
0010
0001
0100
0010
1000
0100
0010
0001
,  // measure 33
1001
1000
1000
1000
,  // measure 34
0001
1000
0001
1000
0010
1000
0010
0000
,  // measure 35
0110
0100
0100
0000
0101
0001
0001
0000
,  // measure 36
0001
1000
0100
0010
0001
0010
0100
1000
,  // measure 37
0110
0000
0000
0110
0000
0000
0110
0000
,  // measure 38
0100
0010
0100
0010
0100
0100
0010
0000
,  // measure 39
1001
0000
0000
1001
0000
0000
1001
0000
,  // measure 40
1000
0001
1000
0001
1000
1000
0001
0001
,  // measure 41
1001
0000
0001
0001
0010
0000
0100
0000
,  // measure 42
1000
0000
0100
0000
0010
0001
0100
0010
,  // measure 43
1000
0000
0001
0000
1000
1000
0100
0000
,  // measure 44
0010
0000
0001
0000
1000
0010
0100
0001
,  // measure 45
1000
0000
0001
0001
0010
0000
0100
0000
,  // measure 46
1000
0000
0010
0000
0100
0010
0100
0010
,  // measure 47
1000
0000
0001
0001
0010
0000
0100
0000
,  // measure 48
1000
0100
0010
0001
0010
0100
1000
0000
,  // measure 49
1001
0000
0000
0000
;
