#VERSION:0.83;
#TITLE:I'm so happy (Happy Hoppin Remix);
#SUBTITLE:;
#ARTIST:polysha*;
#TITLETRANSLIT:;
#SUBTITLETRANSLIT:;
#ARTISTTRANSLIT:;
#GENRE:;
#ORIGIN:;
#CREDIT:;
#BANNER:I'm so happy(Happy Hoppin Remix).png;
#BACKGROUND:I'm so happy(Happy Hoppin Remix)-bg.png;
#PREVIEWVID:;
#JACKET:I'm so happy(Happy Hoppin Remix)-jacket.png;
#CDIMAGE:;
#DISCIMAGE:;
#LYRICSPATH:;
#CDTITLE:;
#MUSIC:I'm so happy(Happy Hoppin Remix).ogg;
#OFFSET:0.000000;
#SAMPLESTART:79.985001;
#SAMPLELENGTH:15.000000;
#SELECTABLE:YES;
#BPMS:0.000=105.000;
#STOPS:;
#DELAYS:;
#WARPS:;
#TIMESIGNATURES:0.000=4=4;
#TICKCOUNTS:0.000=4;
#COMBOS:0.000=1;
#SPEEDS:0.000=1.000=0.000=0;
#SCROLLS:0.000=1.000;
#FAKES:;
#LABELS:0.000=Song Start;
#BGCHANGES:;
#KEYSOUNDS:;
#ATTACKS:
;

//---------------dance-single - ----------------
#NOTEDATA:;
#CHARTNAME:;
#STEPSTYPE:dance-single;
#DESCRIPTION:;
#CHARTSTYLE:;
#DIFFICULTY:Beginner;
#METER:2;
#RADARVALUES:0.097885,0.150996,0.008459,0.093051,0.000000,81.000000,80.000000,1.000000,11.000000,0.000000,0.000000,0.000000,0.000000,0.000000,0.097885,0.150996,0.008459,0.093051,0.000000,81.000000,80.000000,1.000000,11.000000,0.000000,0.000000,0.000000,0.000000,0.000000;
#CREDIT:;
#NOTES:
0000
0000
0000
0000
,
0000
0000
0000
0000
,
0000
0000
0000
0000
,
0000
0000
0000
0000
,
0000
0000
0000
0000
,
0001
0000
0000
0000
,
1000
0000
0000
0000
,
0010
0000
0010
0000
,
0100
0000
0100
0000
,
0010
0000
0000
0000
,
0001
0000
0000
0000
,
1000
0000
0100
0000
,
2000
0000
3000
0000
,
0001
0000
0100
0000
,
0002
0000
0003
0000
,
1000
0000
0010
0000
,
2000
0000
3000
0000
,
0001
0000
0010
0000
,
0002
0000
0003
0000
,
0010
0000
0000
0100
,
0100
0000
0000
0000
,
1000
0000
0000
0001
,
0001
0000
0001
0000
,
0100
0000
0000
0010
,
0010
0000
0000
0000
,
0001
0000
0000
1000
,
1000
0000
1000
0000
,
0100
0000
0000
0001
,
0001
0001
0000
1000
,
1000
1000
0000
0010
,
0010
0000
0100
0000
,
0010
0000
0000
1000
,
1000
1000
0000
0001
,
0001
0000
0010
0000
,
0100
0000
1000
0000
,
0001
0002
0003
0000
,
1000
2000
3000
0000
,
0010
0020
0030
0000
,
0100
0000
0010
0000
,
1000
2000
3000
0000
,
0001
0002
0003
0000
,
0010
0000
0100
0000
,
0010
0000
0001
0000
,
2000
0000
0000
0000
,
3000
0000
0000
0000
,
0001
0000
0010
0000
,
0001
0000
0100
0000
,
0020
0000
0000
0000
,
0030
0000
0000
0000
,
1000
0000
0010
0000
,
0100
0000
0001
0000
,
1001
0000
0000
0000
;

//---------------dance-single - ----------------
#NOTEDATA:;
#CHARTNAME:;
#STEPSTYPE:dance-single;
#DESCRIPTION:;
#CHARTSTYLE:;
#DIFFICULTY:Easy;
#METER:6;
#RADARVALUES:0.210271,0.237280,0.076132,0.126887,0.000000,174.000000,165.000000,9.000000,15.000000,0.000000,0.000000,0.000000,0.000000,0.000000,0.210271,0.237280,0.076132,0.126887,0.000000,174.000000,165.000000,9.000000,15.000000,0.000000,0.000000,0.000000,0.000000,0.000000;
#CREDIT:;
#NOTES:
0000
0000
0000
0000
,
0000
0000
0000
0000
,
0000
0000
0000
0000
,
0000
0000
0000
0000
,
0000
0000
0000
0000
,
1000
1000
0001
0001
,
0100
0001
1000
0010
,
1000
1000
0100
0100
,
0010
0010
0001
0001
,
1000
0001
1000
0001
,
0100
0000
0010
0000
0200
0000
0320
0030
,
0110
0000
0001
0001
,
1000
0010
0100
0001
,
0010
0000
0110
0100
,
1000
0100
0010
0001
,
1000
0000
1001
0001
,
1000
0001
0100
0010
,
1000
0000
0001
0010
,
0100
0100
0010
0001
,
2000
0020
0000
3030
,
0002
0200
0000
0303
,
0002
2000
0000
3003
,
0200
0020
0000
0330
,
0200
0010
1000
0010
,
0320
0100
0001
0130
,
0001
0001
1000
1000
,
0010
1000
0001
0010
,
0110
0000
0100
1000
,
0001
0100
0010
1000
,
0001
0000
1000
0010
,
1000
0100
0010
0001
,
0100
0000
0010
0010
,
0001
0010
0100
1000
,
0001
0001
1000
1000
,
0010
1000
0001
0100
,
0110
0100
0001
0100
,
0010
1000
0010
0000
,
0110
0010
1000
0010
,
0100
0001
0100
0000
,
1001
1000
0100
1000
,
0001
1000
0001
1000
,
1001
0001
0010
0001
,
1000
0001
1000
0100
,
0200
0000
0000
0000
,
0010
0001
0010
0301
,
1000
0010
0001
0010
,
1000
0100
0001
0100
,
2000
0100
0010
0010
,
0001
0100
0001
3001
,
0002
0010
1000
0103
,
0010
0100
1000
0001
,
1001
0000
0000
0000
;

//---------------dance-single - ----------------
#NOTEDATA:;
#CHARTNAME:;
#STEPSTYPE:dance-single;
#DESCRIPTION:;
#CHARTSTYLE:;
#DIFFICULTY:Medium;
#METER:12;
#RADARVALUES:0.466462,0.496130,0.160724,0.312989,0.287612,386.000000,367.000000,19.000000,37.000000,0.000000,0.000000,0.000000,0.000000,0.000000,0.466462,0.496130,0.160724,0.312989,0.287612,386.000000,367.000000,19.000000,37.000000,0.000000,0.000000,0.000000,0.000000,0.000000;
#CREDIT:;
#NOTES:
0000
0000
0000
0000
,
0000
0000
0000
0000
,
0000
0000
0000
0000
,
0000
0000
0000
0000
,
0000
0000
0000
0000
,
1000
0000
1000
0000
0001
0000
0100
0010
,
1000
0010
1000
0000
0010
0100
0001
1000
,
0001
0010
0100
0000
1000
0010
0100
0000
,
0001
0100
0010
1000
0010
0010
0100
0110
,
2000
0100
3002
0010
,
2003
0000
0010
0000
3002
0203
0320
2030
,
3001
0000
0000
0000
0000
0000
1000
0000
0000
1000
0000
0000
0100
0000
0000
0010
0000
0010
0002
0000
0000
0000
0000
0000
,
0013
0010
0100
0100
1000
0001
0100
1001
,
0110
0000
0000
0000
0000
0000
0010
0000
0000
1000
0000
0000
0100
0000
0100
0010
0000
0000
0001
0000
0000
0000
0000
0000
,
2000
0010
3002
0100
2003
0100
3002
0010
,
2003
0000
0000
0000
0000
0000
0010
0000
0000
3010
0000
0100
0002
0000
0000
0000
0000
0000
0010
0000
0000
0013
0000
0010
,
0100
0100
1000
1000
0001
0010
0100
1001
,
0001
0000
0000
1000
0000
0000
0010
0000
0000
0010
0000
0000
1000
0000
0000
0001
0000
0000
0100
0000
0100
0010
0000
0000
,
1000
1000
0001
0001
2000
3020
0230
0302
,
1003
0000
0000
0100
0000
1000
0000
0000
2000
0000
0000
0000
0000
0000
0000
0010
0000
0000
0000
0000
0000
3010
0000
0000
,
1000
0000
0000
0001
0000
0100
0000
0000
0002
0000
0000
0000
0000
0000
0000
0010
0000
0000
0000
0000
0000
0013
0000
0000
,
0100
0000
0000
0010
0000
0100
0000
0000
2000
0000
0000
0000
0000
0000
0000
0001
0000
0000
0000
0000
0000
3001
0000
0000
,
0100
0200
0000
0010
0010
0020
0330
0010
,
1000
0100
0010
0100
1000
0100
0010
0000
,
0001
0100
0010
0100
0001
0100
0010
0000
,
1000
0000
0000
0100
0000
0000
1000
0000
0100
1000
0000
0000
0001
0000
0000
0100
0000
0000
0001
0000
0100
0001
0000
0000
,
0010
0000
0000
0010
0000
0000
0100
0000
0000
0100
0000
0000
1001
0000
0000
1001
0000
0000
0010
0100
0010
0100
0000
0000
,
0002
0000
0000
0000
0000
0000
0103
0000
0010
0000
0000
2000
0100
0000
0000
3100
0000
0000
0010
0000
0000
0001
0000
0001
,
2000
0000
0000
0000
0000
0000
3010
0000
0100
0000
0000
0200
0001
0000
0000
0301
0000
0000
0010
0000
0010
0100
0000
0000
,
0020
0000
0000
0000
0000
0000
0031
0000
0100
0000
0000
0020
1000
0000
0000
1030
0000
0000
0001
0000
1000
0100
0000
0000
,
0020
0000
0000
0000
0000
0000
0031
0000
0100
0000
0000
0200
0010
0000
0000
0310
0000
0000
1000
0000
0001
1000
0000
0000
,
0101
0000
0000
1000
0000
0000
0100
0000
0010
0000
0000
0001
1000
0000
0000
0010
0000
0000
0100
0000
0001
0100
0000
0000
,
0010
0000
0000
1000
0000
0000
0001
0000
1000
0000
0000
1000
0100
0000
0000
0010
0000
0000
0001
0000
0001
0100
0000
0000
,
0010
0000
0000
1000
0000
0000
0100
0000
0010
0000
0000
0010
0001
0000
0000
0010
0000
0000
0100
0000
1000
0001
0000
0000
,
1010
0000
0101
0000
1100
0010
0101
0000
,
1001
0000
0000
0010
0000
0000
0100
0000
0000
0001
0000
0100
0000
0000
0000
0010
0000
0000
1000
0000
1000
0100
0000
0000
,
0010
0000
0000
0001
0000
0000
1000
0000
0000
0001
0000
0100
0000
0000
0000
0100
0000
0000
0010
0000
1000
0001
0000
0000
,
1000
0000
0000
0100
0000
0000
0010
0000
0000
0100
0000
1000
0000
0000
0000
0001
0000
0000
0100
0000
0100
0001
0000
0000
,
0010
0000
0000
0020
0000
0000
0000
0000
0000
0130
0000
0000
1000
0000
1000
0001
0000
0000
0010
0000
0000
1001
0000
0000
,
0100
0000
0000
1000
0000
0000
0010
0000
0000
0100
0000
0010
0000
0000
0000
1000
0000
0000
0100
0000
0100
0010
0000
0000
,
0001
0000
0000
0010
0000
0000
0100
0000
0000
0010
0000
0001
0000
0000
0000
0100
0000
0000
0010
0000
0010
1000
0000
0000
,
0001
0000
1000
0000
0000
0010
0000
0000
1000
0001
0000
0000
1000
0000
0001
0000
0000
0100
0000
0000
0001
1000
0000
0000
,
0010
0010
1000
1000
0001
0100
0110
0110
,
0020
0000
0000
0000
0000
0100
0000
0000
0200
0000
0000
0000
0000
0000
0000
0000
0000
0000
0330
0000
0000
0000
0000
0000
,
0001
0000
0000
1000
0000
0000
0001
0000
1000
0000
0000
0010
0100
0000
0000
0100
0000
0010
0000
0000
0000
1001
0000
0000
,
0010
0000
0000
0100
0000
0200
0000
0000
0000
1000
0000
2300
0000
0000
0000
0001
0000
3002
0000
0000
0000
0100
0000
0103
,
0010
0000
0000
1000
0000
0000
0001
0000
0000
0100
0000
0000
0010
0000
0000
1000
0000
0000
0001
0000
0001
0010
0000
0000
,
0001
0000
0000
0001
0000
0000
0010
0000
0010
0001
0000
0000
1000
0000
0000
1000
0000
0000
0100
0000
0100
1000
0000
0000
,
0010
0000
0000
0010
0000
0000
1000
0000
1000
0100
0000
0000
0010
0000
0000
0010
0000
0000
0001
0000
0001
0100
0000
0000
,
0010
0100
0010
1001
0100
0010
0100
1001
,
1000
0000
0000
1000
0000
0000
0100
0000
0000
0100
0000
0000
0010
0000
0010
0001
0000
0000
1000
0000
0000
1001
0000
0000
,
0100
0000
0000
0000
;

//---------------dance-single - ----------------
#NOTEDATA:;
#CHARTNAME:;
#STEPSTYPE:dance-single;
#DESCRIPTION:;
#CHARTSTYLE:;
#DIFFICULTY:Hard;
#METER:15;
#RADARVALUES:0.661023,0.690268,0.194561,0.143806,0.875523,547.000000,524.000000,23.000000,17.000000,0.000000,0.000000,0.000000,0.000000,0.000000,0.661023,0.690268,0.194561,0.143806,0.875523,547.000000,524.000000,23.000000,17.000000,0.000000,0.000000,0.000000,0.000000,0.000000;
#CREDIT:;
#NOTES:
// measure 0
0000
0000
0000
0000
,  // measure 1
0000
0000
0000
0000
,  // measure 2
0000
0000
0000
0000
,  // measure 3
0000
0000
0000
0000
,  // measure 4
0000
0000
0000
0000
,  // measure 5
0010
0001
0010
0000
0010
0100
0010
0100
,  // measure 6
0010
1000
0010
0000
0100
0001
0100
0001
,  // measure 7
0100
1000
0100
1000
0010
0001
0010
0001
,  // measure 8
0010
0000
1000
0001
0000
0000
0100
0000
0010
1000
0010
1000
0001
0000
0000
0001
0010
0100
1000
0000
0000
1001
0000
0000
,  // measure 9
0100
0000
0000
0001
0000
0000
0100
0000
0010
1000
0000
0010
1000
0000
0000
0100
0000
0000
0010
0000
0001
0010
0001
0010
,  // measure 10
0100
0000
0000
1000
0010
0100
0001
0000
0000
0001
0100
0010
2000
0000
0000
3002
0000
0000
0023
0000
0000
0230
0000
0000
,  // measure 11
0310
0000
0000
0010
0000
0000
0001
0100
0010
1000
0000
0000
0001
0000
0000
0001
0000
0000
1000
0010
0100
0001
0000
0000
,  // measure 12
0100
0000
0000
0010
0000
0010
1000
0000
0000
0100
0000
0100
0010
0000
0001
0010
0000
1000
0010
0000
1000
0010
0000
0000
,  // measure 13
0001
0000
0000
1000
0000
0000
0001
0010
0100
1000
0000
0000
1000
0000
0000
0001
0000
0000
1000
0010
0100
0001
0000
0000
,  // measure 14
0110
0000
0000
0010
0000
0010
1000
0000
0000
0010
0000
0001
0010
0000
0001
0010
0000
0001
0010
0000
1000
0100
0000
0000
,  // measure 15
0011
0000
0000
0001
0000
0000
1000
0100
1000
0010
0000
0000
1000
0010
1000
0001
0000
0000
1000
0001
1000
0100
0000
0000
,  // measure 16
0010
0000
0000
0010
0000
0000
0001
1000
0001
0100
0000
0001
0010
0000
0001
0010
0000
0100
1000
0000
0001
0100
0000
0000
,  // measure 17
0101
0000
0000
1000
0000
0000
0010
1000
0001
0010
0000
0000
1010
0000
0000
0001
0000
0000
0100
0001
1000
0100
0000
0000
,  // measure 18
0010
0000
0001
0010
0000
0100
0010
0000
0001
0010
0001
1000
0020
0000
0000
0230
0000
0000
0302
0000
0000
2003
0000
0000
,  // measure 19
3100
0000
0000
0010
0000
0002
0000
0000
1000
0000
0000
0000
0000
0000
0000
0010
0000
0000
0000
0000
0000
0013
0000
0000
,  // measure 20
0001
0000
0000
0100
0000
0010
0000
0000
2000
0000
0000
0000
0000
0000
0000
0001
0000
0000
0100
0000
0000
0100
0000
0000
,  // measure 21
3010
0000
0000
1000
0000
0010
0000
0000
0200
0000
0000
0000
0000
0300
0100
0002
0000
0000
0000
0000
0000
0000
0000
0000
,  // measure 22
0013
0000
0000
0010
0000
0000
0100
0000
0000
0100
0000
0000
1000
0000
0100
1000
0000
0000
0001
0000
0000
0001
0000
0000
,  // measure 23
1000
1000
0010
0010
0100
0100
0001
0001
,  // measure 24
0100
0100
0010
0010
1000
1000
0001
0001
,  // measure 25
0010
0000
0100
1000
0000
0100
1000
0000
0100
1000
0000
0001
0010
0000
0100
0010
0000
0100
0010
0000
0100
0010
0000
0001
,  // measure 26
0100
0000
0100
0010
0000
0000
1000
0000
0010
0100
0000
0000
0001
0000
0001
1000
0000
1000
0100
0010
0001
1000
0000
0000
,  // measure 27
0201
0000
0000
0000
0000
0000
0310
0000
1000
0000
0000
1000
0100
0000
1000
0100
0000
0000
0010
0000
0000
0001
1000
0010
,  // measure 28
2000
0000
0000
0010
0000
0000
3010
0000
0100
0000
0000
0100
0000
0000
0010
1000
0000
1000
0001
0000
0001
0010
0000
0000
,  // measure 29
0021
0000
0000
0000
0000
0000
0130
1000
0100
1000
0000
0001
0000
0000
0000
1000
0000
1000
0100
0000
1000
0010
0000
0100
,  // measure 30
0001
0000
0000
0001
0000
0000
0010
0000
0100
0000
0000
0100
0010
0000
0001
0010
0000
1000
0010
0000
0001
0010
0000
0001
,  // measure 31
0000
0000
0000
1001
0000
0000
0100
0000
0010
0000
0000
0100
0010
0000
1000
0100
0000
0010
0100
0000
1000
0100
0000
0010
,  // measure 32
0001
0000
0000
0001
0000
0000
1000
0000
0001
0000
0000
0001
0100
0000
0010
0100
0000
0000
0001
1000
0001
1000
0000
0000
,  // measure 33
1010
0100
0011
0100
0011
0100
1010
0100
,  // measure 34
0010
0000
0000
0010
0000
0000
1000
0000
0000
1000
0000
0000
0001
0000
0010
0001
0000
0010
0001
0000
1000
0010
0000
0100
,  // measure 35
0001
0000
0001
0100
0000
0100
0010
0000
0010
1000
0000
1000
0000
0000
0001
1000
0000
1000
0100
0000
0100
0010
0000
0000
,  // measure 36
0001
0000
0001
1000
0000
1000
0010
0000
0010
0100
0000
0100
0000
0000
0010
1000
0000
0001
0010
0000
0100
1000
0000
0100
,  // measure 37
0010
0000
0001
0010
0000
0100
1000
0000
0001
0100
0000
0010
0000
0000
1000
0010
0000
1000
0010
0000
0100
0001
0000
0000
,  // measure 38
1010
0000
0000
0010
0000
0000
0100
0000
0000
0100
0000
0000
0001
0000
0001
1000
0000
0100
0000
0000
0100
0010
0000
0000
,  // measure 39
0110
0000
0001
1000
0000
0010
0100
0000
0001
1000
0000
0100
0000
0000
0010
0100
0000
1000
0001
0000
0100
0010
0000
0000
,  // measure 40
1000
0000
0001
0010
0000
0010
1000
0000
1000
0100
0000
0100
0000
0000
0001
0100
0000
0100
1000
0000
1000
0010
0000
0010
,  // measure 41
0001
0000
0000
0001
0000
0000
0010
0000
0100
0010
0000
0000
0001
0000
0000
0001
0000
0000
0100
0000
0010
0100
0000
0000
,  // measure 42
0010
0000
0010
0001
0000
0000
0010
0000
0010
1000
0000
0000
0010
0000
0100
0010
0000
1000
0010
0000
1000
0010
0000
0000
,  // measure 43
2001
0000
0000
0010
0000
0100
0000
0000
0020
0000
0000
0000
0000
0000
0000
0000
0000
0000
3030
0000
0000
0000
0000
0000
,  // measure 44
1001
0000
0000
1001
0000
0000
0010
0000
0100
0000
0000
1010
0000
0000
0101
0000
0000
0010
1000
0000
0001
0100
0000
0001
,  // measure 45
0010
0000
0100
1000
0000
0010
0000
0000
0100
0001
0000
0010
0000
0000
0100
1000
0000
0001
0000
0000
0100
0001
0000
1000
,  // measure 46
0010
0000
0000
0100
0000
0000
0001
0000
0000
1000
0000
0000
0001
0000
1000
0000
0000
1001
0000
0000
1000
0001
1000
0001
,  // measure 47
0100
0000
0000
0010
0000
0000
1000
0000
0010
0000
0000
1000
0001
0000
1000
0001
0000
0000
0010
0000
0100
0000
0000
1000
,  // measure 48
0001
0000
0001
0010
0000
0010
0000
0000
0100
0000
0000
1000
0000
0000
0010
0000
0000
0100
0001
0000
0001
0100
0010
1000
,  // measure 49
0001
0010
0001
0010
0000
0000
0100
0000
0000
0100
0000
0000
1000
0010
1000
0010
0000
0000
0100
0000
0000
0100
0000
0000
,  // measure 50
0001
1000
0001
1000
0000
0000
0100
0010
0100
0010
0000
0000
0011
0000
1000
0000
0010
0000
0110
0000
0100
0000
0010
0000
,  // measure 51
1001
0000
0000
0000
;
